osu file format v14

[General]
AudioFilename: audio.mp3
AudioLeadIn: 0
PreviewTime: 78177
Countdown: 0
SampleSet: Soft
StackLeniency: 0.6
Mode: 0
LetterboxInBreaks: 0
WidescreenStoryboard: 0

[Editor]
Bookmarks: 13312,24664,39258,48988,52231,71691,78177,91150,104123
DistanceSpacing: 1
BeatDivisor: 4
GridSize: 4
TimelineZoom: 1

[Metadata]
Title:Hero of My Story 3style3
TitleUnicode:Hero of My Story 3style3
Artist:bladee
ArtistUnicode:bladee
Creator:Vanchanical
Version:Messiah
Source:
Tags:english rap trap hip hop hip-hop cloud cloudrap drain gang hyperpop 333
BeatmapID:2995328
BeatmapSetID:1457453

[Difficulty]
HPDrainRate:5
CircleSize:4
OverallDifficulty:8
ApproachRate:9
SliderMultiplier:2.6
SliderTickRate:1

[Events]
//Background and Video events
0,0,"bg.jpg",0,0
//Break Periods
2,26485,32172
2,37633,38658
2,75134,77577
//Storyboard Layer 0 (Background)
//Storyboard Layer 1 (Fail)
//Storyboard Layer 2 (Pass)
//Storyboard Layer 3 (Foreground)
//Storyboard Layer 4 (Overlay)
//Storyboard Sound Samples

[TimingPoints]
340,405.405405405405,4,2,0,100,1,0
13312,-83.3333333333333,4,2,0,100,0,0
15339,-125,4,2,0,100,0,0
15745,-83.3333333333333,4,2,0,100,0,0
20204,-125,4,2,0,100,0,0
20610,-83.3333333333333,4,2,0,100,0,0
24664,-166.666666666667,4,2,2,100,0,0
32772,-125,4,2,0,100,0,0
39258,-83.3333333333333,4,2,0,100,0,0
41285,-125,4,2,0,100,0,0
41691,-83.3333333333333,4,2,0,100,0,0
46150,-125,4,2,0,100,0,0
46556,-83.3333333333333,4,2,0,100,0,0
48988,-166.666666666667,4,2,0,100,0,0
52231,-76.9230769230769,4,2,0,100,0,1
54258,-125,4,2,0,100,0,1
54664,-76.9230769230769,4,2,0,100,0,1
57096,-76.9230769230769,4,2,0,100,0,0
57907,-76.9230769230769,4,2,0,100,0,1
58110,-76.9230769230769,4,2,0,100,0,0
58312,-76.9230769230769,4,2,0,100,0,1
58515,-76.9230769230769,4,2,0,100,0,0
58718,-76.9230769230769,4,2,0,100,0,1
59123,-125,4,2,0,100,0,1
59529,-76.9230769230769,4,2,0,100,0,1
63988,-125,4,2,0,100,0,1
64394,-76.9230769230769,4,2,0,100,0,0
65204,-76.9230769230769,4,2,0,100,0,1
65306,-76.9230769230769,4,2,0,100,0,0
65407,-76.9230769230769,4,2,0,100,0,1
65508,-76.9230769230769,4,2,0,100,0,0
65610,-125,4,2,0,100,0,1
66015,-76.9230769230769,4,2,0,100,0,1
70475,-125,4,2,0,100,0,1
70880,-76.9230769230769,4,2,0,100,0,1
71691,-125,4,2,0,100,0,0
78177,-83.3333333333333,4,2,0,100,0,0
78583,-125,4,2,0,100,0,0
78988,-83.3333333333333,4,2,0,100,0,0
85069,-125,4,2,0,100,0,0
85475,-83.3333333333333,4,2,0,100,0,0
89934,-125,4,2,0,100,0,0
90339,-83.3333333333333,4,2,0,100,0,0
93177,-125,4,2,0,100,0,0
93583,-83.3333333333333,4,2,0,100,0,0
98042,-125,4,2,0,100,0,0
98448,-83.3333333333333,4,2,0,100,0,0
102907,-125,4,2,0,100,0,0
103312,-83.3333333333333,4,2,0,100,0,0
104123,-500,4,2,0,90,0,0
104934,-500,4,2,0,20,0,0
105339,-500,4,2,0,80,0,0
105745,-500,4,2,0,5,0,0
106150,-500,4,2,0,70,0,0
106556,-500,4,2,0,5,0,0
106961,-500,4,2,0,60,0,0
107367,-500,4,2,0,5,0,0
107772,-500,4,2,0,50,0,0
108177,-500,4,2,0,5,0,0
108583,-500,4,2,0,40,0,0
108988,-500,4,2,0,5,0,0
109394,-500,4,2,0,30,0,0
109799,-500,4,2,0,5,0,0
110204,-500,4,2,0,20,0,0
110610,-500,4,2,0,5,0,0

[Colours]
Combo1 : 255,128,128
Combo2 : 0,128,255
Combo3 : 225,12,0
Combo4 : 17,200,215

[HitObjects]
45,179,13312,6,0,B|5:160|5:160|44:99|146:106|191:182,1,233.999992858887,2|0,2:3|0:0,0:0:0:0:
152,259,13718,5,4,2:3:0:0:
148,244,13819,1,4,2:3:0:0:
144,229,13921,1,4,2:3:0:0:
345,59,14123,6,0,P|359:112|342:148,1,77.999997619629,8|0,0:0|0:0,0:0:0:0:
289,222,14326,1,4,2:3:0:0:
281,99,14529,5,2,2:0:0:0:
447,190,14731,1,2,2:0:0:0:
333,314,14934,2,0,B|269:354|218:297|218:297|170:241|107:282,1,233.999992858887,2|0,2:0|0:0,0:0:0:0:
70,330,15339,2,0,L|77:373,4,26,10|8|8|8|6,2:3|2:3|2:3|2:3|2:3,0:0:0:0:
0,212,15745,6,0,L|11:130,1,77.999997619629,10|0,0:0|0:0,0:0:0:0:
24,31,15948,1,0,0:0:0:0:
222,219,16150,2,0,P|249:144|329:142,1,155.999995239258,2|0,2:3|0:0,0:0:0:0:
217,364,16556,6,0,B|167:378|140:342|140:342|114:301|56:318,1,155.999995239258,2|0,2:3|0:0,0:0:0:0:
297,208,16961,2,0,B|346:222|373:186|373:186|399:145|457:162,1,155.999995239258,2|0,2:3|0:0,0:0:0:0:
107,34,17367,6,0,P|93:83|105:123,1,77.999997619629,10|0,0:0|0:0,0:0:0:0:
162,196,17569,1,10,0:0:0:0:
174,76,17772,5,2,2:0:0:0:
39,207,17975,1,2,2:0:0:0:
206,289,18177,2,0,B|275:317|316:252|316:252|353:188|423:218,1,233.999992858887,6|0,2:3|0:0,0:0:0:0:
410,225,18583,2,0,P|327:217|322:141,1,155.999995239258,2|0,2:0|0:0,0:0:0:0:
468,0,18988,6,0,P|446:23|437:75,1,77.999997619629,10|0,0:0|0:0,0:0:0:0:
452,142,19191,1,6,2:3:0:0:
200,80,19394,2,0,P|271:81|323:10,1,155.999995239258,4|8,2:3|0:0,0:0:0:0:
182,196,19799,6,0,P|101:204|-2:93,1,233.999992858887,2|0,2:3|0:0,0:0:0:0:
38,33,20204,2,0,L|86:26,4,26,8|8|8|8|8,2:3|2:3|2:3|2:3|2:3,0:0:0:0:
210,87,20610,6,0,L|300:95,1,77.999997619629,8|0,0:0|0:0,0:0:0:0:
395,107,20812,1,6,2:3:0:0:
276,0,21015,5,2,2:0:0:0:
175,175,21218,1,2,2:0:0:0:
273,226,21421,6,0,P|347:214|446:198,1,155.999995239258,2|2,2:0|2:0,0:0:0:0:
287,70,21826,1,2,2:0:0:0:
175,175,22029,2,0,P|156:220|170:268,1,77.999997619629,6|0,2:3|0:0,0:0:0:0:
220,369,22231,6,0,B|292:391|326:322|326:322|358:256|430:279,1,233.999992858887,10|0,0:0|0:0,0:0:0:0:
393,345,22637,2,0,B|379:389|379:389|276:312|359:172,1,233.999992858887,2|0,2:3|0:0,0:0:0:0:
486,155,23042,2,0,B|537:193|514:269|514:269|424:267|405:173,1,233.999992858887,2|0,2:3|0:0,0:0:0:0:
470,68,23448,1,4,2:3:0:0:
470,68,23650,1,4,2:3:0:0:
338,13,23853,6,0,P|288:6|247:39,1,77.999997619629,10|0,0:0|0:0,0:0:0:0:
190,98,24056,1,6,2:3:0:0:
350,218,24258,5,6,2:3:0:0:
307,88,24461,1,2,2:0:0:0:
179,134,24664,6,0,B|234:138|234:138|256:168|256:168|343:176|343:176|356:165|356:165|488:177,2,311.999990478516,2|2|2,2:0|0:0|0:0,0:0:0:0:
15,322,32772,6,0,B|-15:277|-15:277|7:219,1,104,2|0,2:0|0:0,0:0:0:0:
71,198,33177,2,0,B|129:174|163:228|163:228|199:281|254:257,1,208,2|0,2:0|0:0,0:0:0:0:
300,53,33785,6,0,B|303:-1|232:-9|224:42|224:42|210:149,1,208,2|0,2:0|0:0,0:0:0:0:
272,174,34394,2,0,B|330:198|364:144|364:144|400:91|455:115,1,208,2|0,2:0|0:0,0:0:0:0:
496,175,35002,1,0,0:0:0:0:
493,327,35204,6,0,B|477:378|407:362|417:311|417:311|441:206,1,208,2|0,2:0|0:0,0:0:0:0:
496,175,35812,1,0,0:0:0:0:
401,73,36015,6,0,B|351:65|351:65|345:68|345:68|272:54,1,104,2|0,2:0|0:0,0:0:0:0:
240,109,36421,2,0,B|217:87|221:57|221:57|162:137|236:182|225:163|302:206|240:308,1,312,2|0,2:0|0:0,0:0:0:0:
84,252,37231,2,0,B|129:243|129:243|135:246|135:246|185:238,1,104,2|0,2:0|0:0,0:0:0:0:
512,96,39258,6,0,B|447:57|397:115|397:115|350:171|286:131,1,233.999992858887,2|0,2:3|0:0,0:0:0:0:
340,23,39664,6,0,P|392:134|404:272,1,233.999992858887,2|0,2:3|0:0,0:0:0:0:
345,293,40069,2,0,B|308:287|308:287|304:289|304:289|261:281,1,77.999997619629,10|0,0:0|0:0,0:0:0:0:
148,262,40272,1,10,0:0:0:0:
319,200,40475,5,2,2:0:0:0:
250,377,40677,1,2,2:0:0:0:
170,98,40880,6,0,B|182:42|257:60|247:114|247:114|223:217,1,233.999992858887,2|0,2:0|0:0,0:0:0:0:
147,261,41285,2,0,L|100:253,4,26,10|8|8|8|6,2:3|2:3|2:3|2:3|2:3,0:0:0:0:
263,351,41691,6,0,L|355:340,1,77.999997619629,10|0,0:0|0:0,0:0:0:0:
448,319,41894,1,4,2:3:0:0:
316,135,42096,2,0,P|243:148|222:219,1,155.999995239258,2|8,2:3|0:0,0:0:0:0:
512,50,42502,6,0,B|462:64|435:28|435:28|409:-13|351:4,1,155.999995239258,0|0,2:3|0:0,0:0:0:0:
297,208,42907,2,0,B|346:222|373:186|373:186|399:145|457:162,1,155.999995239258,2|0,2:3|0:0,0:0:0:0:
180,2,43312,6,0,L|193:96,1,77.999997619629,10|0,0:0|0:0,0:0:0:0:
141,145,43515,1,10,0:0:0:0:
180,2,43718,6,0,L|193:96,1,77.999997619629,10|0,0:0|0:0,0:0:0:0:
141,145,43921,1,10,0:0:0:0:
180,2,44123,6,0,L|193:96,1,77.999997619629,10|0,0:0|0:0,0:0:0:0:
141,145,44326,2,0,L|154:239,1,77.999997619629,10|0,0:0|0:0,0:0:0:0:
102,288,44529,5,10,0:0:0:0:
178,373,44731,2,0,P|221:379|265:351,1,77.999997619629,6|0,2:3|0:0,0:0:0:0:
495,222,44934,5,10,0:0:0:0:
419,307,45136,2,0,P|376:313|332:285,1,77.999997619629,6|0,2:3|0:0,0:0:0:0:
340,76,45339,2,0,B|352:20|427:38|417:92|417:92|393:195,1,233.999992858887,4|0,2:3|0:0,0:0:0:0:
313,228,45745,6,0,B|239:243|210:172|210:172|184:103|111:120,1,233.999992858887,2|0,2:3|0:0,0:0:0:0:
59,148,46150,2,0,L|62:198,4,26,8|8|8|8|8,2:3|2:3|2:3|2:3|2:3,0:0:0:0:
114,376,46556,6,0,L|123:293,1,77.999997619629,10|0,0:0|0:0,0:0:0:0:
137,190,46758,1,6,2:3:0:0:
219,345,46961,5,2,2:0:0:0:
35,199,47164,1,2,2:0:0:0:
117,141,47367,6,0,P|191:129|290:113,1,155.999995239258,2|2,2:0|2:0,0:0:0:0:
195,305,47772,1,2,2:0:0:0:
35,199,47975,2,0,P|17:164|19:126,1,77.999997619629,6|0,2:3|0:0,0:0:0:0:
125,30,48177,6,0,B|197:8|231:77|231:77|263:143|335:120,1,233.999992858887,10|0,0:0|0:0,0:0:0:0:
304,50,48583,2,0,B|290:6|290:6|187:83|270:223,1,233.999992858887,2|0,2:3|0:0,0:0:0:0:
297,245,48988,6,0,B|344:254|363:208|363:208|379:164|425:175,3,155.999995239258,0|0|0|2,0:0|0:0|0:0|2:0,0:0:0:0:
501,328,50610,2,0,B|482:371|424:354|429:310|429:310|443:248,2,155.999995239258,2|2|2,2:0|2:0|2:0,0:0:0:0:
450,99,52231,6,0,B|490:118|490:118|429:186|337:172|307:91,1,253.499988395691,2|0,2:3|0:0,0:0:0:0:
399,5,52637,5,4,2:3:0:0:
403,20,52738,1,4,2:3:0:0:
407,35,52840,1,4,2:3:0:0:
245,201,53042,6,0,P|186:183|149:202,1,84.4999961318971,10|0,0:0|0:0,0:0:0:0:
53,265,53245,1,2,2:0:0:0:
213,333,53448,1,2,2:0:0:0:
367,222,53650,1,2,2:0:0:0:
339,46,53853,6,0,B|321:-19|243:2|256:58|256:58|282:170,1,253.499988395691,2|0,2:0|0:0,0:0:0:0:
367,222,54258,2,0,L|414:210,4,26,10|8|8|8|6,2:3|2:3|2:3|2:3|2:3,0:0:0:0:
217,336,54664,6,0,B|172:327|172:327|167:329|167:329|106:318,1,84.4999961318971,10|0,0:0|0:0,0:0:0:0:
1,296,54867,1,0,0:0:0:0:
18,137,55069,6,0,B|57:20|187:62|187:62|150:77|134:115,1,253.499988395691,2|0,2:3|0:0,0:0:0:0:
304,266,55475,6,0,B|265:149|135:191|135:191|172:206|188:244,1,253.499988395691,2|0,2:3|0:0,0:0:0:0:
197,306,55880,1,4,2:3:0:0:
197,306,56083,1,4,2:3:0:0:
344,384,56285,6,0,P|400:379|435:343,1,84.4999961318971,10|0,0:0|0:0,0:0:0:0:
512,240,56488,1,2,2:0:0:0:
367,161,56691,1,6,2:3:0:0:
224,271,56894,1,2,2:0:0:0:
80,111,57096,1,2,2:0:0:0:
80,111,57907,6,0,P|44:141|40:190,1,84.4999961318971,8|0,0:0|0:0,0:0:0:0:
54,252,58110,1,4,2:3:0:0:
174,42,58312,6,0,P|144:6|95:2,1,84.4999961318971,8|0,0:0|0:0,0:0:0:0:
32,14,58515,1,4,2:3:0:0:
222,177,58718,6,0,B|296:199|330:130|330:130|362:64|434:87,1,253.499988395691,2|0,2:3|0:0,0:0:0:0:
492,145,59123,2,0,L|484:185,4,26,8|8|8|8|8,2:3|2:3|2:3|2:3|2:3,0:0:0:0:
434,363,59529,6,0,B|425:318|425:318|427:313|427:313|416:252,1,84.4999961318971,10|0,0:0|0:0,0:0:0:0:
401,162,59731,1,2,2:0:0:0:
290,372,59934,5,2,2:0:0:0:
476,224,60137,1,2,2:0:0:0:
401,162,60339,6,0,P|314:143|220:125,1,168.999992263794,2|2,2:0|2:0,0:0:0:0:
301,336,60745,1,2,2:0:0:0:
476,224,60948,2,0,P|497:185|491:131,1,84.4999961318971,6|0,2:3|0:0,0:0:0:0:
400,35,61150,6,0,B|324:13|290:82|290:82|258:148|186:125,1,253.499988395691,10|0,0:0|0:0,0:0:0:0:
220,55,61556,2,0,B|238:-10|317:11|304:67|304:67|277:179,1,253.499988395691,2|0,2:3|0:0,0:0:0:0:
204,309,61961,2,0,P|188:201|102:277,1,253.499988395691,2|0,2:3|0:0,0:0:0:0:
83,384,62367,2,0,B|35:371|35:371|100:243|247:331,1,253.499988395691,2|0,2:3|0:0,0:0:0:0:
271,374,62772,1,10,0:0:0:0:
271,374,62975,1,10,0:0:0:0:
512,289,63177,6,0,P|452:300|414:284,1,84.4999961318971,2|0,2:0|0:0,0:0:0:0:
319,207,63380,1,2,2:0:0:0:
334,47,63583,6,0,B|346:-17|430:3|417:59|417:59|391:171,1,253.499988395691,6|0,2:3|0:0,0:0:0:0:
319,207,63988,2,0,L|286:202,4,26,6|8|8|8|10,2:3|2:3|2:3|2:3|2:3,0:0:0:0:
207,241,64394,1,2,2:0:0:0:
207,241,65204,6,0,P|211:180|190:156,1,84.4999961318971,2|0,2:3|0:0,0:0:0:0:
209,81,65407,2,0,P|158:47|126:53,1,84.4999961318971,2|0,2:3|0:0,0:0:0:0:
71,0,65610,2,0,L|34:8,4,26,8|8|8|8|8,2:3|2:3|2:3|2:3|2:3,0:0:0:0:
7,234,66015,6,0,P|51:191|83:192,1,84.4999961318971,10|0,0:0|0:0,0:0:0:0:
128,129,66218,2,0,P|186:146|202:174,1,84.4999961318971,10|0,0:0|0:0,0:0:0:0:
281,303,66421,6,0,P|339:285|355:257,1,84.4999961318971,10|0,0:0|0:0,0:0:0:0:
431,249,66624,2,0,P|445:189|429:162,1,84.4999961318971,10|0,0:0|0:0,0:0:0:0:
412,17,66826,6,0,B|340:-10|301:55|301:55|264:118|194:90,1,253.499988395691,2|0,2:0|0:0,0:0:0:0:
186,77,67231,2,0,P|240:89|256:153,1,84.4999961318971,2|0,2:0|0:0,0:0:0:0:
287,225,67434,1,6,2:3:0:0:
69,281,67637,6,0,B|4:302|-18:219|37:203|37:203|147:169,1,253.499988395691,10|0,0:0|0:0,0:0:0:0:
251,197,68042,2,0,B|156:274|238:381|238:381|278:318,1,253.499988395691,2|0,2:3|0:0,0:0:0:0:
431,245,68447,2,0,B|460:299|413:363|413:363|328:330|340:239,1,253.499988395691,2|0,2:3|0:0,0:0:0:0:
484,167,68853,1,4,2:3:0:0:
484,167,69056,1,4,2:3:0:0:
389,37,69258,6,0,P|340:22|305:37,1,84.4999961318971,10|0,0:0|0:0,0:0:0:0:
199,110,69461,1,2,2:0:0:0:
369,170,69664,5,2,2:0:0:0:
166,23,69867,1,2,2:0:0:0:
89,207,70069,6,0,B|162:227|196:158|196:158|227:92|299:114,1,253.499988395691,6|0,2:3|0:0,0:0:0:0:
369,170,70475,2,0,L|364:209,4,26,6|8|8|8|10,2:3|2:3|2:3|2:3|2:3,0:0:0:0:
297,373,70880,6,0,B|288:328|288:328|290:323|290:323|279:262,1,84.4999961318971,10|0,0:0|0:0,0:0:0:0:
270,184,71083,1,4,2:3:0:0:
270,184,71691,6,0,B|300:139|300:139|278:81,1,104,2|0,2:0|0:0,0:0:0:0:
111,199,72096,2,0,B|169:175|203:229|203:229|239:282|294:258,1,208,2|0,2:0|0:0,0:0:0:0:
286,43,72704,6,0,B|289:-11|218:-19|210:32|210:32|196:139,1,208,2|0,2:0|0:0,0:0:0:0:
257,181,73313,2,0,B|315:205|349:151|349:151|385:98|440:122,1,208,2|0,2:0|0:0,0:0:0:0:
504,189,73921,1,0,0:0:0:0:
400,253,74123,2,0,P|386:148|371:41,1,208,2|0,2:0|0:0,0:0:0:0:
440,0,74731,1,0,0:0:0:0:
440,0,74934,1,2,2:0:0:0:
66,149,78177,6,0,B|135:178|176:113|176:113|213:49|283:79,1,233.999992858887,2|0,2:3|0:0,0:0:0:0:
327,120,78583,2,0,L|323:152,4,26,8|8|8|8|8,2:3|2:3|2:3|2:3|2:3,0:0:0:0:
268,331,78988,6,0,L|257:253,1,77.999997619629,10|0,0:0|0:0,0:0:0:0:
245,144,79191,1,6,2:3:0:0:
353,347,79394,5,2,2:0:0:0:
164,192,79596,1,2,2:0:0:0:
245,144,79799,6,0,P|319:136|419:126,1,155.999995239258,2|2,2:0|2:0,0:0:0:0:
259,300,80204,1,2,2:0:0:0:
147,195,80407,2,0,P|128:150|142:102,1,77.999997619629,6|0,2:3|0:0,0:0:0:0:
192,1,80609,6,0,B|264:-21|298:48|298:48|330:114|402:91,1,233.999992858887,10|0,0:0|0:0,0:0:0:0:
405,16,81015,6,0,P|281:43|266:151,1,233.999992858887,2|0,2:3|0:0,0:0:0:0:
308,199,81421,2,0,B|380:221|414:152|414:152|446:86|518:109,1,233.999992858887,2|0,2:3|0:0,0:0:0:0:
453,376,81826,2,0,B|488:366|488:366|464:288|364:258|310:330,1,233.999992858887,2|0,2:3|0:0,0:0:0:0:
271,381,82231,1,10,0:0:0:0:
271,381,82434,1,8,0:0:0:0:
188,235,82637,6,0,P|151:208|115:209,1,77.999997619629,2|0,2:0|0:0,0:0:0:0:
18,247,82839,1,2,2:0:0:0:
132,369,83042,6,0,L|124:275,1,77.999997619629,6|0,2:3|0:0,0:0:0:0:
271,203,83245,2,0,L|279:109,1,77.999997619629,4|0,2:3|0:0,0:0:0:0:
89,32,83448,1,4,2:3:0:0:
330,196,84664,6,0,P|411:204|514:93,1,233.999992858887,2|0,2:3|0:0,0:0:0:0:
474,33,85069,2,0,L|426:26,4,26,8|8|8|8|8,2:3|2:3|2:3|2:3|2:3,0:0:0:0:
336,99,85475,6,0,L|246:107,1,77.999997619629,10|0,0:0|0:0,0:0:0:0:
151,119,85677,1,6,2:3:0:0:
235,0,85880,5,2,2:0:0:0:
342,196,86083,1,2,2:0:0:0:
260,234,86286,6,0,P|186:222|87:206,1,155.999995239258,2|2,2:0|2:0,0:0:0:0:
233,63,86691,1,2,2:0:0:0:
336,164,86894,2,0,P|355:209|341:257,1,77.999997619629,6|0,2:3|0:0,0:0:0:0:
273,346,87096,6,0,B|201:368|167:299|167:299|135:233|63:256,1,233.999992858887,10|0,0:0|0:0,0:0:0:0:
118,384,87502,2,0,B|152:294|178:146,1,233.999992858887,2|0,2:3|0:0,0:0:0:0:
40,81,87907,6,0,P|53:132|97:155,1,77.999997619629,6|0,2:3|0:0,0:0:0:0:
171,0,88110,2,0,P|138:26|129:67,1,77.999997619629,6|0,2:3|0:0,0:0:0:0:
309,74,88312,2,0,P|257:59|214:86,1,77.999997619629,6|0,2:3|0:0,0:0:0:0:
313,229,88515,2,0,P|305:187|273:159,1,77.999997619629,6|0,2:3|0:0,0:0:0:0:
206,372,88718,6,0,B|251:363|251:363|256:365|256:365|318:354,1,77.999997619629,10|0,0:0|0:0,0:0:0:0:
387,338,88921,1,4,2:3:0:0:
215,225,89123,6,0,B|170:216|170:216|165:218|165:218|106:205,1,77.999997619629,10|0,0:0|0:0,0:0:0:0:
33,191,89326,1,4,2:3:0:0:
179,25,89529,6,0,B|248:-4|289:61|289:61|326:125|396:95,1,233.999992858887,6|0,2:3|0:0,0:0:0:0:
440,54,89935,2,0,L|436:22,4,26,8|8|8|8|8,2:3|2:3|2:3|2:3|2:3,0:0:0:0:
506,102,90339,1,0,0:0:0:0:
203,53,91150,6,0,B|133:24|93:90|93:90|55:153|-14:124,1,233.999992858887,2|0,2:3|0:0,0:0:0:0:
46,0,91556,2,0,B|76:94|94:237,1,233.999992858887,2|0,2:3|0:0,0:0:0:0:
24,286,91961,1,10,0:0:0:0:
24,286,92164,1,6,2:3:0:0:
120,377,92367,6,0,P|173:374|208:347,1,77.999997619629,2|0,2:0|0:0,0:0:0:0:
274,289,92569,1,2,2:0:0:0:
248,123,92772,6,0,B|236:67|161:85|171:139|171:139|195:242,1,233.999992858887,2|0,2:0|0:0,0:0:0:0:
274,289,93177,2,0,L|319:286,4,26,10|8|8|8|6,2:3|2:3|2:3|2:3|2:3,0:0:0:0:
473,243,93583,6,0,B|428:234|428:234|423:236|423:236|391:230,1,77.999997619629,10|0,0:0|0:0,0:0:0:0:
291,203,93785,1,2,2:0:0:0:
377,44,93988,6,0,B|398:18|398:-13|398:-13|483:62|428:171,1,233.999992858887,2|0,2:3|0:0,0:0:0:0:
291,203,94394,2,0,B|270:184|226:186|226:186|277:142|348:170|384:232,1,233.999992858887,2|0,2:3|0:0,0:0:0:0:
405,302,94799,1,6,2:3:0:0:
405,302,95002,1,6,2:3:0:0:
288,350,95204,6,0,P|245:362|211:351,1,77.999997619629,10|0,0:0|0:0,0:0:0:0:
130,281,95407,1,2,2:0:0:0:
316,228,95610,5,2,2:0:0:0:
110,375,95812,1,2,2:0:0:0:
116,177,96015,6,0,P|190:169|290:159,1,155.999995239258,6|2,2:3|2:0,0:0:0:0:
169,324,96420,1,0,0:0:0:0:
34,251,96623,2,0,P|4:212|5:162,1,77.999997619629
27,52,96825,6,0,B|90:12|141:69|141:69|189:125|253:84,1,233.999992858887,8|0,0:0|0:0,0:0:0:0:
347,40,97231,2,0,P|248:90|309:202,1,233.999992858887,2|0,2:3|0:0,0:0:0:0:
390,332,97637,2,0,B|312:241|404:180|404:180|398:233|422:272,1,233.999992858887,2|0,2:3|0:0,0:0:0:0:
483,192,98042,2,0,L|523:187,4,26,8|8|8|8|8,2:3|2:3|2:3|2:3|2:3,0:0:0:0:
288,309,98448,6,0,B|243:300|243:300|238:302|238:302|209:297,1,77.999997619629,10|0,0:0|0:0,0:0:0:0:
104,280,98650,1,6,2:3:0:0:
301,384,98853,5,2,2:0:0:0:
166,179,99056,1,2,2:0:0:0:
104,280,99258,6,0,P|152:273|272:255,1,155.999995239258,2|0,2:0|0:0,0:0:0:0:
156,123,99664,1,2,2:0:0:0:
32,250,99867,2,0,P|24:303|41:336,1,77.999997619629,6|0,2:3|0:0,0:0:0:0:
179,372,100069,6,0,B|248:400|288:334|288:334|326:271|396:300,1,233.999992858887,10|0,0:0|0:0,0:0:0:0:
467,353,100475,2,0,B|455:409|380:391|390:337|390:337|414:234,1,233.999992858887,2|0,2:3|0:0,0:0:0:0:
413,79,100880,2,0,B|462:36|526:84|526:84|498:162|424:159,1,233.999992858887,2|0,2:3|0:0,0:0:0:0:
332,34,101285,1,6,2:3:0:0:
332,34,101488,1,6,2:3:0:0:
258,160,101691,6,0,P|203:144|176:150,1,77.999997619629,10|0,0:0|0:0,0:0:0:0:
85,195,101894,1,2,2:0:0:0:
272,262,102096,1,2,2:0:0:0:
97,86,102299,1,2,2:0:0:0:
12,242,102502,6,0,B|81:213|122:278|122:278|159:342|229:312,1,233.999992858887,6|0,2:3|0:0,0:0:0:0:
272,262,102907,2,0,L|272:218,4,26,8|8|8|8|8,2:3|2:3|2:3|2:3|2:3,0:0:0:0:
211,54,103312,6,0,B|208:99|208:99|204:104|204:104|200:151,1,77.999997619629,8|0,0:0|0:0,0:0:0:0:
187,236,103515,1,4,2:3:0:0:
336,370,103718,1,2,2:3:0:0:
350,383,104123,6,0,B|402:234|402:234|413:233|413:233|493:0|493:0|347:-43|268:139|326:204|326:204|335:213|335:213|308:286|308:286,1,832
