osu file format v14

[General]
AudioFilename: audio.mp3
AudioLeadIn: 0
PreviewTime: 22569
Countdown: 0
SampleSet: Soft
StackLeniency: 0.4
Mode: 0
LetterboxInBreaks: 0
WidescreenStoryboard: 1

[Editor]
Bookmarks: 11275
DistanceSpacing: 1.4
BeatDivisor: 4
GridSize: 32
TimelineZoom: 2.2

[Metadata]
Title:Decay
TitleUnicode:Decay
Artist:bladee
ArtistUnicode:bladee
Creator:dog food
Version:Hard
Source:
Tags:xiced door weapon YEAR0001 2018 track 11 #11 Whitearmor YR0047 drain gang dg rap hip hop hip-hop hiphop red light english
BeatmapID:3074485
BeatmapSetID:1462093

[Difficulty]
HPDrainRate:5
CircleSize:4
OverallDifficulty:6
ApproachRate:7
SliderMultiplier:1.4
SliderTickRate:1

[Events]
//Background and Video events
0,0,"bg.jpg",0,0
//Break Periods
2,45357,54845
2,82063,86963
2,110121,112022
//Storyboard Layer 0 (Background)
//Storyboard Layer 1 (Fail)
//Storyboard Layer 2 (Pass)
//Storyboard Layer 3 (Foreground)
//Storyboard Layer 4 (Overlay)
//Storyboard Sound Samples

[TimingPoints]
11275,352.941176470588,4,2,1,45,1,0
11275,-142.857142857143,4,2,1,45,0,0
22569,-100,4,2,1,60,0,0
33157,-142.857142857143,4,2,1,40,0,0
33863,-90.9090909090909,4,2,1,70,0,1
45157,-90.9090909090909,4,2,1,40,0,0
55745,-142.857142857143,4,2,1,40,0,0
56451,-90.9090909090909,4,2,1,70,0,1
67745,-142.857142857143,4,2,1,40,0,0
81863,-200,4,2,1,40,0,0
90333,-90.909090909091,4,2,1,70,0,1
100216,-142.857142857143,4,2,1,60,0,0
101627,-90.9090909090909,4,2,1,70,0,1
110098,-125,4,2,1,60,0,0
112922,-142.857142857143,4,2,1,45,0,0

[Colours]
Combo1 : 150,45,255
Combo2 : 198,0,198

[HitObjects]
60,211,11275,6,0,P|88:249|135:258,1,97.9999970092774,2|0,0:0|0:0,0:0:0:0:
248,240,11980,1,2,0:0:0:0:
253,366,12333,1,0,0:0:0:0:
253,366,12510,2,0,P|302:323|382:335,1,146.999995513916,2|0,0:0|0:0,0:0:0:0:
490,258,13392,1,2,0:0:0:0:
490,258,13569,1,0,0:0:0:0:
439,188,13745,2,0,L|448:131,1,48.9999985046387
485,49,14098,5,2,0:0:0:0:
337,125,14451,1,2,0:0:0:0:
247,9,14804,1,0,0:0:0:0:
167,90,15157,1,0,0:0:0:0:
167,90,15333,2,0,P|106:98|52:167,1,146.999995513916,2|0,0:0|0:0,0:0:0:0:
102,293,16216,2,0,L|92:352,1,48.9999985046387,2|0,0:0|0:0,0:0:0:0:
196,275,16569,2,0,L|186:334,1,48.9999985046387
280,375,16922,6,0,P|325:365|377:363,1,97.9999970092774,2|0,0:0|0:0,0:0:0:0:
478,290,17627,1,2,0:0:0:0:
395,205,17980,1,0,0:0:0:0:
395,205,18157,2,0,P|386:132|395:58,1,146.999995513916,2|0,0:0|0:0,0:0:0:0:
269,162,19039,1,2,0:0:0:0:
269,162,19216,1,0,0:0:0:0:
202,91,19392,2,0,L|146:100,1,48.9999985046387
66,152,19745,6,0,P|55:104|65:57,2,97.9999970092774,2|0|2,0:0|0:0|0:0,0:0:0:0:
175,251,20804,1,0,0:0:0:0:
175,251,20980,2,0,P|119:248|72:328,1,146.999995513916,2|0,0:0|0:0,0:0:0:0:
235,327,21863,2,0,L|304:339,1,48.9999985046387,2|2,0:0|0:3,0:0:0:0:
350,269,22216,2,0,L|419:281,1,48.9999985046387,2|2,0:3|0:3,0:0:0:0:
469,345,22569,1,6,1:0:0:0:
417,172,22922,5,0,3:0:0:0:
417,172,23010,1,0,3:0:0:0:
417,172,23098,1,0,3:0:0:0:
491,221,23274,2,0,P|503:189|504:143,1,70,10|0,0:0|3:0,0:0:0:0:
378,22,23627,2,0,P|366:54|365:100,1,70,0|0,3:0|3:0,0:0:0:0:
315,173,23980,1,4,0:3:0:0:
237,126,24157,2,0,L|94:142,1,140,10|0,0:0|3:0,0:0:0:0:
47,255,24686,2,0,L|186:239,1,140,10|0,0:0|3:0,0:0:0:0:
186,239,25127,1,0,3:0:0:0:
186,239,25216,1,10,0:0:0:0:
294,311,25392,6,0,P|314:245|300:177,1,140,4|2,0:3|3:2,0:0:0:0:
211,110,25922,1,0,0:0:0:0:
280,51,26098,2,0,B|340:90|440:86,1,140,10|0,0:0|3:0,0:0:0:0:
494,132,26627,1,4,3:0:0:0:
425,199,26804,2,0,P|423:239|432:278,1,70,2|2,0:0|0:0,0:0:0:0:
348,331,27157,2,0,P|277:340|224:383,1,140,4|10,0:3|0:0,0:0:0:0:
154,319,27686,1,0,0:0:0:0:
75,360,27863,1,0,3:0:0:0:
75,360,27951,1,0,3:0:0:0:
75,360,28039,2,0,L|2:376,1,70,0|2,3:0|1:0,0:0:0:0:
59,121,28569,6,0,P|31:184|35:253,1,140,4|10,0:3|0:0,0:0:0:0:
121,214,29098,1,0,3:0:0:0:
121,214,29274,1,0,3:0:0:0:
196,263,29451,1,0,3:0:0:0:
272,221,29627,2,0,P|300:157|296:88,1,140,2|0,0:0|0:0,0:0:0:0:
222,36,30157,1,0,3:0:0:0:
301,0,30333,2,0,P|337:7|381:8,1,70,10|0,0:0|0:0,0:0:0:0:
430,95,30686,2,0,L|434:129,2,35,0|0|0,3:0|3:0|3:0,0:0:0:0:
299,182,31039,6,0,B|136:174|250:59|89:29,1,280,4|8,0:3|0:0,0:0:0:0:
86,206,32098,2,0,B|248:198|135:83|292:47|292:47|295:53,1,280,4|2,0:3|0:3,0:0:0:0:
406,238,33157,5,2,0:3:0:0:
406,238,33333,1,2,0:3:0:0:
406,238,33510,2,0,L|476:251,1,48.9999985046387,2|2,0:3|0:3,0:0:0:0:
318,284,33863,6,0,P|308:246|315:209,1,77.0000023498536,6|0,1:0|0:0,0:0:0:0:
437,82,34216,2,0,P|447:120|440:157,1,77.0000023498536,2|0,1:0|0:0,0:0:0:0:
291,84,34569,2,0,L|138:60,1,154.000004699707,10|0,0:0|3:0,0:0:0:0:
41,12,35098,2,0,P|29:85|56:177,1,154.000004699707,10|8,0:0|0:0,0:0:0:0:
100,237,35627,1,4,0:3:0:0:
150,155,35804,1,4,0:3:0:0:
201,227,35980,2,0,L|278:241,1,77.0000023498536,10|2,0:0|0:0,0:0:0:0:
309,355,36333,2,0,L|232:342,2,77.0000023498536,4|2|2,0:3|0:0|0:0,0:0:0:0:
393,307,36863,5,4,0:3:0:0:
480,346,37039,2,0,P|489:275|465:179,1,154.000004699707,4|8,0:3|0:0,0:0:0:0:
289,19,37745,1,4,0:3:0:0:
289,19,37921,2,0,P|280:90|304:186,1,154.000004699707,10|0,0:0|3:0,0:0:0:0:
372,220,38451,1,4,0:3:0:0:
306,281,38627,1,4,0:3:0:0:
345,368,38804,2,0,B|305:370|250:353,1,77.0000023498536,10|2,0:0|0:0,0:0:0:0:
178,354,39157,1,4,0:3:0:0:
71,143,39510,6,0,L|54:229,1,77.0000023498536,6|2,1:0|0:0,0:0:0:0:
198,154,39863,2,0,B|242:109|223:34|162:20,2,154.000004699707,2|10|2,1:0|0:0|0:0,0:0:0:0:
162,265,40745,2,0,P|235:254|336:252,1,154.000004699707,10|0,0:0|3:0,0:0:0:0:
430,289,41274,2,0,B|428:280|439:327|423:364,2,77.0000023498536,4|4|10,0:3|0:3|0:0,0:0:0:0:
395,198,41804,2,0,B|385:156|400:121,1,77.0000023498536,2|4,0:0|0:3,0:0:0:0:
491,69,42156,1,2,0:0:0:0:
491,69,42332,5,0,3:0:0:0:
419,0,42510,1,4,0:3:0:0:
342,46,42686,1,0,3:0:0:0:
342,46,42774,1,0,3:0:0:0:
342,46,42863,2,0,L|265:54,1,77.0000023498536,0|10,3:0|0:0,0:0:0:0:
169,65,43216,1,0,0:0:0:0:
230,133,43392,1,4,0:3:0:0:
190,215,43569,2,0,L|36:231,1,154.000004699707,10|0,0:0|3:0,0:0:0:0:
46,346,44098,5,0,3:0:0:0:
126,315,44274,1,2,3:2:0:0:
198,360,44451,2,0,B|212:324|207:284,1,77.0000023498536,8|0,0:0|0:0,0:0:0:0:
319,193,44804,2,0,B|304:228|309:268,1,77.0000023498536,2|0,0:0|0:0,0:0:0:0:
389,340,45157,1,0,1:0:0:0:
114,130,55745,5,2,0:0:0:0:
114,130,55922,1,2,0:3:0:0:
114,130,56098,2,0,L|124:68,1,48.9999985046387,2|2,0:3|0:3,0:0:0:0:
209,24,56451,6,0,B|243:43|291:42,1,77.0000023498536,6|8,1:0|0:0,0:0:0:0:
372,10,56804,1,4,0:3:0:0:
372,10,56892,1,4,0:3:0:0:
372,10,56980,1,4,0:3:0:0:
357,97,57157,2,0,B|338:178|330:267,1,154.000004699707,10|0,0:0|3:0,0:0:0:0:
466,322,57686,2,0,B|488:240|490:153,1,154.000004699707,10|0,0:0|3:0,0:0:0:0:
443,76,58216,1,4,0:3:0:0:
357,97,58392,1,4,0:3:0:0:
300,32,58569,2,0,P|259:26|214:19,1,77.0000023498536,10|2,0:0|0:0,0:0:0:0:
136,117,58922,2,0,P|174:122|212:128,1,77.0000023498536,2|2,0:0|0:0,0:0:0:0:
289,217,59274,5,4,0:3:0:0:
289,217,59451,1,4,0:3:0:0:
227,286,59627,2,0,L|218:337,2,38.5000011749268,0|0|2,3:0|3:0|3:2,0:0:0:0:
328,331,59980,2,0,B|416:326|371:273|470:263,1,154.000004699707,10|4,0:0|0:3,0:0:0:0:
368,193,60510,2,0,L|356:31,1,154.000004699707,10|0,0:0|3:0,0:0:0:0:
271,9,61039,1,4,0:3:0:0:
124,174,61392,2,0,L|48:185,2,77.0000023498536,10|2|0,0:0|0:0|3:0,0:0:0:0:
179,236,61922,1,4,0:3:0:0:
251,192,62098,6,0,P|260:153|257:115,1,77.0000023498536,6|0,1:0|0:0,0:0:0:0:
382,26,62451,2,0,P|373:65|375:102,1,77.0000023498536,2|0,1:0|0:0,0:0:0:0:
474,151,62804,2,0,P|402:137|359:197,1,154.000004699707,10|0,0:0|0:0,0:0:0:0:
403,295,63333,2,0,L|250:275,1,154.000004699707,10|0,0:0|3:0,0:0:0:0:
159,354,63863,1,4,0:3:0:0:
88,315,64039,1,4,0:3:0:0:
13,351,64216,2,0,B|-1:311|9:268,1,77.0000023498536,10|0,0:0|3:0,0:0:0:0:
139,176,64569,2,0,B|153:216|143:259,1,77.0000023498536,0|0,3:0|3:0,0:0:0:0:
25,144,64922,5,4,0:3:0:0:
25,144,65098,1,4,0:3:0:0:
90,78,65274,2,0,B|167:88|242:61,1,154.000004699707,0|10,3:2|0:0,0:0:0:0:
385,209,65980,1,4,0:3:0:0:
385,209,66157,2,0,B|308:199|232:225,1,154.000004699707,10|0,0:0|3:3,0:0:0:0:
246,326,66686,2,0,B|323:336|398:309,2,154.000004699707,4|10|4,0:3|0:0|0:3,0:0:0:0:
162,362,67569,1,4,0:3:0:0:
98,305,67745,1,2,0:0:0:0:
187,148,68098,6,0,L|202:31,2,97.9999970092774,0|0|4,3:0|0:0|0:3,0:0:0:0:
136,213,68980,1,0,0:0:0:0:
208,262,69157,2,0,L|272:257,1,48.9999985046387,2|0,0:0|0:0,0:0:0:0:
282,351,69510,2,0,L|346:346,1,48.9999985046387,4|0,0:3|0:0,0:0:0:0:
416,280,69863,2,0,B|427:221|418:167|418:167,2,97.9999970092774,0|4|2,3:0|0:3|0:0,0:0:0:0:
331,223,70745,5,0,3:0:0:0:
331,223,70922,2,0,L|225:208,1,97.9999970092774,0|0,3:0|0:0,0:0:0:0:
160,270,71451,1,0,0:0:0:0:
160,270,71627,2,0,B|158:305|152:322|152:322,1,48.9999985046387,0|0,3:0|0:0,0:0:0:0:
69,230,71980,2,0,B|71:195|77:178|77:178,1,48.9999985046387,2|0,0:0|0:0,0:0:0:0:
193,106,72333,2,0,B|191:141|185:158|185:158,1,48.9999985046387,4|0,0:3|0:0,0:0:0:0:
121,46,72686,1,2,0:0:0:0:
121,46,72863,1,0,0:0:0:0:
215,8,73039,1,4,0:3:0:0:
215,8,73216,1,4,0:3:0:0:
293,63,73392,1,0,3:0:0:0:
465,27,73745,6,0,B|472:86|455:136|455:136,1,97.9999970092774,2|4,0:0|0:3,0:0:0:0:
396,192,74274,1,0,0:0:0:0:
396,192,74451,2,0,L|344:184,1,48.9999985046387,4|4,0:3|0:3,0:0:0:0:
273,272,74804,2,0,L|321:279,1,48.9999985046387,2|0,0:0|0:0,0:0:0:0:
420,350,75157,2,0,L|427:301,1,48.9999985046387,4|0,0:3|0:0,0:0:0:0:
491,233,75510,1,2,3:2:0:0:
379,89,75863,1,4,0:3:0:0:
268,189,76216,1,0,0:0:0:0:
135,82,76569,6,0,L|29:95,2,97.9999970092774
249,17,77627,2,0,L|303:24,1,48.9999985046387,2|0,0:0|0:0,0:0:0:0:
298,120,77980,2,0,L|346:126,1,48.9999985046387
422,68,78333,1,0,3:0:0:0:
496,174,78686,1,0,0:0:0:0:
401,256,79039,1,0,1:0:0:0:
232,182,79392,6,0,P|187:169|134:165,2,97.9999970092774,2|2|2,0:0|0:0|0:0,0:0:0:0:
144,277,80451,2,0,L|152:331,1,48.9999985046387,0|0,3:0|0:0,0:0:0:0:
247,301,80804,2,0,L|255:355,1,48.9999985046387
357,277,81157,1,2,0:0:0:0:
439,351,81510,1,0,0:0:0:0:
500,262,81863,1,0,3:0:0:0:
16,142,87863,5,2,0:0:0:0:
79,23,88216,1,2,0:0:0:0:
179,140,88569,1,2,0:0:0:0:
83,297,88922,2,0,P|100:300|116:306,1,35,0|0,3:0|0:0,0:0:0:0:
116,224,89274,2,0,P|133:227|149:233,1,35
202,343,89627,2,0,L|279:357,1,70,2|2,0:0|0:3,0:0:0:0:
270,355,90157,1,2,0:3:0:0:
367,312,90333,6,0,P|378:357|366:387,1,77.0000023498536,6|0,1:0|3:0,0:0:0:0:
250,256,90686,2,0,P|239:211|250:180,1,77.0000023498536,4|4,0:3|0:3,0:0:0:0:
332,113,91039,2,0,B|405:127|485:141|485:141,1,154.000004699707,10|4,0:0|0:3,0:0:0:0:
381,220,91569,2,0,B|327:247|333:332|385:349,1,154.000004699707,10|0,0:0|3:0,0:0:0:0:
464,308,92098,1,2,0:0:0:0:
264,360,92451,2,0,L|178:347,1,77.0000023498536,10|0,0:0|3:0,0:0:0:0:
209,245,92804,2,0,L|123:232,2,77.0000023498536,0|0|4,3:0|3:0|0:3,0:0:0:0:
299,209,93333,5,4,0:3:0:0:
376,264,93510,2,0,B|417:197|382:112|382:112,1,154.000004699707,0|10,3:0|0:0,0:0:0:0:
236,13,94216,1,4,0:3:0:0:
236,13,94393,2,0,B|195:80|230:165|230:165,1,154.000004699707,10|0,0:0|3:0,0:0:0:0:
213,250,94922,2,0,L|131:238,1,77.0000023498536,4|0,0:3|0:0,0:0:0:0:
44,287,95274,1,10,0:0:0:0:
80,366,95451,1,0,3:0:0:0:
80,366,95627,1,4,0:3:0:0:
160,329,95804,1,4,0:3:0:0:
240,368,95980,6,0,L|250:292,1,77.0000023498536,6|0,1:0|0:0,0:0:0:0:
388,242,96333,2,0,L|378:318,1,77.0000023498536,2|0,1:0|0:0,0:0:0:0:
303,181,96686,2,0,P|221:178|145:162,1,154.000004699707,10|4,0:0|0:3,0:0:0:0:
251,42,97216,2,0,P|333:45|409:61,1,154.000004699707,10|0,0:0|0:0,0:0:0:0:
464,141,97745,2,0,L|449:225,1,77.0000023498536,2|4,0:0|0:3,0:0:0:0:
383,302,98098,2,0,P|345:291|308:285,1,77.0000023498536,10|0,0:0|3:0,0:0:0:0:
197,165,98451,2,0,P|234:175|271:181,1,77.0000023498536,0|0,3:0|3:0,0:0:0:0:
175,263,98804,5,4,0:3:0:0:
175,263,98980,1,4,0:3:0:0:
230,325,99157,2,0,L|221:378,2,38.5000011749268,0|0|2,3:0|3:0|3:2,0:0:0:0:
317,256,99510,2,0,L|403:273,1,77.0000023498536,10|2,0:0|0:0,0:0:0:0:
476,202,99863,1,4,0:3:0:0:
402,153,100039,2,0,P|392:112|424:-8,1,154.000004699707,10|0,0:0|0:0,0:0:0:0:
477,82,100569,1,4,0:3:0:0:
281,115,100922,2,0,L|217:103,1,48.9999985046387,2|2,0:3|0:3,0:0:0:0:
235,17,101274,2,0,L|171:5,1,48.9999985046387,2|2,0:3|0:3,0:0:0:0:
85,55,101627,6,0,P|76:93|81:131,1,77.0000023498536,6|8,1:0|0:0,0:0:0:0:
148,206,101980,1,4,0:3:0:0:
148,206,102069,1,4,0:3:0:0:
148,206,102157,1,4,0:3:0:0:
88,270,102333,2,0,P|165:250|239:240,1,154.000004699707,10|0,0:0|0:0,0:0:0:0:
322,281,102863,2,0,B|375:274|386:183|330:158,1,154.000004699707,10|0,0:0|3:0,0:0:0:0:
244,136,103392,1,2,0:0:0:0:
381,7,103745,2,0,L|461:18,1,77.0000023498536,10|0,0:0|3:0,0:0:0:0:
479,119,104098,2,0,L|402:108,1,77.0000023498536,0|0,3:0|3:0,0:0:0:0:
301,60,104451,5,4,0:3:0:0:
226,100,104627,1,4,0:3:0:0:
159,42,104804,2,0,B|75:22|6:69|6:69,1,154.000004699707,0|10,3:0|0:0,0:0:0:0:
134,193,105510,1,0,3:0:0:0:
134,193,105686,2,0,B|218:173|287:220|287:220,1,154.000004699707,10|0,0:0|0:0,0:0:0:0:
262,325,106216,2,0,B|178:345|109:298|109:298,2,154.000004699707,4|8|4,0:3|0:0|0:3,0:0:0:0:
346,297,107098,1,4,0:3:0:0:
426,351,107274,6,0,P|436:311|436:263,1,77.0000023498536,6|8,1:0|0:0,0:0:0:0:
327,134,107627,2,0,P|317:174|317:222,1,77.0000023498536,2|4,1:0|0:3,0:0:0:0:
417,171,107980,2,0,P|466:177|496:77,1,154.000004699707,10|0,0:0|0:0,0:0:0:0:
398,54,108510,2,0,L|223:32,1,154.000004699707,10|0,0:0|3:0,0:0:0:0:
153,3,109039,2,0,P|139:38|138:77,1,77.0000023498536,0|4,0:0|0:3,0:0:0:0:
208,147,109392,1,10,0:0:0:0:
208,147,109569,1,0,3:0:0:0:
136,212,109745,2,0,L|55:201,1,77.0000023498536,0|0,3:0|3:0,0:0:0:0:
279,228,112922,6,0,L|268:286,1,48.9999985046387,6|0,3:2|0:0,0:0:0:0:
360,303,113274,2,0,L|368:254,1,48.9999985046387,2|0,0:0|0:0,0:0:0:0:
446,195,113627,2,0,P|465:145|446:92,1,97.9999970092774,2|0,0:0|0:0,0:0:0:0:
341,34,114157,2,0,P|321:83|341:136,1,97.9999970092774,0|0,3:2|0:0,0:0:0:0:
361,201,114686,1,2,0:0:0:0:
251,279,115039,2,0,L|188:269,1,48.9999985046387,2|0,3:2|3:0,0:0:0:0:
186,362,115392,2,0,L|123:352,1,48.9999985046387,0|0,3:0|3:0,0:0:0:0:
68,262,115745,6,0,P|61:214|72:162,2,97.9999970092774,2|2|2,3:2|0:0|0:0,0:0:0:0:
220,173,116804,1,0,0:0:0:0:
220,173,116980,2,0,P|229:125|222:76,1,97.9999970092774,2|0,0:0|0:0,0:0:0:0:
146,38,117510,1,0,3:0:0:0:
314,28,117863,2,0,L|374:36,1,48.9999985046387,2|0,3:2|0:0,0:0:0:0:
454,93,118216,2,0,L|461:39,1,48.9999985046387,0|0,3:2|0:0,0:0:0:0:
362,131,118569,6,0,L|356:232,2,97.9999970092774,2|2|2,3:2|0:0|0:0,0:0:0:0:
233,184,119627,1,2,0:0:0:0:
233,184,119804,2,0,P|181:164|125:182,1,97.9999970092774,0|0,3:0|0:0,0:0:0:0:
75,246,120333,2,0,L|65:303,1,48.9999985046387,2|0,0:0|0:0,0:0:0:0:
121,363,120686,1,2,3:2:0:0:
121,363,120863,1,0,3:2:0:0:
192,321,121039,1,0,3:2:0:0:
192,321,121216,1,0,3:2:0:0:
263,368,121392,6,0,P|290:367|312:360,1,48.9999985046387,2|0,3:2|0:0,0:0:0:0:
345,252,121745,2,0,P|318:253|295:259,1,48.9999985046387,2|0,0:0|0:0,0:0:0:0:
217,218,122098,2,0,L|231:108,1,97.9999970092774,2|0,0:0|0:0,0:0:0:0:
323,145,122627,2,0,L|337:35,1,97.9999970092774
420,13,123157,1,2,0:0:0:0:
484,181,123510,5,2,0:3:0:0:
428,243,123686,1,0,0:0:0:0:
489,308,123863,2,0,L|478:365,1,48.9999985046387,0|2,0:0|0:0,0:0:0:0:
