osu file format v14

[General]
AudioFilename: audio.mp3
AudioLeadIn: 0
PreviewTime: 12480
Countdown: 0
SampleSet: Normal
StackLeniency: 0
Mode: 1
LetterboxInBreaks: 0
WidescreenStoryboard: 0

[Editor]
Bookmarks: 14194,41622,69051,82765
DistanceSpacing: 2.2
BeatDivisor: 4
GridSize: 32
TimelineZoom: 2.2

[Metadata]
Title:Be Nice To Me
TitleUnicode:Be Nice To Me
Artist:bladee
ArtistUnicode:bladee
Creator:Genjuro
Version:muzukashii
Source:
Tags:english hip hop trap cloud rap pop emo icedancer drain gang hiphop hip-hop
BeatmapID:3573124
BeatmapSetID:1739255

[Difficulty]
HPDrainRate:6
CircleSize:2
OverallDifficulty:4
ApproachRate:10
SliderMultiplier:1.4
SliderTickRate:1

[Events]
//Background and Video events
0,0,"dg.jpg",0,0
//Break Periods
2,69051,82315
//Storyboard Layer 0 (Background)
//Storyboard Layer 1 (Fail)
//Storyboard Layer 2 (Pass)
//Storyboard Layer 3 (Foreground)
//Storyboard Layer 4 (Overlay)
//Storyboard Sound Samples

[TimingPoints]
480,428.571428571429,4,1,0,33,1,0
82765,461.538461538462,4,1,0,33,1,1
112303,500,4,1,0,33,1,0

[HitObjects]
256,192,14194,5,4,0:0:0:0:
256,192,14408,1,8,0:0:0:0:
256,192,15051,1,8,0:0:0:0:
256,192,15265,1,0,0:0:0:0:
256,192,15372,1,0,0:0:0:0:
256,192,15480,1,0,0:0:0:0:
256,192,15694,1,0,0:0:0:0:
256,192,16122,1,8,0:0:0:0:
256,192,16337,1,0,0:0:0:0:
256,192,16551,1,0,0:0:0:0:
256,192,16765,1,8,0:0:0:0:
256,192,16872,1,8,0:0:0:0:
256,192,16980,1,8,0:0:0:0:
256,192,17194,1,0,0:0:0:0:
256,192,17622,1,4,0:0:0:0:
256,192,17837,1,8,0:0:0:0:
256,192,18265,1,0,0:0:0:0:
256,192,18480,1,8,0:0:0:0:
256,192,18908,1,0,0:0:0:0:
256,192,19122,1,0,0:0:0:0:
256,192,19230,1,0,0:0:0:0:
256,192,19337,1,0,0:0:0:0:
256,192,19551,1,8,0:0:0:0:
256,192,19980,1,0,0:0:0:0:
256,192,20194,1,8,0:0:0:0:
256,192,20408,1,8,0:0:0:0:
256,192,20515,1,8,0:0:0:0:
256,192,20622,1,8,0:0:0:0:
256,192,21051,1,4,0:0:0:0:
256,192,21265,1,8,0:0:0:0:
256,192,21908,1,8,0:0:0:0:
256,192,22337,1,0,0:0:0:0:
256,192,22551,1,0,0:0:0:0:
256,192,22658,1,0,0:0:0:0:
256,192,22765,1,0,0:0:0:0:
256,192,22980,1,8,0:0:0:0:
256,192,23194,1,0,0:0:0:0:
256,192,23622,1,8,0:0:0:0:
256,192,23837,1,0,0:0:0:0:
256,192,24480,1,4,0:0:0:0:
256,192,24694,1,8,0:0:0:0:
256,192,25122,1,0,0:0:0:0:
256,192,25337,1,8,0:0:0:0:
256,192,25551,1,0,0:0:0:0:
256,192,25658,1,0,0:0:0:0:
256,192,25765,1,0,0:0:0:0:
256,192,25980,1,0,0:0:0:0:
256,192,26408,1,8,0:0:0:0:
256,192,26515,1,8,0:0:0:0:
256,192,26622,1,8,0:0:0:0:
256,192,26837,1,0,0:0:0:0:
256,192,27051,1,0,0:0:0:0:
256,192,27265,1,0,0:0:0:0:
256,192,27480,1,0,0:0:0:0:
256,192,27587,1,0,0:0:0:0:
256,192,27694,1,0,0:0:0:0:
256,192,27908,1,4,0:0:0:0:
256,192,28122,1,8,0:0:0:0:
256,192,28765,1,8,0:0:0:0:
256,192,28980,1,0,0:0:0:0:
256,192,29087,1,0,0:0:0:0:
256,192,29194,1,0,0:0:0:0:
256,192,29408,1,0,0:0:0:0:
256,192,29837,1,8,0:0:0:0:
256,192,30051,1,0,0:0:0:0:
256,192,30265,1,0,0:0:0:0:
256,192,30480,1,8,0:0:0:0:
256,192,30587,1,8,0:0:0:0:
256,192,30694,1,8,0:0:0:0:
256,192,30908,1,0,0:0:0:0:
256,192,31337,1,4,0:0:0:0:
256,192,31551,1,8,0:0:0:0:
256,192,31980,1,0,0:0:0:0:
256,192,32194,1,8,0:0:0:0:
256,192,32622,1,0,0:0:0:0:
256,192,32837,1,0,0:0:0:0:
256,192,32944,1,0,0:0:0:0:
256,192,33051,1,0,0:0:0:0:
256,192,33265,1,8,0:0:0:0:
256,192,33694,1,0,0:0:0:0:
256,192,33908,1,8,0:0:0:0:
256,192,34122,1,8,0:0:0:0:
256,192,34230,1,8,0:0:0:0:
256,192,34337,1,8,0:0:0:0:
256,192,34765,1,4,0:0:0:0:
256,192,34980,1,8,0:0:0:0:
256,192,35622,1,8,0:0:0:0:
256,192,36051,1,0,0:0:0:0:
256,192,36265,1,0,0:0:0:0:
256,192,36372,1,0,0:0:0:0:
256,192,36480,1,0,0:0:0:0:
256,192,36694,1,8,0:0:0:0:
256,192,36908,1,0,0:0:0:0:
256,192,37337,1,8,0:0:0:0:
256,192,37551,1,0,0:0:0:0:
256,192,38194,1,4,0:0:0:0:
256,192,38408,1,8,0:0:0:0:
256,192,38837,1,0,0:0:0:0:
256,192,39051,1,8,0:0:0:0:
256,192,39265,1,0,0:0:0:0:
256,192,39372,1,0,0:0:0:0:
256,192,39480,1,0,0:0:0:0:
256,192,39694,1,0,0:0:0:0:
256,192,40122,1,8,0:0:0:0:
256,192,40230,1,8,0:0:0:0:
256,192,40337,1,8,0:0:0:0:
256,192,40551,1,0,0:0:0:0:
256,192,40765,1,8,0:0:0:0:
256,192,40980,1,0,0:0:0:0:
256,192,41301,1,0,0:0:0:0:
256,192,41408,1,0,0:0:0:0:
256,192,42908,1,4,0:0:0:0:
256,192,43122,1,4,0:0:0:0:
256,192,43765,1,0,0:0:0:0:
256,192,44194,1,8,0:0:0:0:
256,192,44408,1,0,0:0:0:0:
256,192,44515,1,0,0:0:0:0:
256,192,44622,1,0,0:0:0:0:
256,192,44837,1,8,0:0:0:0:
256,192,45051,1,0,0:0:0:0:
256,192,45694,1,0,0:0:0:0:
256,192,45908,1,8,0:0:0:0:
256,192,46337,1,0,0:0:0:0:
256,192,46551,1,0,0:0:0:0:
256,192,46765,1,8,0:0:0:0:
256,192,46980,1,8,0:0:0:0:
256,192,47408,1,0,0:0:0:0:
256,192,47622,1,8,0:0:0:0:
256,192,47837,1,8,0:0:0:0:
256,192,47944,1,8,0:0:0:0:
256,192,48051,1,8,0:0:0:0:
256,192,48480,1,4,0:0:0:0:
256,192,49337,1,8,0:0:0:0:
256,192,49765,1,0,0:0:0:0:
256,192,49980,1,0,0:0:0:0:
256,192,50622,1,0,0:0:0:0:
256,192,51051,1,8,0:0:0:0:
256,192,51265,1,0,0:0:0:0:
256,192,51480,1,0,0:0:0:0:
256,192,51694,1,8,0:0:0:0:
256,192,51908,1,0,0:0:0:0:
256,192,52551,1,0,0:0:0:0:
256,192,52765,1,8,0:0:0:0:
256,192,52980,1,0,0:0:0:0:
256,192,53087,1,0,0:0:0:0:
256,192,53194,1,0,0:0:0:0:
256,192,53408,1,0,0:0:0:0:
256,192,53837,1,8,0:0:0:0:
256,192,53944,1,8,0:0:0:0:
256,192,54051,1,8,0:0:0:0:
256,192,54265,1,0,0:0:0:0:
256,192,55337,1,0,0:0:0:0:
256,192,55551,1,8,0:0:0:0:
256,192,55765,1,0,0:0:0:0:
256,192,56194,1,8,0:0:0:0:
256,192,56622,1,0,0:0:0:0:
256,192,56837,1,8,0:0:0:0:
256,192,57265,1,8,0:0:0:0:
256,192,57480,1,0,0:0:0:0:
256,192,57908,1,8,0:0:0:0:
256,192,58765,1,0,0:0:0:0:
256,192,58980,1,8,0:0:0:0:
256,192,59194,1,0,0:0:0:0:
256,192,59622,1,8,0:0:0:0:
256,192,60051,1,0,0:0:0:0:
256,192,60265,1,8,0:0:0:0:
256,192,60694,1,8,0:0:0:0:
256,192,60908,1,0,0:0:0:0:
256,192,61337,1,8,0:0:0:0:
256,192,62194,1,4,0:0:0:0:
256,192,62408,1,8,0:0:0:0:
256,192,63051,1,8,0:0:0:0:
256,192,63480,1,0,0:0:0:0:
256,192,63694,1,0,0:0:0:0:
256,192,63801,1,0,0:0:0:0:
256,192,63908,1,0,0:0:0:0:
256,192,64122,1,8,0:0:0:0:
256,192,64337,1,0,0:0:0:0:
256,192,64765,1,8,0:0:0:0:
256,192,64980,1,0,0:0:0:0:
256,192,65622,1,4,0:0:0:0:
256,192,65837,1,8,0:0:0:0:
256,192,66265,1,0,0:0:0:0:
256,192,66480,1,8,0:0:0:0:
256,192,66694,1,0,0:0:0:0:
256,192,66801,1,0,0:0:0:0:
256,192,66908,1,0,0:0:0:0:
256,192,67122,1,0,0:0:0:0:
256,192,67551,1,8,0:0:0:0:
256,192,67658,1,8,0:0:0:0:
256,192,67765,1,8,0:0:0:0:
256,192,67980,1,0,0:0:0:0:
256,192,68194,1,8,0:0:0:0:
256,192,68408,1,0,0:0:0:0:
256,192,68730,1,0,0:0:0:0:
256,192,68837,1,0,0:0:0:0:
256,192,82765,5,4,0:0:0:0:
256,192,82995,1,8,0:0:0:0:
256,192,83226,1,0,0:0:0:0:
256,192,83457,1,0,0:0:0:0:
256,192,83688,1,8,0:0:0:0:
256,192,83918,1,0,0:0:0:0:
256,192,84034,1,0,0:0:0:0:
256,192,84149,1,0,0:0:0:0:
256,192,84380,1,0,0:0:0:0:
256,192,84841,1,8,0:0:0:0:
256,192,85072,1,0,0:0:0:0:
256,192,85303,1,0,0:0:0:0:
256,192,85534,1,8,0:0:0:0:
256,192,85765,1,0,0:0:0:0:
256,192,86457,1,4,0:0:0:0:
256,192,86688,1,8,0:0:0:0:
256,192,87149,1,0,0:0:0:0:
256,192,87380,1,8,0:0:0:0:
256,192,87611,1,8,0:0:0:0:
256,192,87841,1,0,0:0:0:0:
256,192,88072,1,0,0:0:0:0:
256,192,88534,1,8,0:0:0:0:
256,192,88765,1,0,0:0:0:0:
256,192,88995,1,0,0:0:0:0:
256,192,89226,1,8,0:0:0:0:
256,192,89457,1,8,0:0:0:0:
256,192,89572,1,8,0:0:0:0:
256,192,89688,1,8,0:0:0:0:
256,192,90149,1,4,0:0:0:0:
256,192,90380,1,8,0:0:0:0:
256,192,90611,1,0,0:0:0:0:
256,192,90841,1,0,0:0:0:0:
256,192,91072,1,8,0:0:0:0:
256,192,91534,1,0,0:0:0:0:
256,192,91765,1,0,0:0:0:0:
256,192,91880,1,0,0:0:0:0:
256,192,91995,1,0,0:0:0:0:
256,192,92226,1,8,0:0:0:0:
256,192,92457,1,0,0:0:0:0:
256,192,92688,1,8,0:0:0:0:
256,192,92803,1,8,0:0:0:0:
256,192,92918,1,8,0:0:0:0:
256,192,93149,1,0,0:0:0:0:
256,192,93841,1,4,0:0:0:0:
256,192,94072,1,8,0:0:0:0:
256,192,94534,1,0,0:0:0:0:
256,192,94765,1,8,0:0:0:0:
256,192,94995,1,8,0:0:0:0:
256,192,95226,1,0,0:0:0:0:
256,192,95457,1,0,0:0:0:0:
256,192,95918,1,8,0:0:0:0:
256,192,96034,1,8,0:0:0:0:
256,192,96149,1,8,0:0:0:0:
256,192,96380,1,0,0:0:0:0:
256,192,96611,1,0,0:0:0:0:
256,192,96841,1,0,0:0:0:0:
256,192,97072,1,0,0:0:0:0:
256,192,97188,1,0,0:0:0:0:
256,192,97303,1,0,0:0:0:0:
256,192,97534,1,4,0:0:0:0:
256,192,97995,1,8,0:0:0:0:
256,192,98226,1,0,0:0:0:0:
256,192,98457,1,8,0:0:0:0:
256,192,98688,1,0,0:0:0:0:
256,192,98918,1,8,0:0:0:0:
256,192,99149,1,0,0:0:0:0:
256,192,99380,1,8,0:0:0:0:
256,192,99611,1,0,0:0:0:0:
256,192,99841,1,8,0:0:0:0:
256,192,100303,1,0,0:0:0:0:
256,192,100418,1,0,0:0:0:0:
256,192,100534,1,0,0:0:0:0:
256,192,100765,1,8,0:0:0:0:
256,192,100880,1,8,0:0:0:0:
256,192,100995,1,8,0:0:0:0:
256,192,101226,1,0,0:0:0:0:
256,192,101688,1,8,0:0:0:0:
256,192,101918,1,0,0:0:0:0:
256,192,102149,1,8,0:0:0:0:
256,192,102380,1,0,0:0:0:0:
256,192,102611,1,8,0:0:0:0:
256,192,102841,1,0,0:0:0:0:
256,192,103072,1,8,0:0:0:0:
256,192,103534,1,8,0:0:0:0:
256,192,103995,1,8,0:0:0:0:
256,192,104111,1,8,0:0:0:0:
256,192,104226,1,8,0:0:0:0:
256,192,104457,1,8,0:0:0:0:
256,192,104572,1,8,0:0:0:0:
256,192,104688,1,8,0:0:0:0:
256,192,104918,1,0,0:0:0:0:
256,192,105380,1,8,0:0:0:0:
256,192,105611,1,0,0:0:0:0:
256,192,105841,1,8,0:0:0:0:
256,192,106072,1,0,0:0:0:0:
256,192,106303,1,8,0:0:0:0:
256,192,106534,1,0,0:0:0:0:
256,192,106765,1,8,0:0:0:0:
256,192,106995,1,0,0:0:0:0:
256,192,107226,1,8,0:0:0:0:
256,192,107688,1,0,0:0:0:0:
256,192,107803,1,0,0:0:0:0:
256,192,107918,1,0,0:0:0:0:
256,192,108149,1,8,0:0:0:0:
256,192,108265,1,8,0:0:0:0:
256,192,108380,1,8,0:0:0:0:
256,192,108611,1,0,0:0:0:0:
256,192,109072,1,8,0:0:0:0:
256,192,109303,1,8,0:0:0:0:
256,192,109534,1,0,0:0:0:0:
256,192,109995,1,8,0:0:0:0:
256,192,110226,1,8,0:0:0:0:
256,192,110457,1,0,0:0:0:0:
256,192,110688,1,8,0:0:0:0:
256,192,110803,1,8,0:0:0:0:
256,192,110918,1,8,0:0:0:0:
256,192,111149,1,0,0:0:0:0:
256,192,111380,1,8,0:0:0:0:
256,192,111611,1,0,0:0:0:0:
256,192,111957,1,0,0:0:0:0:
256,192,112072,1,0,0:0:0:0:
