osu file format v14

[General]
AudioFilename: audio.ogg
AudioLeadIn: 0
PreviewTime: 84971
Countdown: 0
SampleSet: Normal
StackLeniency: 0.7
Mode: 1
LetterboxInBreaks: 0
WidescreenStoryboard: 1

[Editor]
DistanceSpacing: 0.1
BeatDivisor: 4
GridSize: 32
TimelineZoom: 0.7000006

[Metadata]
Title:God (six impala remix)
TitleUnicode:God (six impala remix)
Artist:bladee & Mechatok
ArtistUnicode:bladee & Mechatok
Creator:clockbite
Version:kantan
Source:
Tags:electronic english pop hyperpop drain gang dg draingang rainbow siximpala
BeatmapID:3996097
BeatmapSetID:1933890

[Difficulty]
HPDrainRate:9
CircleSize:5
OverallDifficulty:3
ApproachRate:10
SliderMultiplier:1.4
SliderTickRate:1

[Events]
//Background and Video events
0,0,"a.png",0,70
//Break Periods
2,1832,6432
2,73628,82182
//Storyboard Layer 0 (Background)
//Storyboard Layer 1 (Fail)
//Storyboard Layer 2 (Pass)
//Storyboard Layer 3 (Foreground)
//Storyboard Layer 4 (Overlay)
//Storyboard Sound Samples

[TimingPoints]
132,375,5,1,0,20,1,0
132,-100,5,1,0,20,0,0
225,-100,5,1,0,20,0,0
1538,-100,5,1,0,50,0,0
1632,375,4,1,0,50,1,0
1632,-100,4,1,0,50,0,0
3132,-100,4,1,0,50,0,0
4632,-100,4,1,0,50,0,0
6132,-100,4,1,0,50,0,0
6694,-100,4,1,0,50,0,0
6788,-100,4,1,0,50,0,0
6882,-100,4,1,0,50,0,0
7069,-100,4,1,0,50,0,0
7257,-100,4,1,0,50,0,0
7444,-100,4,1,0,50,0,0
7632,-100,4,1,0,50,0,0
9132,-100,4,1,0,50,0,0
9882,-100,4,1,0,50,0,0
10257,-100,4,1,0,50,0,0
10632,-100,4,1,0,50,0,0
11382,-100,4,1,0,50,0,0
11757,-100,4,1,0,50,0,0
12132,-100,4,1,0,50,0,0
13538,-100,4,1,0,70,0,0
15132,-100,4,1,0,70,0,0
15694,-100,4,1,0,70,0,0
15788,-100,4,1,0,70,0,0
15882,-100,4,1,0,70,0,0
16069,-100,4,1,0,70,0,0
16257,-100,4,1,0,70,0,0
16444,-100,4,1,0,70,0,0
16632,-100,4,1,0,70,0,0
18132,-100,4,1,0,70,0,0
18694,-100,4,1,0,70,0,0
18882,-100,4,1,0,70,0,0
19069,-100,4,1,0,70,0,0
19257,-100,4,1,0,70,0,0
19444,-100,4,1,0,70,0,0
19632,-100,4,1,0,70,0,0
21108,-100,4,1,0,70,0,0
21670,-100,4,1,0,70,0,0
21764,-100,4,1,0,70,0,0
21858,-100,4,1,0,70,0,0
22045,-100,4,1,0,70,0,0
22233,-100,4,1,0,70,0,0
22420,-100,4,1,0,70,0,0
22608,-100,4,1,0,70,0,0
24108,-100,4,1,0,70,0,0
24670,-100,4,1,0,70,0,0
24858,-100,4,1,0,70,0,0
25045,-100,4,1,0,70,0,0
25233,-100,4,1,0,70,0,0
25420,-100,4,1,0,70,0,0
25538,-100,4,1,0,80,0,0
25632,-100,4,1,0,80,0,0
26007,-100,4,1,0,80,0,0
26382,-100,4,1,0,80,0,0
26663,-100,4,1,0,80,0,0
26944,-100,4,1,0,80,0,0
27132,-100,4,1,0,80,0,0
27413,-100,4,1,0,80,0,0
27694,-100,4,1,0,80,0,0
27882,-100,4,1,0,80,0,0
28163,-100,4,1,0,80,0,0
28257,-100,4,1,0,80,0,0
28444,-100,4,1,0,80,0,0
28632,-100,4,1,0,80,0,0
28913,-100,4,1,0,80,0,0
29194,-100,4,1,0,80,0,0
29382,-100,4,1,0,80,0,0
29569,-100,4,1,0,80,0,0
29663,-100,4,1,0,80,0,0
29944,-100,4,1,0,80,0,0
30132,-100,4,1,0,80,0,0
30413,-100,4,1,0,80,0,0
30694,-100,4,1,0,80,0,0
30882,-100,4,1,0,80,0,0
31163,-100,4,1,0,80,0,0
31257,-100,4,1,0,80,0,0
31444,-100,4,1,0,80,0,0
31632,-100,4,1,0,80,0,0
32007,-100,4,1,0,80,0,0
32382,-100,4,1,0,80,0,0
32663,-100,4,1,0,80,0,0
32757,-100,4,1,0,80,0,0
32944,-100,4,1,0,80,0,0
33132,-100,4,1,0,80,0,0
33413,-100,4,1,0,80,0,0
33694,-100,4,1,0,80,0,0
33882,-100,4,1,0,80,0,0
34163,-100,4,1,0,80,0,0
34257,-100,4,1,0,80,0,0
34444,-100,4,1,0,80,0,0
34632,-100,4,1,0,80,0,0
34913,-100,4,1,0,80,0,0
35194,-100,4,1,0,80,0,0
35382,-100,4,1,0,80,0,0
35663,-100,4,1,0,80,0,0
35757,-100,4,1,0,80,0,0
35944,-100,4,1,0,80,0,0
36132,-100,4,1,0,50,0,0
37069,-100,4,1,0,50,0,0
37257,-100,4,1,0,50,0,0
37444,-100,4,1,0,50,0,0
37585,-100,4,1,0,90,0,0
37632,-100,4,1,0,90,0,1
37819,-100,4,1,0,90,0,1
38007,-100,4,1,0,90,0,1
38194,-100,4,1,0,90,0,1
38382,-100,4,1,0,90,0,1
38475,-100,4,1,0,90,0,1
38569,-100,4,1,0,90,0,1
38663,-100,4,1,0,90,0,1
38850,-100,4,1,0,90,0,1
38944,-100,4,1,0,90,0,1
39132,-100,4,1,0,90,0,1
39413,-100,4,1,0,90,0,1
39507,-100,4,1,0,90,0,1
39694,-100,4,1,0,90,0,1
39882,-100,4,1,0,90,0,1
39975,-100,4,1,0,90,0,1
40163,-100,4,1,0,90,0,1
40257,-100,4,1,0,90,0,1
40350,-100,4,1,0,90,0,1
40444,-100,4,1,0,90,0,1
40632,-100,4,1,0,90,0,1
40819,-100,4,1,0,90,0,1
40913,-100,4,1,0,90,0,1
41007,-100,4,1,0,90,0,1
41194,-100,4,1,0,90,0,1
41382,-100,4,1,0,90,0,1
41475,-100,4,1,0,90,0,1
41569,-100,4,1,0,90,0,1
41663,-100,4,1,0,90,0,1
41850,-100,4,1,0,90,0,1
41944,-100,4,1,0,90,0,1
42132,-100,4,1,0,90,0,1
42413,-100,4,1,0,90,0,1
42507,-100,4,1,0,90,0,1
42694,-100,4,1,0,90,0,1
42882,-100,4,1,0,90,0,1
42975,-100,4,1,0,90,0,1
43069,-100,4,1,0,90,0,1
43163,-100,4,1,0,90,0,1
43257,-100,4,1,0,90,0,1
43350,-100,4,1,0,90,0,1
43444,-100,4,1,0,90,0,1
43632,-100,4,1,0,90,0,1
43819,-100,4,1,0,90,0,1
43913,-100,4,1,0,90,0,1
44007,-100,4,1,0,90,0,1
44194,-100,4,1,0,90,0,1
44382,-100,4,1,0,90,0,1
44475,-100,4,1,0,90,0,1
44569,-100,4,1,0,90,0,1
44663,-100,4,1,0,90,0,1
44850,-100,4,1,0,90,0,1
44944,-100,4,1,0,90,0,1
45132,-100,4,1,0,90,0,1
45413,-100,4,1,0,90,0,1
45507,-100,4,1,0,90,0,1
45694,-100,4,1,0,90,0,1
45882,-100,4,1,0,90,0,1
45975,-100,4,1,0,90,0,1
46163,-100,4,1,0,90,0,1
46257,-100,4,1,0,90,0,1
46350,-100,4,1,0,90,0,1
46444,-100,4,1,0,90,0,1
46600,-100,4,1,0,90,0,1
46787,-100,4,1,0,90,0,1
46881,-100,4,1,0,90,0,1
46975,-100,4,1,0,90,0,1
47162,-100,4,1,0,90,0,1
47350,-100,4,1,0,90,0,1
47443,-100,4,1,0,90,0,1
47537,-100,4,1,0,90,0,1
47631,-100,4,1,0,90,0,1
47818,-100,4,1,0,90,0,1
47912,-100,4,1,0,90,0,1
48132,-100,4,1,0,90,0,0
48319,-100,4,1,0,90,0,0
48413,-100,4,1,0,90,0,0
48507,-100,4,1,0,90,0,0
48569,-100,4,1,0,90,0,0
48632,-100,4,1,0,90,0,0
48694,-100,4,1,0,90,0,0
48757,-100,4,1,0,90,0,0
48819,-100,4,1,0,90,0,0
48882,-100,4,1,0,90,0,0
48975,-100,4,1,0,90,0,0
49069,-100,4,1,0,90,0,0
49163,-100,4,1,0,90,0,0
49257,-100,4,1,0,90,0,0
49444,-100,4,1,0,90,0,0
49632,-100,4,1,0,90,0,1
49795,-100,4,1,0,90,0,1
49983,-100,4,1,0,90,0,1
50170,-100,4,1,0,90,0,1
50358,-100,4,1,0,90,0,1
50451,-100,4,1,0,90,0,1
50545,-100,4,1,0,90,0,1
50639,-100,4,1,0,90,0,1
50826,-100,4,1,0,90,0,1
50920,-100,4,1,0,90,0,1
51108,-100,4,1,0,90,0,1
51389,-100,4,1,0,90,0,1
51483,-100,4,1,0,90,0,1
51670,-100,4,1,0,90,0,1
51858,-100,4,1,0,90,0,1
51951,-100,4,1,0,90,0,1
52139,-100,4,1,0,90,0,1
52233,-100,4,1,0,90,0,1
52326,-100,4,1,0,90,0,1
52420,-100,4,1,0,90,0,1
52608,-100,4,1,0,90,0,1
52795,-100,4,1,0,90,0,1
52889,-100,4,1,0,90,0,1
52983,-100,4,1,0,90,0,1
53170,-100,4,1,0,90,0,1
53358,-100,4,1,0,90,0,1
53451,-100,4,1,0,90,0,1
53545,-100,4,1,0,90,0,1
53639,-100,4,1,0,90,0,1
53826,-100,4,1,0,90,0,1
53920,-100,4,1,0,90,0,1
54108,-100,4,1,0,90,0,1
54389,-100,4,1,0,90,0,1
54483,-100,4,1,0,90,0,1
54670,-100,4,1,0,90,0,1
54858,-100,4,1,0,90,0,1
54951,-100,4,1,0,90,0,1
55045,-100,4,1,0,90,0,1
55139,-100,4,1,0,90,0,1
55233,-100,4,1,0,90,0,1
55326,-100,4,1,0,90,0,1
55420,-100,4,1,0,90,0,1
55608,-100,4,1,0,90,0,1
55795,-100,4,1,0,90,0,1
55889,-100,4,1,0,90,0,1
55983,-100,4,1,0,90,0,1
56170,-100,4,1,0,90,0,1
56358,-100,4,1,0,90,0,1
56451,-100,4,1,0,90,0,1
56545,-100,4,1,0,90,0,1
56639,-100,4,1,0,90,0,1
56826,-100,4,1,0,90,0,1
56920,-100,4,1,0,90,0,1
57108,-100,4,1,0,90,0,1
57389,-100,4,1,0,90,0,1
57483,-100,4,1,0,90,0,1
57670,-100,4,1,0,90,0,1
57858,-100,4,1,0,90,0,1
57951,-100,4,1,0,90,0,1
58139,-100,4,1,0,90,0,1
58233,-100,4,1,0,90,0,1
58326,-100,4,1,0,90,0,1
58420,-100,4,1,0,90,0,1
58576,-100,4,1,0,90,0,1
58763,-100,4,1,0,90,0,1
58857,-100,4,1,0,90,0,1
58951,-100,4,1,0,90,0,1
59138,-100,4,1,0,90,0,1
59326,-100,4,1,0,90,0,1
59419,-100,4,1,0,90,0,1
59513,-100,4,1,0,90,0,1
59607,-100,4,1,0,90,0,1
59794,-100,4,1,0,90,0,1
59888,-100,4,1,0,90,0,1
60132,-100,4,1,0,90,0,0
60319,-100,4,1,0,70,0,0
61632,-100,4,1,0,70,0,0
62757,-100,4,1,0,70,0,0
62944,-100,4,1,0,70,0,0
63132,-100,4,1,0,70,0,0
63507,-100,4,1,0,70,0,0
63694,-100,4,1,0,70,0,0
63882,-100,4,1,0,70,0,0
64632,-100,4,1,0,70,0,0
65007,-100,4,1,0,70,0,0
65194,-100,4,1,0,70,0,0
65382,-100,4,1,0,70,0,0
65757,-100,4,1,0,70,0,0
65944,-100,4,1,0,70,0,0
66132,-100,4,1,0,70,0,0
66319,-100,4,1,0,70,0,0
66507,-100,4,1,0,70,0,0
66694,-100,4,1,0,70,0,0
66882,-100,4,1,0,70,0,0
67632,-100,4,1,0,70,0,0
68007,-100,4,1,0,70,0,0
68194,-100,4,1,0,70,0,0
68382,-100,4,1,0,70,0,0
68757,-100,4,1,0,70,0,0
68944,-100,4,1,0,70,0,0
69132,-100,4,1,0,70,0,0
70632,-100,4,1,0,70,0,0
71007,-100,4,1,0,70,0,0
71194,-100,4,1,0,70,0,0
71382,-100,4,1,0,70,0,0
71757,-100,4,1,0,70,0,0
71944,-100,4,1,0,70,0,0
72132,-100,4,1,0,70,0,0
72319,-100,4,1,0,70,0,0
72507,-100,4,1,0,70,0,0
72694,-100,4,1,0,70,0,0
72882,-100,4,1,0,70,0,0
73257,-100,4,1,0,70,0,0
73632,-100,4,1,0,30,0,0
75132,-100,4,1,0,30,0,0
76632,-100,4,1,0,30,0,0
78132,-100,4,1,0,30,0,0
79632,-100,4,1,0,30,0,0
81132,-100,4,1,0,30,0,0
82632,-100,4,1,0,30,0,0
82725,-100,4,1,0,32,0,0
82819,-100,4,1,0,34,0,0
82913,-100,4,1,0,36,0,0
83007,-100,4,1,0,38,0,0
83100,-100,4,1,0,40,0,0
83194,-100,4,1,0,42,0,0
83288,-100,4,1,0,45,0,0
83382,-100,4,1,0,47,0,0
83475,-100,4,1,0,49,0,0
83569,-100,4,1,0,51,0,0
83663,-100,4,1,0,53,0,0
83757,-100,4,1,0,55,0,0
83850,-100,4,1,0,57,0,0
83944,-100,4,1,0,59,0,0
84038,-100,4,1,0,61,0,0
84132,-100,4,1,0,63,0,0
84225,-100,4,1,0,65,0,0
84319,-100,4,1,0,68,0,0
84413,-100,4,1,0,70,0,0
84507,-100,4,1,0,72,0,0
84600,-100,4,1,0,74,0,0
84694,-100,4,1,0,76,0,0
84788,-100,4,1,0,78,0,0
84882,-100,4,1,0,80,0,0
85069,-100,4,1,0,80,0,0
85257,-100,4,1,0,80,0,0
85632,-100,4,1,0,80,0,0
86007,-100,4,1,0,80,0,0
86382,-100,4,1,0,80,0,0
86663,-100,4,1,0,80,0,0
86944,-100,4,1,0,80,0,0
87132,-100,4,1,0,80,0,0
87413,-100,4,1,0,80,0,0
87694,-100,4,1,0,80,0,0
87882,-100,4,1,0,80,0,0
88163,-100,4,1,0,80,0,0
88257,-100,4,1,0,80,0,0
88444,-100,4,1,0,80,0,0
88538,-100,4,1,0,90,0,0
88632,-100,4,1,0,90,0,1
88795,-100,4,1,0,90,0,1
88889,-100,4,1,0,90,0,1
88983,-100,4,1,0,90,0,1
89170,-100,4,1,0,90,0,1
89358,-100,4,1,0,90,0,1
89451,-100,4,1,0,90,0,1
89545,-100,4,1,0,90,0,1
89639,-100,4,1,0,90,0,1
89826,-100,4,1,0,90,0,1
89920,-100,4,1,0,90,0,1
90108,-100,4,1,0,90,0,1
90389,-100,4,1,0,90,0,1
90483,-100,4,1,0,90,0,1
90670,-100,4,1,0,90,0,1
90858,-100,4,1,0,90,0,1
90951,-100,4,1,0,90,0,1
91045,-100,4,1,0,90,0,1
91139,-100,4,1,0,90,0,1
91233,-100,4,1,0,90,0,1
91326,-100,4,1,0,90,0,1
91420,-100,4,1,0,90,0,1
91608,-100,4,1,0,90,0,1
91795,-100,4,1,0,90,0,1
91889,-100,4,1,0,90,0,1
91983,-100,4,1,0,90,0,1
92170,-100,4,1,0,90,0,1
92358,-100,4,1,0,90,0,1
92451,-100,4,1,0,90,0,1
92545,-100,4,1,0,90,0,1
92639,-100,4,1,0,90,0,1
92826,-100,4,1,0,90,0,1
92920,-100,4,1,0,90,0,1
93108,-100,4,1,0,90,0,1
93389,-100,4,1,0,90,0,1
93483,-100,4,1,0,90,0,1
93670,-100,4,1,0,90,0,1
93858,-100,4,1,0,90,0,1
93951,-100,4,1,0,90,0,1
94139,-100,4,1,0,90,0,1
94233,-100,4,1,0,90,0,1
94326,-100,4,1,0,90,0,1
94420,-100,4,1,0,90,0,1
94576,-100,4,1,0,90,0,1
94763,-100,4,1,0,90,0,1
94857,-100,4,1,0,90,0,1
94951,-100,4,1,0,90,0,1
95138,-100,4,1,0,90,0,1
95326,-100,4,1,0,90,0,1
95419,-100,4,1,0,90,0,1
95513,-100,4,1,0,90,0,1
95607,-100,4,1,0,90,0,1
95794,-100,4,1,0,90,0,1
95888,-100,4,1,0,90,0,1
96132,-100,4,1,0,90,0,0
96295,-100,4,1,0,90,0,0
96389,-100,4,1,0,90,0,0
96483,-100,4,1,0,90,0,0
96545,-100,4,1,0,90,0,0
96608,-100,4,1,0,90,0,0
96670,-100,4,1,0,90,0,0
96733,-100,4,1,0,90,0,0
96795,-100,4,1,0,90,0,0
96858,-100,4,1,0,90,0,0
96951,-100,4,1,0,90,0,0
97045,-100,4,1,0,90,0,0
97139,-100,4,1,0,90,0,0
97233,-100,4,1,0,90,0,0
97420,-100,4,1,0,90,0,0
97632,-100,4,1,0,90,0,1
97771,-100,4,1,0,90,0,1
97959,-100,4,1,0,90,0,1
98146,-100,4,1,0,90,0,1
98334,-100,4,1,0,90,0,1
98427,-100,4,1,0,90,0,1
98521,-100,4,1,0,90,0,1
98615,-100,4,1,0,90,0,1
98802,-100,4,1,0,90,0,1
98896,-100,4,1,0,90,0,1
99084,-100,4,1,0,90,0,1
99365,-100,4,1,0,90,0,1
99459,-100,4,1,0,90,0,1
99646,-100,4,1,0,90,0,1
99834,-100,4,1,0,90,0,1
99927,-100,4,1,0,90,0,1
100115,-100,4,1,0,90,0,1
100209,-100,4,1,0,90,0,1
100302,-100,4,1,0,90,0,1
100396,-100,4,1,0,90,0,1
100584,-100,4,1,0,90,0,1
100771,-100,4,1,0,90,0,1
100865,-100,4,1,0,90,0,1
100959,-100,4,1,0,90,0,1
101146,-100,4,1,0,90,0,1
101334,-100,4,1,0,90,0,1
101427,-100,4,1,0,90,0,1
101521,-100,4,1,0,90,0,1
101615,-100,4,1,0,90,0,1
101802,-100,4,1,0,90,0,1
101896,-100,4,1,0,90,0,1
102084,-100,4,1,0,90,0,1
102365,-100,4,1,0,90,0,1
102459,-100,4,1,0,90,0,1
102646,-100,4,1,0,90,0,1
102834,-100,4,1,0,90,0,1
102927,-100,4,1,0,90,0,1
103021,-100,4,1,0,90,0,1
103115,-100,4,1,0,90,0,1
103209,-100,4,1,0,90,0,1
103302,-100,4,1,0,90,0,1
103396,-100,4,1,0,90,0,1
103584,-100,4,1,0,90,0,1
103771,-100,4,1,0,90,0,1
103865,-100,4,1,0,90,0,1
103959,-100,4,1,0,90,0,1
104146,-100,4,1,0,90,0,1
104334,-100,4,1,0,90,0,1
104427,-100,4,1,0,90,0,1
104521,-100,4,1,0,90,0,1
104615,-100,4,1,0,90,0,1
104802,-100,4,1,0,90,0,1
104896,-100,4,1,0,90,0,1
105084,-100,4,1,0,90,0,1
105365,-100,4,1,0,90,0,1
105459,-100,4,1,0,90,0,1
105646,-100,4,1,0,90,0,1
105834,-100,4,1,0,90,0,1
105927,-100,4,1,0,90,0,1
106115,-100,4,1,0,90,0,1
106209,-100,4,1,0,90,0,1
106302,-100,4,1,0,90,0,1
106396,-100,4,1,0,90,0,1
106552,-100,4,1,0,90,0,1
106739,-100,4,1,0,90,0,1
106833,-100,4,1,0,90,0,1
106927,-100,4,1,0,90,0,1
107114,-100,4,1,0,90,0,1
107302,-100,4,1,0,90,0,1
107395,-100,4,1,0,90,0,1
107489,-100,4,1,0,90,0,1
107583,-100,4,1,0,90,0,1
107770,-100,4,1,0,90,0,1
107864,-100,4,1,0,90,0,1
108132,-100,4,1,0,90,0,0
109538,-100,4,1,0,80,0,0
109632,-100,4,1,0,80,0,0
109819,-100,4,1,0,80,0,0
110007,-100,4,1,0,80,0,0
110194,-100,4,1,0,80,0,0
110288,-100,4,1,0,80,0,0
110382,-100,4,1,0,80,0,0
110569,-100,4,1,0,80,0,0
110757,-100,4,1,0,80,0,0
111132,-100,4,1,0,80,0,0
111319,-100,4,1,0,80,0,0
111507,-100,4,1,0,80,0,0
111694,-100,4,1,0,80,0,0
111788,-100,4,1,0,80,0,0
111975,-100,4,1,0,80,0,0
112069,-100,4,1,0,80,0,0
112257,-100,4,1,0,80,0,0
112632,-100,4,1,0,80,0,0
112819,-100,4,1,0,80,0,0
113007,-100,4,1,0,80,0,0
113194,-100,4,1,0,80,0,0
113288,-100,4,1,0,80,0,0
113382,-100,4,1,0,80,0,0
113569,-100,4,1,0,80,0,0
113757,-100,4,1,0,80,0,0
114132,-100,4,1,0,80,0,0
114319,-100,4,1,0,80,0,0
114507,-100,4,1,0,80,0,0
114694,-100,4,1,0,80,0,0
114882,-100,4,1,0,80,0,0
114975,-100,4,1,0,80,0,0
115163,-100,4,1,0,80,0,0
115257,-100,4,1,0,80,0,0
115632,-100,4,1,0,80,0,0
115819,-100,4,1,0,80,0,0
116007,-100,4,1,0,80,0,0
116194,-100,4,1,0,80,0,0
116288,-100,4,1,0,80,0,0
116382,-100,4,1,0,80,0,0
116569,-100,4,1,0,80,0,0
116757,-100,4,1,0,80,0,0
117132,-100,4,1,0,80,0,0
117319,-100,4,1,0,80,0,0
117507,-100,4,1,0,80,0,0
117694,-100,4,1,0,80,0,0
117788,-100,4,1,0,80,0,0
117975,-100,4,1,0,80,0,0
118069,-100,4,1,0,80,0,0
118257,-100,4,1,0,80,0,0
118632,-100,4,1,0,80,0,0
118819,-100,4,1,0,80,0,0
119007,-100,4,1,0,80,0,0
119194,-100,4,1,0,80,0,0
119288,-100,4,1,0,80,0,0
119382,-100,4,1,0,80,0,0
119569,-100,4,1,0,80,0,0
119757,-100,4,1,0,80,0,0
120132,-100,4,1,0,80,0,0
120319,-100,4,1,0,80,0,0
120507,-100,4,1,0,80,0,0
120694,-100,4,1,0,80,0,0
120882,-100,4,1,0,80,0,0
120975,-100,4,1,0,80,0,0
121163,-100,4,1,0,80,0,0
121257,-100,4,1,0,80,0,0
121632,-100,4,1,0,80,0,0

[HitObjects]
256,192,132,12,0,1257,0:0:0:0:
218,117,1632,5,8,0:0:0:0:
289,237,6882,5,8,0:0:0:0:
321,192,7632,1,8,0:0:0:0:
290,194,9882,1,8,0:0:0:0:
290,194,10632,1,8,0:0:0:0:
290,194,11382,1,8,0:0:0:0:
290,194,12132,1,8,0:0:0:0:
282,133,13632,5,4,0:0:0:0:
232,151,15132,1,0,0:0:0:0:
339,156,15882,1,0,0:0:0:0:
230,176,16632,1,8,0:0:0:0:
279,160,18132,1,0,0:0:0:0:
323,178,18882,1,8,0:0:0:0:
279,160,19632,1,0,0:0:0:0:
280,160,21132,1,8,0:0:0:0:
326,178,21882,1,8,0:0:0:0:
289,151,22632,1,0,0:0:0:0:
289,151,24132,1,0,0:0:0:0:
289,151,25632,1,8,0:0:0:0:
240,190,27132,1,8,0:0:0:0:
211,168,27882,1,0,0:0:0:0:
240,190,28632,1,8,0:0:0:0:
248,171,30132,1,0,0:0:0:0:
248,171,30882,1,8,0:0:0:0:
248,171,31632,1,0,0:0:0:0:
301,117,32382,1,8,0:0:0:0:
248,171,33882,1,0,0:0:0:0:
313,147,34632,1,0,0:0:0:0:
248,171,35382,1,8,0:0:0:0:
248,121,37632,1,4,0:0:0:0:
248,121,38007,1,8,0:0:0:0:
248,121,38382,1,0,0:0:0:0:
248,121,39132,1,8,0:0:0:0:
292,195,40632,5,8,0:0:0:0:
306,246,41007,1,8,0:0:0:0:
290,218,41382,1,0,0:0:0:0:
290,213,42132,1,8,0:0:0:0:
193,63,43632,1,4,0:0:0:0:
236,127,44007,1,8,0:0:0:0:
237,125,44382,1,8,0:0:0:0:
237,224,45132,1,0,0:0:0:0:
290,220,46632,1,0,0:0:0:0:
292,195,47007,1,8,0:0:0:0:
290,213,47382,1,0,0:0:0:0:
290,213,48132,1,4,0:0:0:0:
397,243,49632,5,4,0:0:0:0:
295,204,50007,1,8,0:0:0:0:
229,224,50382,1,0,0:0:0:0:
224,192,51132,1,8,0:0:0:0:
292,195,52632,1,0,0:0:0:0:
290,220,53007,1,0,0:0:0:0:
290,218,53382,1,8,0:0:0:0:
290,213,54132,1,0,0:0:0:0:
193,63,55632,1,4,0:0:0:0:
236,127,56007,1,8,0:0:0:0:
237,125,56382,1,8,0:0:0:0:
237,224,57132,1,0,0:0:0:0:
292,195,58632,1,0,0:0:0:0:
290,220,59007,1,8,0:0:0:0:
290,213,59382,1,0,0:0:0:0:
290,213,60132,5,4,0:0:0:0:
226,105,61632,5,12,0:0:0:0:
245,182,63132,1,0,0:0:0:0:
245,182,63882,1,8,0:0:0:0:
261,197,65382,1,8,0:0:0:0:
261,197,66132,1,8,0:0:0:0:
261,197,66882,1,0,0:0:0:0:
263,199,68382,1,0,0:0:0:0:
263,199,69132,1,8,0:0:0:0:
263,200,71382,1,0,0:0:0:0:
263,200,72132,1,0,0:0:0:0:
263,200,72882,1,8,0:0:0:0:
256,192,82632,12,0,84507,0:0:0:0:
336,274,84882,5,12,0:0:0:0:
397,243,85632,5,4,0:0:0:0:
211,245,86382,1,0,0:0:0:0:
211,245,87132,1,8,0:0:0:0:
226,145,88257,1,0,0:0:0:0:
292,195,88632,1,4,0:0:0:0:
306,246,89007,1,8,0:0:0:0:
290,218,89382,1,0,0:0:0:0:
237,153,89944,1,8,0:0:0:0:
290,213,90132,1,8,0:0:0:0:
193,63,91632,1,4,0:0:0:0:
236,127,92007,1,8,0:0:0:0:
237,125,92382,1,8,0:0:0:0:
241,164,92944,1,0,0:0:0:0:
237,224,93132,1,0,0:0:0:0:
290,220,94632,1,0,0:0:0:0:
292,195,95007,1,8,0:0:0:0:
290,213,95382,1,0,0:0:0:0:
290,213,96132,1,4,0:0:0:0:
397,243,97632,5,4,0:0:0:0:
295,204,98007,1,8,0:0:0:0:
229,224,98382,1,0,0:0:0:0:
237,224,98944,1,8,0:0:0:0:
224,192,99132,1,8,0:0:0:0:
292,195,100632,1,0,0:0:0:0:
290,220,101007,1,8,0:0:0:0:
290,218,101382,1,8,0:0:0:0:
290,213,101944,1,0,0:0:0:0:
290,213,102132,1,0,0:0:0:0:
193,63,103632,1,4,0:0:0:0:
236,127,104007,1,8,0:0:0:0:
237,125,104382,1,8,0:0:0:0:
255,135,104944,1,0,0:0:0:0:
237,224,105132,1,0,0:0:0:0:
292,195,106632,1,8,0:0:0:0:
290,220,107007,1,8,0:0:0:0:
290,213,107382,1,0,0:0:0:0:
290,213,107944,1,8,0:0:0:0:
290,213,108132,5,8,0:0:0:0:
201,142,110007,1,8,0:0:0:0:
224,165,110757,1,8,0:0:0:0:
205,189,111132,1,0,0:0:0:0:
214,131,111507,1,8,0:0:0:0:
137,197,112069,1,8,0:0:0:0:
206,181,113007,1,8,0:0:0:0:
223,180,114132,1,8,0:0:0:0:
211,108,114507,1,0,0:0:0:0:
223,180,114882,1,0,0:0:0:0:
223,180,115257,1,8,0:0:0:0:
236,186,116007,1,8,0:0:0:0:
245,182,116757,1,8,0:0:0:0:
195,169,117132,1,0,0:0:0:0:
182,58,117507,1,8,0:0:0:0:
231,190,118069,1,8,0:0:0:0:
326,178,119007,1,8,0:0:0:0:
334,179,120132,1,0,0:0:0:0:
233,73,120507,1,8,0:0:0:0:
334,179,121257,1,8,0:0:0:0:
222,208,121632,1,4,0:0:0:0:
