osu file format v14

[General]
AudioFilename: audio.ogg
AudioLeadIn: 0
PreviewTime: 84971
Countdown: 0
SampleSet: Normal
StackLeniency: 0.7
Mode: 1
LetterboxInBreaks: 0
WidescreenStoryboard: 0

[Editor]
DistanceSpacing: 0.1
BeatDivisor: 4
GridSize: 32
TimelineZoom: 2.9

[Metadata]
Title:God (six impala remix)
TitleUnicode:God (six impala remix)
Artist:bladee & Mechatok
ArtistUnicode:bladee & Mechatok
Creator:clockbite
Version:all the way around
Source:
Tags:electronic english pop hyperpop drain gang dg draingang rainbow siximpala
BeatmapID:3996095
BeatmapSetID:1933890

[Difficulty]
HPDrainRate:7
CircleSize:5
OverallDifficulty:6
ApproachRate:10
SliderMultiplier:1.4
SliderTickRate:1

[Events]
//Background and Video events
0,0,"a.png",0,70
//Break Periods
2,1832,6244
2,73628,82182
//Storyboard Layer 0 (Background)
//Storyboard Layer 1 (Fail)
//Storyboard Layer 2 (Pass)
//Storyboard Layer 3 (Foreground)
//Storyboard Layer 4 (Overlay)
//Storyboard Sound Samples

[TimingPoints]
132,375,5,1,0,20,1,0
132,-66.6666666666667,5,1,0,20,0,0
225,-10,5,1,0,20,0,0
1538,-10,5,1,0,50,0,0
1632,375,4,1,0,50,1,0
1632,-250,4,1,0,50,0,0
3132,-256.410256410256,4,1,0,50,0,0
4632,-263.157894736842,4,1,0,50,0,0
6132,-270.27027027027,4,1,0,50,0,0
6694,-235.294117647059,4,1,0,50,0,0
6788,-236.686390532544,4,1,0,50,0,0
6882,-238.095238095238,4,1,0,50,0,0
7069,-240.963855421687,4,1,0,50,0,0
7257,-243.90243902439,4,1,0,50,0,0
7444,-246.913580246914,4,1,0,50,0,0
7632,-250,4,1,0,50,0,0
9132,-256.410256410256,4,1,0,50,0,0
9882,-250,4,1,0,50,0,0
10257,-256.410256410256,4,1,0,50,0,0
10632,-263.157894736842,4,1,0,50,0,0
11382,-256.410256410256,4,1,0,50,0,0
11757,-263.157894736842,4,1,0,50,0,0
12132,-270.27027027027,4,1,0,50,0,0
13538,-142.857142857143,4,1,0,70,0,0
15132,-208.333333333333,4,1,0,70,0,0
15694,-196.078431372549,4,1,0,70,0,0
15788,-198.019801980198,4,1,0,70,0,0
15882,-200,4,1,0,70,0,0
16069,-204.081632653061,4,1,0,70,0,0
16257,-208.333333333333,4,1,0,70,0,0
16444,-212.765957446809,4,1,0,70,0,0
16632,-217.391304347826,4,1,0,70,0,0
18132,-227.272727272727,4,1,0,70,0,0
18694,-231.21387283237,4,1,0,70,0,0
18882,-185.185185185185,4,1,0,70,0,0
19069,-188.679245283019,4,1,0,70,0,0
19257,-192.307692307692,4,1,0,70,0,0
19444,-196.078431372549,4,1,0,70,0,0
19632,-200,4,1,0,70,0,0
21108,-208.333333333333,4,1,0,70,0,0
21670,-196.078431372549,4,1,0,70,0,0
21764,-198.019801980198,4,1,0,70,0,0
21858,-200,4,1,0,70,0,0
22045,-204.081632653061,4,1,0,70,0,0
22233,-208.333333333333,4,1,0,70,0,0
22420,-212.765957446809,4,1,0,70,0,0
22608,-217.391304347826,4,1,0,70,0,0
24108,-227.272727272727,4,1,0,70,0,0
24670,-231.21387283237,4,1,0,70,0,0
24858,-185.185185185185,4,1,0,70,0,0
25045,-188.679245283019,4,1,0,70,0,0
25233,-192.307692307692,4,1,0,70,0,0
25420,-196.078431372549,4,1,0,70,0,0
25538,-200,4,1,0,80,0,0
25632,-133.333333333333,4,1,0,80,0,0
26007,-131.765846819568,4,1,0,80,0,0
26382,-130.234787274498,4,1,0,80,0,0
26663,-129.109723898855,4,1,0,80,0,0
26944,-128.003768430943,4,1,0,80,0,0
27132,-127.276985266416,4,1,0,80,0,0
27413,-126.202234031947,4,1,0,80,0,0
27694,-125.145325008666,4,1,0,80,0,0
27882,-124.450550818138,4,1,0,80,0,0
28163,-123.422810757038,4,1,0,80,0,0
28257,-123.083891518781,4,1,0,80,0,0
28444,-122.411906271652,4,1,0,80,0,0
28632,-121.747070461117,4,1,0,80,0,0
28913,-120.76317496048,4,1,0,80,0,0
29194,-119.795198129278,4,1,0,80,0,0
29382,-119.158407996006,4,1,0,80,0,0
29569,-118.528351981794,4,1,0,80,0,0
29663,-118.215746100949,4,1,0,80,0,0
29944,-117.28801949796,4,1,0,80,0,0
30132,-116.677537123875,4,1,0,80,0,0
30413,-115.773570051693,4,1,0,80,0,0
30694,-114.88363436675,4,1,0,80,0,0
30882,-114.297862515673,4,1,0,80,0,0
31163,-113.430255705825,4,1,0,80,0,0
31257,-113.144058409489,4,1,0,80,0,0
31444,-112.575847977575,4,1,0,80,0,0
31632,-112.013316143023,4,1,0,80,0,0
32007,-110.904951129733,4,1,0,80,0,0
32382,-109.818305613363,4,1,0,80,0,0
32663,-109.017253070471,4,1,0,80,0,0
32757,-108.75274736628,4,1,0,80,0,0
32944,-108.227685074753,4,1,0,80,0,0
33132,-107.707668462872,4,1,0,80,0,0
33413,-106.93700341129,4,1,0,80,0,0
33694,-106.177175729596,4,1,0,80,0,0
33882,-105.676631620773,4,1,0,80,0,0
34163,-104.934657188968,4,1,0,80,0,0
34257,-104.689678853941,4,1,0,80,0,0
34444,-104.203029182058,4,1,0,80,0,0
34632,-103.720882955132,4,1,0,80,0,0
34913,-103.00591872009,4,1,0,80,0,0
35194,-102.300848380936,4,1,0,80,0,0
35382,-101.836104972657,4,1,0,80,0,0
35663,-101.146802446134,4,1,0,80,0,0
35757,-100.919171816908,4,1,0,80,0,0
35944,-100.466869542765,4,1,0,80,0,0
36132,-50,4,1,0,50,0,0
37069,-129.198966408269,4,1,0,50,0,0
37257,-130.548302872063,4,1,0,50,0,0
37444,-131.926121372032,4,1,0,50,0,0
37585,-131.926121372032,4,1,0,90,0,0
37632,-80,4,1,0,90,0,1
37819,-135.016721820998,4,1,0,90,0,1
38007,-136.742973804149,4,1,0,90,0,1
38194,-138.514131211666,4,1,0,90,0,1
38382,-140.331772376252,4,1,0,90,0,1
38475,-141.258500230251,4,1,0,90,0,1
38569,-142.197549367434,4,1,0,90,0,1
38663,-143.149372075279,4,1,0,90,0,1
38850,-145.091342254516,4,1,0,90,0,1
38944,-146.082434317685,4,1,0,90,0,1
39132,-148.105362154637,4,1,0,90,0,1
39413,-151.247260533994,4,1,0,90,0,1
39507,-152.324316749277,4,1,0,90,0,1
39694,-154.525352201909,4,1,0,90,0,1
39882,-156.790928704029,4,1,0,90,0,1
39975,-157.94868878896,4,1,0,90,0,1
40163,-160.316528954768,4,1,0,90,0,1
40257,-161.527142213342,4,1,0,90,0,1
40350,-162.756178224525,4,1,0,90,0,1
40444,-164.004329714304,4,1,0,90,0,1
40632,-133.333333333333,4,1,0,90,0,1
40819,-135.016721820998,4,1,0,90,0,1
40913,-135.874365127029,4,1,0,90,0,1
41007,-136.742973804149,4,1,0,90,0,1
41194,-138.514131211666,4,1,0,90,0,1
41382,-140.331772376252,4,1,0,90,0,1
41475,-141.258500230251,4,1,0,90,0,1
41569,-142.197549367434,4,1,0,90,0,1
41663,-143.149372075279,4,1,0,90,0,1
41850,-145.091342254516,4,1,0,90,0,1
41944,-146.082434317685,4,1,0,90,0,1
42132,-148.105362154637,4,1,0,90,0,1
42413,-151.247260533994,4,1,0,90,0,1
42507,-152.324316749277,4,1,0,90,0,1
42694,-154.525352201909,4,1,0,90,0,1
42882,-156.790928704029,4,1,0,90,0,1
42975,-157.94868878896,4,1,0,90,0,1
43069,-159.123674101986,4,1,0,90,0,1
43163,-160.316528954768,4,1,0,90,0,1
43257,-161.527142213342,4,1,0,90,0,1
43350,-162.756178224525,4,1,0,90,0,1
43444,-164.004329714304,4,1,0,90,0,1
43632,-80,4,1,0,90,0,1
43819,-135.016721820998,4,1,0,90,0,1
43913,-135.874365127029,4,1,0,90,0,1
44007,-136.742973804149,4,1,0,90,0,1
44194,-138.514131211666,4,1,0,90,0,1
44382,-140.331772376252,4,1,0,90,0,1
44475,-141.258500230251,4,1,0,90,0,1
44569,-142.197549367434,4,1,0,90,0,1
44663,-143.149372075279,4,1,0,90,0,1
44850,-145.091342254516,4,1,0,90,0,1
44944,-146.082434317685,4,1,0,90,0,1
45132,-148.105362154637,4,1,0,90,0,1
45413,-151.247260533994,4,1,0,90,0,1
45507,-152.324316749277,4,1,0,90,0,1
45694,-154.525352201909,4,1,0,90,0,1
45882,-156.790928704029,4,1,0,90,0,1
45975,-157.94868878896,4,1,0,90,0,1
46163,-160.316528954768,4,1,0,90,0,1
46257,-161.527142213342,4,1,0,90,0,1
46350,-162.756178224525,4,1,0,90,0,1
46444,-164.004329714304,4,1,0,90,0,1
46600,-133.333333333333,4,1,0,90,0,1
46787,-135.016721820998,4,1,0,90,0,1
46881,-135.874365127029,4,1,0,90,0,1
46975,-136.742973804149,4,1,0,90,0,1
47162,-138.514131211666,4,1,0,90,0,1
47350,-140.331772376252,4,1,0,90,0,1
47443,-141.258500230251,4,1,0,90,0,1
47537,-142.197549367434,4,1,0,90,0,1
47631,-143.149372075279,4,1,0,90,0,1
47818,-145.091342254516,4,1,0,90,0,1
47912,-146.082434317685,4,1,0,90,0,1
48132,-80,4,1,0,90,0,0
48319,-111.111111111111,4,1,0,90,0,0
48413,-115.323892919459,4,1,0,90,0,0
48507,-119.868576093171,4,1,0,90,0,0
48569,-123.102831488227,4,1,0,90,0,0
48632,-126.516457893425,4,1,0,90,0,0
48694,-130.124802698268,4,1,0,90,0,0
48757,-133.945015571108,4,1,0,90,0,0
48819,-137.996130588498,4,1,0,90,0,0
48882,-142.857142857143,4,1,0,90,0,0
48975,-141.605752592093,4,1,0,90,0,0
49069,-140.376292690185,4,1,0,90,0,0
49163,-139.167804363467,4,1,0,90,0,0
49257,-137.980136379567,4,1,0,90,0,0
49444,-135.664409663105,4,1,0,90,0,0
49632,-80,4,1,0,90,0,1
49795,-135.016721820998,4,1,0,90,0,1
49983,-136.742973804149,4,1,0,90,0,1
50170,-138.514131211666,4,1,0,90,0,1
50358,-140.331772376252,4,1,0,90,0,1
50451,-141.258500230251,4,1,0,90,0,1
50545,-142.197549367434,4,1,0,90,0,1
50639,-143.149372075279,4,1,0,90,0,1
50826,-145.091342254516,4,1,0,90,0,1
50920,-146.082434317685,4,1,0,90,0,1
51108,-148.105362154637,4,1,0,90,0,1
51389,-151.247260533994,4,1,0,90,0,1
51483,-152.324316749277,4,1,0,90,0,1
51670,-154.525352201909,4,1,0,90,0,1
51858,-156.790928704029,4,1,0,90,0,1
51951,-157.94868878896,4,1,0,90,0,1
52139,-160.316528954768,4,1,0,90,0,1
52233,-161.527142213342,4,1,0,90,0,1
52326,-162.756178224525,4,1,0,90,0,1
52420,-164.004329714304,4,1,0,90,0,1
52608,-133.333333333333,4,1,0,90,0,1
52795,-135.016721820998,4,1,0,90,0,1
52889,-135.874365127029,4,1,0,90,0,1
52983,-136.742973804149,4,1,0,90,0,1
53170,-138.514131211666,4,1,0,90,0,1
53358,-140.331772376252,4,1,0,90,0,1
53451,-141.258500230251,4,1,0,90,0,1
53545,-142.197549367434,4,1,0,90,0,1
53639,-143.149372075279,4,1,0,90,0,1
53826,-145.091342254516,4,1,0,90,0,1
53920,-146.082434317685,4,1,0,90,0,1
54108,-148.105362154637,4,1,0,90,0,1
54389,-151.247260533994,4,1,0,90,0,1
54483,-152.324316749277,4,1,0,90,0,1
54670,-154.525352201909,4,1,0,90,0,1
54858,-156.790928704029,4,1,0,90,0,1
54951,-157.94868878896,4,1,0,90,0,1
55045,-159.123674101986,4,1,0,90,0,1
55139,-160.316528954768,4,1,0,90,0,1
55233,-161.527142213342,4,1,0,90,0,1
55326,-162.756178224525,4,1,0,90,0,1
55420,-164.004329714304,4,1,0,90,0,1
55608,-80,4,1,0,90,0,1
55795,-135.016721820998,4,1,0,90,0,1
55889,-135.874365127029,4,1,0,90,0,1
55983,-136.742973804149,4,1,0,90,0,1
56170,-138.514131211666,4,1,0,90,0,1
56358,-140.331772376252,4,1,0,90,0,1
56451,-141.258500230251,4,1,0,90,0,1
56545,-142.197549367434,4,1,0,90,0,1
56639,-143.149372075279,4,1,0,90,0,1
56826,-145.091342254516,4,1,0,90,0,1
56920,-146.082434317685,4,1,0,90,0,1
57108,-148.105362154637,4,1,0,90,0,1
57389,-151.247260533994,4,1,0,90,0,1
57483,-152.324316749277,4,1,0,90,0,1
57670,-154.525352201909,4,1,0,90,0,1
57858,-156.790928704029,4,1,0,90,0,1
57951,-157.94868878896,4,1,0,90,0,1
58139,-160.316528954768,4,1,0,90,0,1
58233,-161.527142213342,4,1,0,90,0,1
58326,-162.756178224525,4,1,0,90,0,1
58420,-164.004329714304,4,1,0,90,0,1
58576,-133.333333333333,4,1,0,90,0,1
58763,-135.016721820998,4,1,0,90,0,1
58857,-135.874365127029,4,1,0,90,0,1
58951,-136.742973804149,4,1,0,90,0,1
59138,-138.514131211666,4,1,0,90,0,1
59326,-140.331772376252,4,1,0,90,0,1
59419,-141.258500230251,4,1,0,90,0,1
59513,-142.197549367434,4,1,0,90,0,1
59607,-143.149372075279,4,1,0,90,0,1
59794,-145.091342254516,4,1,0,90,0,1
59888,-146.082434317685,4,1,0,90,0,1
60132,-80,4,1,0,90,0,0
60319,-80,4,1,0,70,0,0
61632,-142.857142857143,4,1,0,70,0,0
62756,-196.32132,4,1,0,70,0,0
62943,-195.7225,4,1,0,70,0,0
63131,-195.12416,4,1,0,70,0,0
63506,-193.9415,4,1,0,70,0,0
63693,-193.35709,4,1,0,70,0,0
63881,-192.7731,4,1,0,70,0,0
64632,-190.481995641772,4,1,0,70,0,0
65006,-189.35083,4,1,0,70,0,0
65193,-188.7937,4,1,0,70,0,0
65381,-188.23692,4,1,0,70,0,0
65756,-187.13602,4,1,0,70,0,0
65943,-186.59186,4,1,0,70,0,0
66131,-186.04794,4,1,0,70,0,0
66318,-185.51007,4,1,0,70,0,0
66506,-184.97246,4,1,0,70,0,0
66693,-184.44078,4,1,0,70,0,0
66881,-183.9093,4,1,0,70,0,0
67068,-183.38371,4,1,0,70,0,0
67256,-182.85832,4,1,0,70,0,0
67443,-182.33871,4,1,0,70,0,0
67631,-181.81927,4,1,0,70,0,0
68006,-180.79196,4,1,0,70,0,0
68193,-180.28401,4,1,0,70,0,0
68381,-179.77621,4,1,0,70,0,0
68756,-178.7718,4,1,0,70,0,0
68943,-178.27513,4,1,0,70,0,0
69131,-177.77856,4,1,0,70,0,0
69506,-176.79631,4,1,0,70,0,0
69693,-176.3105,4,1,0,70,0,0
69881,-175.82483,4,1,0,70,0,0
70632,-173.927865157205,4,1,0,70,0,0
71006,-172.9734,4,1,0,70,0,0
71193,-172.50838,4,1,0,70,0,0
71381,-172.04338,4,1,0,70,0,0
71756,-171.1233,4,1,0,70,0,0
71943,-170.66817,4,1,0,70,0,0
72131,-170.21301,4,1,0,70,0,0
72318,-169.7627,4,1,0,70,0,0
72506,-169.31235,4,1,0,70,0,0
72693,-168.86678,4,1,0,70,0,0
72881,-168.42117,4,1,0,70,0,0
73256,-167.5393,4,1,0,70,0,0
73632,-166.666666666667,4,1,0,30,0,0
75132,-250,4,1,0,30,0,0
76632,-243.90243902439,4,1,0,30,0,0
78132,-238.095238095238,4,1,0,30,0,0
79632,-232.558139534884,4,1,0,30,0,0
81132,-227.272727272727,4,1,0,30,0,0
82632,-222.222222222222,4,1,0,30,0,0
82725,-211.48937160163,4,1,0,32,0,0
82819,-201.745095072376,4,1,0,34,0,0
82913,-192.859567377418,4,1,0,36,0,0
83007,-184.723717971216,4,1,0,38,0,0
83100,-177.246196739733,4,1,0,40,0,0
83194,-170.35078633923,4,1,0,42,0,0
83288,-163.971521426159,4,1,0,45,0,0
83382,-158.053039438975,4,1,0,47,0,0
83475,-152.546923433648,4,1,0,49,0,0
83569,-147.411309985347,4,1,0,51,0,0
83663,-142.610426818746,4,1,0,53,0,0
83757,-138.112390338762,4,1,0,55,0,0
83850,-133.889241463891,4,1,0,57,0,0
83944,-129.91686619732,4,1,0,59,0,0
84038,-126.173253541368,4,1,0,61,0,0
84132,-122.639496295061,4,1,0,63,0,0
84225,-119.298287473083,4,1,0,65,0,0
84319,-116.134172131747,4,1,0,68,0,0
84413,-113.133690081569,4,1,0,70,0,0
84507,-110.284346129626,4,1,0,72,0,0
84600,-107.574885567215,4,1,0,74,0,0
84694,-104.995474695041,4,1,0,76,0,0
84788,-102.536759428255,4,1,0,78,0,0
84882,-68.9655172413793,4,1,0,80,0,0
85069,-71.4285714285714,4,1,0,80,0,0
85257,-74.0740740740741,4,1,0,80,0,0
85632,-80,4,1,0,80,0,0
86007,-135.587337227402,4,1,0,80,0,0
86382,-137.918669360678,4,1,0,80,0,0
86663,-139.720614658928,4,1,0,80,0,0
86944,-141.570068689797,4,1,0,80,0,0
87132,-142.830617171097,4,1,0,80,0,0
87413,-144.764099661397,4,1,0,80,0,0
87694,-146.750431813146,4,1,0,80,0,0
87882,-148.105362154637,4,1,0,80,0,0
88163,-150.18532869561,4,1,0,80,0,0
88257,-150.891694468461,4,1,0,80,0,0
88444,-152.324316749277,4,1,0,80,0,0
88538,-152.324316749277,4,1,0,90,0,0
88632,-66.6666666666667,4,1,0,90,0,1
88819,-103.217176163851,4,1,0,90,0,1
88913,-104.904604997446,4,1,0,90,0,1
89007,-106.648237851166,4,1,0,90,0,1
89194,-110.315126189473,4,1,0,90,0,1
89288,-112.244909412746,4,1,0,90,0,1
89382,-114.243281067032,4,1,0,90,0,1
89475,-116.314234536023,4,1,0,90,0,1
89569,-118.46151659172,4,1,0,90,0,1
89663,-120.68971759813,4,1,0,90,0,1
89850,-125.407102807489,4,1,0,90,0,1
89944,-127.907006490002,4,1,0,90,0,1
90132,-133.218055309472,4,1,0,90,0,1
90319,-138.98907684845,4,1,0,90,0,1
90413,-142.066441633423,4,1,0,90,0,1
90507,-145.282953079417,4,1,0,90,0,1
90694,-152.1738799622,4,1,0,90,0,1
90882,-159.751043973072,4,1,0,90,0,1
90975,-163.829682661905,4,1,0,90,0,1
91069,-168.122325804255,4,1,0,90,0,1
91163,-172.645674103667,4,1,0,90,0,1
91257,-177.419469302883,4,1,0,90,0,1
91350,-182.464437681096,4,1,0,90,0,1
91444,-187.804713147081,4,1,0,90,0,1
91632,-66.6666666666667,4,1,0,90,0,1
91819,-103.217176163851,4,1,0,90,0,1
91913,-104.904604997446,4,1,0,90,0,1
92007,-106.648237851166,4,1,0,90,0,1
92194,-110.315126189473,4,1,0,90,0,1
92382,-114.243281067032,4,1,0,90,0,1
92475,-116.314234536023,4,1,0,90,0,1
92569,-118.46151659172,4,1,0,90,0,1
92663,-120.68971759813,4,1,0,90,0,1
92850,-125.407102807489,4,1,0,90,0,1
92944,-127.907006490002,4,1,0,90,0,1
93038,-130.508434760139,4,1,0,90,0,1
93132,-133.218055309472,4,1,0,90,0,1
93319,-138.98907684845,4,1,0,90,0,1
93413,-142.066441633423,4,1,0,90,0,1
93507,-145.282953079417,4,1,0,90,0,1
93694,-152.1738799622,4,1,0,90,0,1
93882,-159.751043973072,4,1,0,90,0,1
93975,-163.829682661905,4,1,0,90,0,1
94163,-172.645674103667,4,1,0,90,0,1
94257,-177.419469302883,4,1,0,90,0,1
94350,-182.464437681096,4,1,0,90,0,1
94444,-187.804713147081,4,1,0,90,0,1
94538,-193.467380432322,4,1,0,90,0,1
94632,-100,4,1,0,90,0,1
94772,-103.217176163851,4,1,0,90,0,1
94866,-104.904604997446,4,1,0,90,0,1
94960,-106.648237851166,4,1,0,90,0,1
95147,-110.315126189473,4,1,0,90,0,1
95241,-112.244909412746,4,1,0,90,0,1
95335,-114.243281067032,4,1,0,90,0,1
95428,-116.314234536023,4,1,0,90,0,1
95522,-118.46151659172,4,1,0,90,0,1
95616,-120.68971759813,4,1,0,90,0,1
95803,-125.407102807489,4,1,0,90,0,1
95897,-127.907006490002,4,1,0,90,0,1
96132,-66.6666666666667,4,1,0,90,0,0
96272,-90.9090909090908,4,1,0,90,0,0
96366,-93.7099097292439,4,1,0,90,0,0
96460,-96.6887020218572,4,1,0,90,0,0
96522,-98.7821153004606,4,1,0,90,0,0
96585,-100.968183915566,4,1,0,90,0,0
96647,-103.253198525957,4,1,0,90,0,0
96710,-105.644032432718,4,1,0,90,0,0
96772,-108.148093673553,4,1,0,90,0,0
96835,-111.111111111111,4,1,0,90,0,0
96928,-110.35262076439,4,1,0,90,0,0
97022,-109.604535874112,4,1,0,90,0,0
97116,-108.866406766265,4,1,0,90,0,0
97210,-108.138269917447,4,1,0,90,0,0
97397,-106.710716850583,4,1,0,90,0,0
97632,-66.6666666666667,4,1,0,90,0,1
97819,-103.217176163851,4,1,0,90,0,1
98007,-106.648237851166,4,1,0,90,0,1
98194,-110.315126189473,4,1,0,90,0,1
98382,-114.243281067032,4,1,0,90,0,1
98475,-116.314234536023,4,1,0,90,0,1
98569,-118.46151659172,4,1,0,90,0,1
98663,-120.68971759813,4,1,0,90,0,1
98850,-125.407102807489,4,1,0,90,0,1
98944,-127.907006490002,4,1,0,90,0,1
99038,-130.508434760139,4,1,0,90,0,1
99132,-133.218055309472,4,1,0,90,0,1
99319,-138.98907684845,4,1,0,90,0,1
99413,-142.066441633423,4,1,0,90,0,1
99507,-145.282953079417,4,1,0,90,0,1
99694,-152.1738799622,4,1,0,90,0,1
99882,-159.751043973072,4,1,0,90,0,1
99975,-163.829682661905,4,1,0,90,0,1
100163,-172.645674103667,4,1,0,90,0,1
100257,-177.419469302883,4,1,0,90,0,1
100350,-182.464437681096,4,1,0,90,0,1
100444,-187.804713147081,4,1,0,90,0,1
100538,-193.467380432322,4,1,0,90,0,1
100632,-100,4,1,0,90,0,1
100819,-103.217176163851,4,1,0,90,0,1
100913,-104.904604997446,4,1,0,90,0,1
101007,-106.648237851166,4,1,0,90,0,1
101194,-110.315126189473,4,1,0,90,0,1
101288,-112.244909412746,4,1,0,90,0,1
101382,-114.243281067032,4,1,0,90,0,1
101475,-116.314234536023,4,1,0,90,0,1
101569,-118.46151659172,4,1,0,90,0,1
101663,-120.68971759813,4,1,0,90,0,1
101850,-125.407102807489,4,1,0,90,0,1
101944,-127.907006490002,4,1,0,90,0,1
102132,-133.218055309472,4,1,0,90,0,1
102319,-138.98907684845,4,1,0,90,0,1
102413,-142.066441633423,4,1,0,90,0,1
102507,-145.282953079417,4,1,0,90,0,1
102694,-152.1738799622,4,1,0,90,0,1
102882,-159.751043973072,4,1,0,90,0,1
102975,-163.829682661905,4,1,0,90,0,1
103069,-168.122325804255,4,1,0,90,0,1
103163,-172.645674103667,4,1,0,90,0,1
103257,-177.419469302883,4,1,0,90,0,1
103350,-182.464437681096,4,1,0,90,0,1
103444,-187.804713147081,4,1,0,90,0,1
103632,-66.6666666666667,4,1,0,90,0,1
103819,-103.217176163851,4,1,0,90,0,1
103913,-104.904604997446,4,1,0,90,0,1
104007,-106.648237851166,4,1,0,90,0,1
104194,-110.315126189473,4,1,0,90,0,1
104382,-114.243281067032,4,1,0,90,0,1
104475,-116.314234536023,4,1,0,90,0,1
104569,-118.46151659172,4,1,0,90,0,1
104663,-120.68971759813,4,1,0,90,0,1
104850,-125.407102807489,4,1,0,90,0,1
104944,-127.907006490002,4,1,0,90,0,1
105038,-130.508434760139,4,1,0,90,0,1
105132,-133.218055309472,4,1,0,90,0,1
105319,-138.98907684845,4,1,0,90,0,1
105413,-142.066441633423,4,1,0,90,0,1
105507,-145.282953079417,4,1,0,90,0,1
105694,-152.1738799622,4,1,0,90,0,1
105882,-159.751043973072,4,1,0,90,0,1
105975,-163.829682661905,4,1,0,90,0,1
106163,-172.645674103667,4,1,0,90,0,1
106257,-177.419469302883,4,1,0,90,0,1
106350,-182.464437681096,4,1,0,90,0,1
106444,-187.804713147081,4,1,0,90,0,1
106538,-193.467380432322,4,1,0,90,0,1
106608,-100,4,1,0,90,0,1
106748,-103.217176163851,4,1,0,90,0,1
106842,-104.904604997446,4,1,0,90,0,1
106936,-106.648237851166,4,1,0,90,0,1
107123,-110.315126189473,4,1,0,90,0,1
107217,-112.244909412746,4,1,0,90,0,1
107311,-114.243281067032,4,1,0,90,0,1
107404,-116.314234536023,4,1,0,90,0,1
107498,-118.46151659172,4,1,0,90,0,1
107592,-120.68971759813,4,1,0,90,0,1
107779,-125.407102807489,4,1,0,90,0,1
107873,-127.907006490002,4,1,0,90,0,1
108132,-133.333333333333,4,1,0,90,0,0
109538,-133.333333333333,4,1,0,80,0,0
109632,-133.333333333333,4,1,0,80,0,0
109819,-134.735843641748,4,1,0,80,0,0
110007,-136.168358558522,4,1,0,80,0,0
110194,-137.631472464071,4,1,0,80,0,0
110288,-138.37497958969,4,1,0,80,0,0
110382,-139.126563434757,4,1,0,80,0,0
110475,-139.886160642469,4,1,0,80,0,0
110569,-140.654295652516,4,1,0,80,0,0
110757,-142.216154332971,4,1,0,80,0,0
110944,-143.812882182734,4,1,0,80,0,0
111038,-144.624872006988,4,1,0,80,0,0
111132,-145.445871591658,4,1,0,80,0,0
111319,-147.116588425161,4,1,0,80,0,0
111507,-148.825912377256,4,1,0,80,0,0
111600,-149.695668705522,4,1,0,80,0,0
111694,-150.575650712675,4,1,0,80,0,0
111788,-151.465810379952,4,1,0,80,0,0
111975,-153.278551578999,4,1,0,80,0,0
112069,-154.201053501598,4,1,0,80,0,0
112257,-156.080262714298,4,1,0,80,0,0
112444,-158.005590237783,4,1,0,80,0,0
112538,-158.986303329968,4,1,0,80,0,0
112632,-159.979266687037,4,1,0,80,0,0
112819,-162.002611482097,4,1,0,80,0,0
113007,-164.078061778672,4,1,0,80,0,0
113194,-166.20710402404,4,1,0,80,0,0
113288,-167.292619886074,4,1,0,80,0,0
113382,-168.392124637115,4,1,0,80,0,0
113475,-169.506464976574,4,1,0,80,0,0
113569,-170.635651930572,4,1,0,80,0,0
113757,-172.939469456296,4,1,0,80,0,0
113944,-175.30665516655,4,1,0,80,0,0
114038,-176.51440534062,4,1,0,80,0,0
114132,-177.73922811408,4,1,0,80,0,0
114319,-180.240260266936,4,1,0,80,0,0
114507,-182.813017018064,4,1,0,80,0,0
114694,-185.459940652819,4,1,0,80,0,0
114788,-186.812529890005,4,1,0,80,0,0
114882,-188.184993375888,4,1,0,80,0,0
114975,-189.577412988707,4,1,0,80,0,0
115163,-192.425738097025,4,1,0,80,0,0
115257,-193.882239805187,4,1,0,80,0,0
115444,-196.862019410595,4,1,0,80,0,0
115538,-198.38671919947,4,1,0,80,0,0
115632,-199.934821248273,4,1,0,80,0,0
115819,-203.105482832509,4,1,0,80,0,0
116007,-206.377902705202,4,1,0,80,0,0
116194,-209.757939338004,4,1,0,80,0,0
116288,-211.48937160163,4,1,0,80,0,0
116382,-213.250080501905,4,1,0,80,0,0
116475,-215.040352322113,4,1,0,80,0,0
116569,-216.860467637912,4,1,0,80,0,0
116757,-220.59569661915,4,1,0,80,0,0
116944,-224.46134887803,4,1,0,80,0,0
117038,-226.445685870016,4,1,0,80,0,0
117132,-228.465420616263,4,1,0,80,0,0
117319,-232.614399761803,4,1,0,80,0,0
117507,-236.917420064062,4,1,0,80,0,0
117600,-239.128615325753,4,1,0,80,0,0
117694,-241.382057106167,4,1,0,80,0,0
117788,-243.678373788005,4,1,0,80,0,0
117975,-248.404004272549,4,1,0,80,0,0
118069,-250.836539860435,4,1,0,80,0,0
118257,-255.846737570326,4,1,0,80,0,0
118444,-261.061842939974,4,1,0,80,0,0
118538,-263.749248314642,4,1,0,80,0,0
118632,-266.493268380041,4,1,0,80,0,0
118819,-272.155498765775,4,1,0,80,0,0
119007,-278.064338526648,4,1,0,80,0,0
119194,-284.234641381153,4,1,0,80,0,0
119288,-287.424048195264,4,1,0,80,0,0
119382,-290.68584418076,4,1,0,80,0,0
119475,-294.021657635301,4,1,0,80,0,0
119569,-297.435805917188,4,1,0,80,0,0
119757,-304.507626393503,4,1,0,80,0,0
119944,-311.922942556271,4,1,0,80,0,0
120038,-315.768200879099,4,1,0,80,0,0
120132,-319.708425915565,4,1,0,80,0,0
120319,-327.893578860045,4,1,0,80,0,0
120507,-336.507722852239,4,1,0,80,0,0
120694,-345.587879541889,4,1,0,80,0,0
120788,-350.313004669672,4,1,0,80,0,0
120882,-355.17039299604,4,1,0,80,0,0
120975,-360.164379022586,4,1,0,80,0,0
121163,-370.584485851084,4,1,0,80,0,0
121257,-376.02466721817,4,1,0,80,0,0
121444,-387.397194469518,4,1,0,80,0,0
121538,-393.346156418033,4,1,0,80,0,0
121632,-80,4,1,0,80,0,0

[HitObjects]
341,142,132,5,12,0:0:0:0:
256,192,225,8,0,1444,0:0:0:0:
218,117,1632,5,8,0:0:0:0:
294,234,6694,5,8,0:0:0:0:
294,234,6788,1,8,0:0:0:0:
289,237,6882,1,8,0:0:0:0:
330,237,7069,1,8,0:0:0:0:
330,237,7257,1,8,0:0:0:0:
321,192,7444,1,8,0:0:0:0:
321,192,7632,1,8,0:0:0:0:
290,194,9882,1,8,0:0:0:0:
290,194,10257,1,8,0:0:0:0:
290,194,10632,1,8,0:0:0:0:
290,194,11382,1,8,0:0:0:0:
290,194,11757,1,8,0:0:0:0:
290,194,12132,1,8,0:0:0:0:
282,133,13632,5,4,0:0:0:0:
232,151,15132,1,0,0:0:0:0:
332,136,15694,1,8,0:0:0:0:
226,175,15788,1,8,0:0:0:0:
230,176,15882,1,8,0:0:0:0:
226,175,16069,1,8,0:0:0:0:
360,153,16257,1,8,0:0:0:0:
364,155,16444,1,8,0:0:0:0:
339,156,16632,1,0,0:0:0:0:
279,160,18132,1,0,0:0:0:0:
279,160,18694,1,0,0:0:0:0:
323,178,18882,1,8,0:0:0:0:
323,178,19069,1,8,0:0:0:0:
323,178,19257,1,8,0:0:0:0:
323,178,19444,1,8,0:0:0:0:
279,160,19632,1,0,0:0:0:0:
280,160,21132,1,0,0:0:0:0:
280,160,21694,1,8,0:0:0:0:
326,178,21788,1,8,0:0:0:0:
326,178,21882,1,8,0:0:0:0:
332,178,22069,1,8,0:0:0:0:
326,178,22257,1,8,0:0:0:0:
326,178,22444,1,8,0:0:0:0:
289,151,22632,1,0,0:0:0:0:
289,151,24132,1,0,0:0:0:0:
289,151,24694,1,0,0:0:0:0:
289,151,25632,1,8,0:0:0:0:
211,168,26007,1,0,0:0:0:0:
211,168,26382,1,8,0:0:0:0:
211,168,26663,1,0,0:0:0:0:
211,168,26944,1,0,0:0:0:0:
211,168,27132,1,8,0:0:0:0:
211,168,27413,1,0,0:0:0:0:
211,168,27694,1,0,0:0:0:0:
240,190,27882,1,8,0:0:0:0:
240,190,28163,1,0,0:0:0:0:
296,180,28257,1,8,0:0:0:0:
240,190,28444,1,0,0:0:0:0:
240,190,28632,1,8,0:0:0:0:
248,170,28913,1,0,0:0:0:0:
248,171,29194,1,0,0:0:0:0:
248,171,29382,1,8,0:0:0:0:
351,186,29569,1,8,0:0:0:0:
248,171,29663,1,0,0:0:0:0:
248,171,29944,1,0,0:0:0:0:
248,171,30132,1,8,0:0:0:0:
248,171,30413,1,0,0:0:0:0:
248,171,30694,1,0,0:0:0:0:
248,171,30882,1,8,0:0:0:0:
248,171,31163,1,0,0:0:0:0:
455,198,31257,1,8,0:0:0:0:
248,171,31444,1,0,0:0:0:0:
248,171,31632,1,8,0:0:0:0:
248,171,32007,1,0,0:0:0:0:
248,171,32382,1,8,0:0:0:0:
248,171,32663,1,0,0:0:0:0:
320,144,32757,1,8,0:0:0:0:
248,171,32944,1,0,0:0:0:0:
248,171,33132,1,0,0:0:0:0:
248,171,33413,1,0,0:0:0:0:
248,171,33694,1,0,0:0:0:0:
248,171,33882,1,8,0:0:0:0:
248,171,34163,1,0,0:0:0:0:
286,156,34257,1,8,0:0:0:0:
248,171,34444,1,0,0:0:0:0:
248,171,34632,1,8,0:0:0:0:
248,171,34913,1,0,0:0:0:0:
248,171,35194,1,0,0:0:0:0:
248,171,35382,1,8,0:0:0:0:
248,171,35663,1,0,0:0:0:0:
266,165,35757,1,8,0:0:0:0:
248,171,35944,5,0,0:0:0:0:
271,130,37069,5,0,0:0:0:0:
271,130,37257,1,8,0:0:0:0:
271,130,37444,1,8,0:0:0:0:
397,243,37632,5,4,0:0:0:0:
295,204,37819,1,8,0:0:0:0:
295,204,38007,1,0,0:0:0:0:
281,187,38194,1,8,0:0:0:0:
229,224,38382,1,0,0:0:0:0:
229,224,38475,1,8,0:0:0:0:
237,224,38569,1,8,0:0:0:0:
229,224,38663,1,0,0:0:0:0:
310,197,38850,1,8,0:0:0:0:
237,224,38944,1,0,0:0:0:0:
237,224,39132,1,0,0:0:0:0:
292,186,39413,1,0,0:0:0:0:
292,186,39507,1,8,0:0:0:0:
288,191,39694,1,0,0:0:0:0:
288,191,39882,1,8,0:0:0:0:
293,195,39975,1,0,0:0:0:0:
291,199,40163,1,8,0:0:0:0:
350,204,40257,1,0,0:0:0:0:
291,197,40350,1,8,0:0:0:0:
292,197,40444,1,8,0:0:0:0:
292,195,40632,1,0,0:0:0:0:
194,195,40819,1,8,0:0:0:0:
306,246,40913,1,0,0:0:0:0:
306,246,41007,1,8,0:0:0:0:
290,220,41194,1,0,0:0:0:0:
290,218,41382,1,8,0:0:0:0:
290,213,41475,1,0,0:0:0:0:
290,217,41569,1,0,0:0:0:0:
290,217,41663,1,8,0:0:0:0:
290,213,41850,1,0,0:0:0:0:
290,213,41944,1,8,0:0:0:0:
290,213,42132,1,0,0:0:0:0:
290,218,42413,1,8,0:0:0:0:
241,135,42507,1,0,0:0:0:0:
241,135,42694,1,8,0:0:0:0:
241,135,42882,1,0,0:0:0:0:
241,135,42975,1,8,0:0:0:0:
212,37,43069,1,8,0:0:0:0:
203,92,43163,1,0,0:0:0:0:
210,81,43257,1,8,0:0:0:0:
187,64,43350,1,8,0:0:0:0:
201,65,43444,1,0,0:0:0:0:
193,63,43632,1,4,0:0:0:0:
252,145,43819,1,8,0:0:0:0:
252,143,43913,1,8,0:0:0:0:
236,127,44007,1,0,0:0:0:0:
235,127,44194,1,8,0:0:0:0:
237,125,44382,1,0,0:0:0:0:
272,137,44475,1,8,0:0:0:0:
272,137,44569,1,8,0:0:0:0:
270,137,44663,1,0,0:0:0:0:
269,137,44850,1,8,0:0:0:0:
268,137,44944,1,0,0:0:0:0:
237,224,45132,1,0,0:0:0:0:
292,186,45413,1,0,0:0:0:0:
292,186,45507,1,8,0:0:0:0:
288,191,45694,1,0,0:0:0:0:
288,191,45882,1,8,0:0:0:0:
293,195,45975,1,0,0:0:0:0:
350,204,46163,1,0,0:0:0:0:
291,199,46257,1,8,0:0:0:0:
291,197,46350,1,0,0:0:0:0:
292,197,46444,1,0,0:0:0:0:
292,195,46632,1,8,0:0:0:0:
306,246,46819,1,0,0:0:0:0:
194,195,46913,1,8,0:0:0:0:
306,246,47007,1,0,0:0:0:0:
290,220,47194,1,8,0:0:0:0:
290,213,47382,1,0,0:0:0:0:
290,218,47475,1,8,0:0:0:0:
290,217,47569,1,8,0:0:0:0:
290,217,47663,1,0,0:0:0:0:
290,213,47850,1,0,0:0:0:0:
290,213,47944,1,8,0:0:0:0:
290,213,48132,1,4,0:0:0:0:
125,199,48319,1,0,0:0:0:0:
125,199,48413,1,0,0:0:0:0:
302,140,48507,1,8,0:0:0:0:
302,140,48569,1,8,0:0:0:0:
302,140,48632,1,0,0:0:0:0:
302,140,48694,1,8,0:0:0:0:
247,170,48757,1,0,0:0:0:0:
247,169,48819,1,0,0:0:0:0:
219,118,48882,1,8,0:0:0:0:
335,178,48975,1,8,0:0:0:0:
233,104,49069,1,0,0:0:0:0:
341,182,49163,1,0,0:0:0:0:
233,104,49257,1,8,0:0:0:0:
237,102,49444,1,8,0:0:0:0:
397,243,49632,5,4,0:0:0:0:
295,204,49819,1,8,0:0:0:0:
295,204,50007,1,0,0:0:0:0:
281,187,50194,1,8,0:0:0:0:
229,224,50382,1,0,0:0:0:0:
229,224,50475,1,0,0:0:0:0:
237,224,50569,1,8,0:0:0:0:
229,224,50663,1,0,0:0:0:0:
310,197,50850,1,8,0:0:0:0:
237,224,50944,1,0,0:0:0:0:
237,224,51132,1,0,0:0:0:0:
292,186,51413,1,0,0:0:0:0:
292,186,51507,1,8,0:0:0:0:
288,191,51694,1,0,0:0:0:0:
288,191,51882,1,8,0:0:0:0:
293,195,51975,1,0,0:0:0:0:
291,199,52163,1,8,0:0:0:0:
350,204,52257,1,0,0:0:0:0:
291,197,52350,1,0,0:0:0:0:
292,197,52444,1,8,0:0:0:0:
292,195,52632,1,0,0:0:0:0:
194,195,52819,1,8,0:0:0:0:
306,246,52913,1,0,0:0:0:0:
306,246,53007,1,8,0:0:0:0:
290,220,53194,1,0,0:0:0:0:
290,218,53382,1,8,0:0:0:0:
290,213,53475,1,8,0:0:0:0:
290,217,53569,1,0,0:0:0:0:
290,217,53663,1,8,0:0:0:0:
290,213,53850,1,0,0:0:0:0:
290,213,53944,1,8,0:0:0:0:
290,213,54132,1,0,0:0:0:0:
241,135,54413,1,0,0:0:0:0:
290,218,54507,1,8,0:0:0:0:
241,135,54694,1,0,0:0:0:0:
241,135,54882,1,8,0:0:0:0:
241,135,54975,1,0,0:0:0:0:
212,37,55069,1,0,0:0:0:0:
203,92,55163,1,8,0:0:0:0:
210,81,55257,1,0,0:0:0:0:
187,64,55350,1,0,0:0:0:0:
201,65,55444,1,8,0:0:0:0:
193,63,55632,1,4,0:0:0:0:
252,145,55819,1,8,0:0:0:0:
252,143,55913,1,8,0:0:0:0:
236,127,56007,1,0,0:0:0:0:
235,127,56194,1,8,0:0:0:0:
237,125,56382,1,0,0:0:0:0:
272,137,56475,1,0,0:0:0:0:
272,137,56569,1,8,0:0:0:0:
270,137,56663,1,0,0:0:0:0:
268,137,56850,1,0,0:0:0:0:
269,137,56944,1,8,0:0:0:0:
237,224,57132,1,0,0:0:0:0:
292,186,57413,1,0,0:0:0:0:
292,186,57507,1,8,0:0:0:0:
288,191,57694,1,0,0:0:0:0:
288,191,57882,1,8,0:0:0:0:
293,195,57975,1,0,0:0:0:0:
350,204,58163,1,0,0:0:0:0:
291,199,58257,1,8,0:0:0:0:
291,197,58350,1,8,0:0:0:0:
292,197,58444,1,0,0:0:0:0:
292,195,58632,1,0,0:0:0:0:
194,195,58819,1,8,0:0:0:0:
306,246,58913,1,0,0:0:0:0:
306,246,59007,1,8,0:0:0:0:
290,220,59194,1,8,0:0:0:0:
290,213,59382,1,0,0:0:0:0:
290,218,59475,1,0,0:0:0:0:
290,217,59569,1,8,0:0:0:0:
290,217,59663,1,0,0:0:0:0:
290,213,59850,1,0,0:0:0:0:
290,213,59944,1,8,0:0:0:0:
146,75,60132,1,4,0:0:0:0:
226,105,61632,1,12,0:0:0:0:
245,182,62757,1,0,0:0:0:0:
245,182,62944,1,8,0:0:0:0:
245,182,63132,1,0,0:0:0:0:
245,182,63507,1,8,0:0:0:0:
245,182,63694,1,0,0:0:0:0:
245,182,63882,1,8,0:0:0:0:
261,197,65007,1,0,0:0:0:0:
261,197,65194,1,0,0:0:0:0:
261,197,65382,1,8,0:0:0:0:
261,197,65757,1,0,0:0:0:0:
261,197,65944,1,0,0:0:0:0:
261,197,66132,1,8,0:0:0:0:
261,197,66319,1,0,0:0:0:0:
261,197,66507,1,8,0:0:0:0:
261,197,66694,1,8,0:0:0:0:
261,197,66882,1,0,0:0:0:0:
363,189,67069,1,8,0:0:0:0:
363,189,67257,1,8,0:0:0:0:
293,175,67444,1,0,0:0:0:0:
293,175,67632,1,0,0:0:0:0:
263,199,68007,1,8,0:0:0:0:
263,199,68194,1,8,0:0:0:0:
263,199,68382,1,0,0:0:0:0:
263,199,68757,1,0,0:0:0:0:
263,199,68944,1,0,0:0:0:0:
263,199,69132,1,8,0:0:0:0:
336,202,69507,1,8,0:0:0:0:
336,202,69694,1,0,0:0:0:0:
336,202,69882,1,8,0:0:0:0:
263,200,71007,1,8,0:0:0:0:
263,200,71194,1,0,0:0:0:0:
263,200,71382,1,8,0:0:0:0:
263,200,71757,1,8,0:0:0:0:
263,200,71944,1,0,0:0:0:0:
263,200,72132,1,8,0:0:0:0:
263,200,72319,1,8,0:0:0:0:
263,200,72507,1,0,0:0:0:0:
263,200,72694,1,0,0:0:0:0:
263,200,72882,1,8,0:0:0:0:
263,200,73257,1,0,0:0:0:0:
336,274,82632,5,0,0:0:0:0:
336,274,82725,1,0,0:0:0:0:
336,274,82819,1,0,0:0:0:0:
336,274,82913,1,0,0:0:0:0:
336,274,83007,1,0,0:0:0:0:
336,274,83100,1,0,0:0:0:0:
336,274,83194,1,0,0:0:0:0:
336,274,83288,1,0,0:0:0:0:
336,274,83382,1,0,0:0:0:0:
336,274,83475,1,0,0:0:0:0:
336,274,83569,1,0,0:0:0:0:
336,274,83663,1,0,0:0:0:0:
336,274,83757,1,0,0:0:0:0:
336,274,83850,1,0,0:0:0:0:
336,274,83944,1,0,0:0:0:0:
336,274,84038,1,0,0:0:0:0:
336,274,84132,1,0,0:0:0:0:
336,274,84225,1,0,0:0:0:0:
336,274,84319,1,0,0:0:0:0:
336,274,84413,1,0,0:0:0:0:
336,274,84507,1,0,0:0:0:0:
336,274,84600,1,0,0:0:0:0:
336,274,84694,1,0,0:0:0:0:
336,274,84788,1,0,0:0:0:0:
336,274,84882,1,12,0:0:0:0:
272,197,85069,1,12,0:0:0:0:
272,197,85257,1,12,0:0:0:0:
397,243,85632,5,4,0:0:0:0:
295,204,86007,1,0,0:0:0:0:
229,224,86382,1,0,0:0:0:0:
229,224,86663,1,0,0:0:0:0:
237,224,86944,1,0,0:0:0:0:
237,224,87132,1,0,0:0:0:0:
292,186,87413,1,0,0:0:0:0:
288,191,87694,1,0,0:0:0:0:
288,191,87882,1,0,0:0:0:0:
94,181,88163,1,0,0:0:0:0:
350,204,88257,1,0,0:0:0:0:
292,197,88444,1,0,0:0:0:0:
292,195,88632,1,4,0:0:0:0:
194,195,88819,1,8,0:0:0:0:
306,246,88913,1,0,0:0:0:0:
306,246,89007,1,8,0:0:0:0:
290,220,89194,1,0,0:0:0:0:
298,172,89288,1,0,0:0:0:0:
290,218,89382,1,8,0:0:0:0:
290,213,89475,1,0,0:0:0:0:
290,217,89569,1,0,0:0:0:0:
290,217,89663,1,8,0:0:0:0:
290,213,89850,1,0,0:0:0:0:
290,213,89944,1,8,0:0:0:0:
290,213,90132,1,0,0:0:0:0:
272,137,90319,1,0,0:0:0:0:
290,218,90413,1,8,0:0:0:0:
241,135,90507,1,0,0:0:0:0:
241,135,90694,1,8,0:0:0:0:
241,135,90882,1,0,0:0:0:0:
241,135,90975,1,8,0:0:0:0:
212,37,91069,1,8,0:0:0:0:
203,92,91163,1,0,0:0:0:0:
210,81,91257,1,8,0:0:0:0:
187,64,91350,1,8,0:0:0:0:
201,65,91444,1,0,0:0:0:0:
193,63,91632,1,4,0:0:0:0:
252,145,91819,1,8,0:0:0:0:
252,143,91913,1,8,0:0:0:0:
236,127,92007,1,0,0:0:0:0:
235,127,92194,1,8,0:0:0:0:
237,125,92382,1,0,0:0:0:0:
272,137,92475,1,8,0:0:0:0:
272,137,92569,1,8,0:0:0:0:
270,137,92663,1,0,0:0:0:0:
269,137,92850,1,8,0:0:0:0:
268,137,92944,1,0,0:0:0:0:
292,149,93038,1,0,0:0:0:0:
237,224,93132,1,8,0:0:0:0:
190,160,93319,1,0,0:0:0:0:
292,186,93413,1,8,0:0:0:0:
292,186,93507,1,0,0:0:0:0:
288,191,93694,1,0,0:0:0:0:
288,191,93882,1,8,0:0:0:0:
293,195,93975,1,0,0:0:0:0:
350,204,94163,1,0,0:0:0:0:
291,199,94257,1,8,0:0:0:0:
291,197,94350,1,8,0:0:0:0:
292,197,94444,1,0,0:0:0:0:
224,64,94538,1,0,0:0:0:0:
292,195,94632,1,8,0:0:0:0:
306,246,94819,1,0,0:0:0:0:
194,195,94913,1,8,0:0:0:0:
306,246,95007,1,0,0:0:0:0:
290,220,95194,1,8,0:0:0:0:
352,192,95288,1,8,0:0:0:0:
290,213,95382,1,0,0:0:0:0:
290,218,95475,1,8,0:0:0:0:
290,217,95569,1,8,0:0:0:0:
290,217,95663,1,0,0:0:0:0:
290,213,95850,1,0,0:0:0:0:
290,213,95944,1,8,0:0:0:0:
290,213,96132,1,4,0:0:0:0:
259,176,96319,1,0,0:0:0:0:
259,176,96413,1,0,0:0:0:0:
302,140,96507,1,8,0:0:0:0:
302,140,96569,1,8,0:0:0:0:
302,140,96632,1,0,0:0:0:0:
302,140,96694,1,8,0:0:0:0:
247,170,96757,1,0,0:0:0:0:
247,169,96819,1,0,0:0:0:0:
219,118,96882,1,8,0:0:0:0:
335,178,96975,1,8,0:0:0:0:
233,104,97069,1,0,0:0:0:0:
341,182,97163,1,0,0:0:0:0:
233,104,97257,1,8,0:0:0:0:
237,102,97444,1,8,0:0:0:0:
397,243,97632,5,4,0:0:0:0:
295,204,97819,1,8,0:0:0:0:
295,204,98007,1,0,0:0:0:0:
281,187,98194,1,8,0:0:0:0:
229,224,98382,1,0,0:0:0:0:
229,224,98475,1,0,0:0:0:0:
237,224,98569,1,8,0:0:0:0:
229,224,98663,1,0,0:0:0:0:
310,197,98850,1,0,0:0:0:0:
237,224,98944,1,8,0:0:0:0:
215,162,99038,1,0,0:0:0:0:
237,224,99132,1,0,0:0:0:0:
215,162,99319,1,8,0:0:0:0:
292,186,99413,1,0,0:0:0:0:
292,186,99507,1,8,0:0:0:0:
288,191,99694,1,0,0:0:0:0:
288,191,99882,1,8,0:0:0:0:
293,195,99975,1,0,0:0:0:0:
291,199,100163,1,8,0:0:0:0:
350,204,100257,1,0,0:0:0:0:
291,197,100350,1,0,0:0:0:0:
292,197,100444,1,8,0:0:0:0:
272,186,100538,1,8,0:0:0:0:
292,195,100632,1,0,0:0:0:0:
194,195,100819,1,8,0:0:0:0:
306,246,100913,1,0,0:0:0:0:
306,246,101007,1,8,0:0:0:0:
290,220,101194,1,0,0:0:0:0:
290,218,101288,1,8,0:0:0:0:
298,172,101382,1,0,0:0:0:0:
290,213,101475,1,8,0:0:0:0:
290,217,101569,1,8,0:0:0:0:
290,217,101663,1,0,0:0:0:0:
290,213,101850,1,0,0:0:0:0:
290,213,101944,1,8,0:0:0:0:
290,213,102132,1,0,0:0:0:0:
290,218,102319,1,8,0:0:0:0:
272,137,102413,1,0,0:0:0:0:
241,135,102507,1,8,0:0:0:0:
241,135,102694,1,0,0:0:0:0:
241,135,102882,1,8,0:0:0:0:
241,135,102975,1,0,0:0:0:0:
212,37,103069,1,0,0:0:0:0:
203,92,103163,1,8,0:0:0:0:
210,81,103257,1,0,0:0:0:0:
187,64,103350,1,0,0:0:0:0:
201,65,103444,1,8,0:0:0:0:
193,63,103632,1,4,0:0:0:0:
252,145,103819,1,8,0:0:0:0:
252,143,103913,1,8,0:0:0:0:
236,127,104007,1,0,0:0:0:0:
235,127,104194,1,8,0:0:0:0:
237,125,104382,1,8,0:0:0:0:
270,137,104475,1,0,0:0:0:0:
272,137,104569,1,8,0:0:0:0:
272,137,104663,1,8,0:0:0:0:
269,137,104850,1,8,0:0:0:0:
292,149,104944,1,8,0:0:0:0:
268,137,105038,1,0,0:0:0:0:
237,224,105132,1,8,0:0:0:0:
190,160,105319,1,0,0:0:0:0:
292,186,105413,1,8,0:0:0:0:
292,186,105507,1,0,0:0:0:0:
288,191,105694,1,8,0:0:0:0:
288,191,105882,1,8,0:0:0:0:
293,195,105975,1,0,0:0:0:0:
350,204,106163,1,0,0:0:0:0:
291,199,106257,1,8,0:0:0:0:
291,197,106350,1,8,0:0:0:0:
292,197,106444,1,0,0:0:0:0:
224,64,106538,1,0,0:0:0:0:
292,195,106632,1,8,0:0:0:0:
306,246,106819,1,0,0:0:0:0:
194,195,106913,1,8,0:0:0:0:
306,246,107007,1,0,0:0:0:0:
290,220,107194,1,8,0:0:0:0:
290,213,107288,1,0,0:0:0:0:
352,192,107382,1,8,0:0:0:0:
290,218,107475,1,0,0:0:0:0:
290,217,107569,1,0,0:0:0:0:
290,217,107663,1,8,0:0:0:0:
290,213,107850,1,0,0:0:0:0:
290,213,107944,1,8,0:0:0:0:
290,213,108132,1,0,0:0:0:0:
332,269,108319,1,0,0:0:0:0:
315,223,108507,1,8,0:0:0:0:
315,223,108694,1,0,0:0:0:0:
315,223,108788,1,8,0:0:0:0:
315,223,108975,1,8,0:0:0:0:
315,223,109069,1,0,0:0:0:0:
315,223,109257,1,8,0:0:0:0:
315,223,109632,1,0,0:0:0:0:
192,84,109819,1,0,0:0:0:0:
277,209,110007,1,8,0:0:0:0:
279,237,110194,1,0,0:0:0:0:
279,237,110288,1,8,0:0:0:0:
279,237,110382,1,8,0:0:0:0:
279,237,110475,1,8,0:0:0:0:
279,237,110569,1,0,0:0:0:0:
281,233,110757,1,8,0:0:0:0:
328,251,110944,1,8,0:0:0:0:
286,198,111038,1,8,0:0:0:0:
328,251,111132,1,0,0:0:0:0:
299,235,111319,1,0,0:0:0:0:
309,184,111507,1,8,0:0:0:0:
315,225,111600,1,0,0:0:0:0:
277,197,111694,1,0,0:0:0:0:
277,197,111788,1,8,0:0:0:0:
252,186,111975,1,0,0:0:0:0:
219,80,112069,1,8,0:0:0:0:
243,74,112257,1,8,0:0:0:0:
243,74,112444,1,8,0:0:0:0:
243,74,112538,1,8,0:0:0:0:
252,126,112632,1,0,0:0:0:0:
129,166,112819,1,0,0:0:0:0:
163,175,113007,1,8,0:0:0:0:
163,175,113194,1,0,0:0:0:0:
163,175,113288,1,8,0:0:0:0:
163,175,113382,1,0,0:0:0:0:
163,175,113475,1,8,0:0:0:0:
163,175,113569,1,0,0:0:0:0:
163,175,113757,1,8,0:0:0:0:
163,175,113944,1,8,0:0:0:0:
163,175,114038,1,8,0:0:0:0:
163,175,114132,1,0,0:0:0:0:
163,175,114319,1,0,0:0:0:0:
163,175,114507,1,8,0:0:0:0:
163,175,114694,1,0,0:0:0:0:
163,175,114788,1,8,0:0:0:0:
268,180,114882,1,8,0:0:0:0:
267,173,114975,1,0,0:0:0:0:
268,180,115163,1,0,0:0:0:0:
268,180,115257,1,8,0:0:0:0:
226,113,115444,1,8,0:0:0:0:
298,195,115538,1,8,0:0:0:0:
315,223,115632,1,0,0:0:0:0:
192,84,115819,1,0,0:0:0:0:
277,209,116007,1,8,0:0:0:0:
279,237,116194,1,0,0:0:0:0:
279,237,116288,1,8,0:0:0:0:
279,237,116382,1,8,0:0:0:0:
279,237,116475,1,0,0:0:0:0:
279,237,116569,1,0,0:0:0:0:
281,233,116757,1,8,0:0:0:0:
328,251,116944,1,8,0:0:0:0:
286,198,117038,1,8,0:0:0:0:
328,251,117132,1,0,0:0:0:0:
299,235,117319,1,0,0:0:0:0:
309,184,117507,1,8,0:0:0:0:
277,197,117600,1,0,0:0:0:0:
315,225,117694,1,8,0:0:0:0:
277,197,117788,1,8,0:0:0:0:
252,186,117975,1,0,0:0:0:0:
219,80,118069,1,8,0:0:0:0:
243,74,118257,1,8,0:0:0:0:
243,74,118444,1,8,0:0:0:0:
243,74,118538,1,8,0:0:0:0:
252,126,118632,1,0,0:0:0:0:
129,166,118819,1,0,0:0:0:0:
163,175,119007,1,8,0:0:0:0:
163,175,119194,1,0,0:0:0:0:
163,175,119288,1,0,0:0:0:0:
163,175,119382,1,8,0:0:0:0:
163,175,119475,1,8,0:0:0:0:
163,175,119569,1,0,0:0:0:0:
163,175,119757,1,8,0:0:0:0:
163,175,119944,1,8,0:0:0:0:
163,175,120038,1,8,0:0:0:0:
163,175,120132,1,0,0:0:0:0:
163,175,120319,1,0,0:0:0:0:
163,175,120507,1,8,0:0:0:0:
163,175,120694,1,0,0:0:0:0:
349,113,120882,1,8,0:0:0:0:
268,180,120975,1,0,0:0:0:0:
268,180,121163,1,0,0:0:0:0:
268,180,121257,1,8,0:0:0:0:
226,113,121444,1,8,0:0:0:0:
298,195,121538,1,8,0:0:0:0:
326,222,121632,1,4,0:0:0:0:
