osu file format v14

[General]
AudioFilename: haardtekflip.ogg
AudioLeadIn: 0
PreviewTime: 21307
Countdown: 0
SampleSet: Soft
StackLeniency: 0.5
Mode: 0
LetterboxInBreaks: 0
WidescreenStoryboard: 0

[Editor]
DistanceSpacing: 0.2
BeatDivisor: 4
GridSize: 4
TimelineZoom: 1.4

[Metadata]
Title:nicotine [haardtek flip]
TitleUnicode:nicotine [haardtek flip]
Artist:blackwinterwells x nomu
ArtistUnicode:blackwinterwells x nomu
Creator:Fall
Version:absentminded
Source:
Tags:hyperpop pop english soundcloud edm experimental electronic vocal chops _tranquility azinlen mimari jasontime12345 -ascended- -_ascended_- rap
BeatmapID:3048516
BeatmapSetID:1486861

[Difficulty]
HPDrainRate:5
CircleSize:4
OverallDifficulty:8.2
ApproachRate:9.2
SliderMultiplier:3
SliderTickRate:1

[Events]
//Background and Video events
0,0,"rsz_766327.jpg",0,0
//Break Periods
2,64506,74070
//Storyboard Layer 0 (Background)
//Storyboard Layer 1 (Fail)
//Storyboard Layer 2 (Pass)
//Storyboard Layer 3 (Foreground)
//Storyboard Layer 4 (Overlay)
//Storyboard Sound Samples

[TimingPoints]
10641,666.666666666667,4,2,1,100,1,0
10641,-133.333333333333,4,2,1,100,0,0
21307,-66.6666666666667,4,2,1,100,0,0
22307,-100,4,2,1,100,0,0
23307,-66.6666666666667,4,2,1,100,0,0
23974,-50,4,2,1,100,0,0
24974,-100,4,2,1,100,0,0
25474,-58.8235294117647,4,2,1,100,0,0
26474,-100,4,2,1,100,0,0
26640,-50,4,2,1,100,0,0
26974,-100,4,2,1,100,0,0
27640,-66.6666666666667,4,2,1,100,0,0
29307,-50,4,2,1,100,0,0
29807,-66.6666666666667,4,2,1,100,0,0
29974,-50,4,2,1,100,0,0
30974,-100,4,2,1,100,0,0
31974,-50,4,2,1,100,0,0
32640,-100,4,2,1,100,0,0
33307,-66.6666666666667,4,2,1,100,0,0
34307,-66.6666666666667,4,2,2,100,0,0
34640,-50,4,2,1,100,0,0
34974,-100,4,2,1,100,0,0
36307,-66.6666666666667,4,2,1,100,0,0
36807,-100,4,2,1,100,0,0
36974,-100,4,2,2,100,0,0
37140,-100,4,2,1,100,0,0
37307,-50,4,2,1,100,0,0
37974,-100,4,2,1,100,0,0
38640,-66.6666666666667,4,2,1,100,0,0
39140,-66.6666666666667,4,2,2,100,0,0
39307,-50,4,2,1,100,0,0
39474,-50,4,2,2,100,0,0
39640,-50,4,2,1,100,0,0
40307,-100,4,2,1,100,0,0
42640,-83.3333333333333,4,2,1,100,0,0
43974,-66.6666666666667,4,2,1,100,0,0
45307,-50,4,2,1,100,0,0
45640,-83.3333333333333,4,2,1,100,0,0
46640,-66.6666666666667,4,2,1,100,0,0
47807,-100,4,2,1,100,0,0
47974,-50,4,2,1,100,0,0
48307,-66.6666666666667,4,2,1,100,0,0
48974,-100,4,2,1,100,0,0
49307,-80,4,2,1,100,0,0
50307,-100,4,2,1,100,0,0
50640,-50,4,2,1,100,0,0
50974,-83.3333333333333,4,2,1,100,0,0
53307,-58.8235294117647,4,2,1,100,0,1
54640,-44.4444444444445,4,2,1,100,0,1
56307,-66.6666666666667,4,2,1,100,0,1
58474,-100,4,2,1,100,0,1
58640,-45.4545454545455,4,2,1,100,0,1
62641,-133.333333333333,4,2,1,100,0,0
63640,-500,4,2,1,100,0,0
74640,-133.333333333333,4,2,1,100,0,0
85307,-80,4,2,1,100,0,0
85974,-50,4,2,1,100,0,0
87307,-66.6666666666667,4,2,1,100,0,0
88640,-50,4,2,1,100,0,0
90474,-100,4,2,1,100,0,0
90640,-80,4,2,1,100,0,0
91307,-50,4,2,1,100,0,0
92640,-66.6666666666667,4,2,1,100,0,0
93307,-50,4,2,1,100,0,0
95974,-55.5555555555556,4,2,1,100,0,1
98640,-40,4,2,1,100,0,1
99307,-55.5555555555556,4,2,1,100,0,1
99640,-66.6666666666667,4,2,1,100,0,1
100807,-50,4,2,1,100,0,1
100974,-50,4,2,2,100,0,1
101140,-66.6666666666667,4,2,1,100,0,1
101307,-50,4,2,1,100,0,1
106641,-66.6666666666667,4,2,1,100,0,0
107307,-83.3333333333333,4,2,1,100,0,0
111807,-133.333333333333,4,2,1,100,0,0
111974,-83.3333333333333,4,2,1,100,0,0
117307,829.30200414651,4,2,1,100,1,0

[Colours]
Combo1 : 0,255,64
Combo2 : 0,0,255
Combo3 : 0,193,0
Combo4 : 102,102,255

[HitObjects]
52,60,10641,6,0,L|48:119,1,56.2500021457673,2|0,2:2|0:0,0:0:0:0:
126,94,10974,2,0,L|121:152,1,56.2500021457673,0|2,0:0|2:2,0:0:0:0:
199,127,11307,2,0,L|194:185,1,56.2500021457673,0|2,0:0|2:2,0:0:0:0:
272,160,11641,2,0,L|267:218,1,56.2500021457673,2|2,2:2|2:2,0:0:0:0:
268,84,11974,5,2,2:2:0:0:
268,84,12141,1,0,0:0:0:0:
341,35,12307,5,2,2:2:0:0:
341,35,12474,1,0,0:0:0:0:
412,83,12641,5,2,2:2:0:0:
411,105,12807,1,0,0:0:0:0:
471,168,12974,6,0,L|473:190,6,14.0625005364418,2|0|0|0|0|0|0,2:2|0:0|0:0|0:0|0:0|0:0|0:0,0:0:0:0:
454,272,13307,6,0,P|414:260|390:267,1,56.2500021457673,2|0,2:2|0:0,0:0:0:0:
361,189,13641,2,0,P|324:208|312:230,1,56.2500021457673,0|2,0:0|2:2,0:0:0:0:
236,196,13974,2,0,P|224:236|231:260,1,56.2500021457673,0|2,0:0|2:2,0:0:0:0:
152,289,14307,2,0,P|171:325|193:337,1,56.2500021457673,2|2,2:2|2:2,0:0:0:0:
144,208,14641,5,2,2:2:0:0:
144,208,14807,1,0,0:0:0:0:
63,194,14974,5,2,2:2:0:0:
63,194,15140,1,0,0:0:0:0:
8,127,15307,5,2,2:2:0:0:
5,104,15474,1,0,0:0:0:0:
27,26,15641,5,2,2:2:0:0:
27,26,15724,1,2,0:0:0:0:
27,26,15807,1,0,0:0:0:0:
106,60,15974,6,0,L|172:64,1,56.2500021457673,2|0,2:2|0:0,0:0:0:0:
212,127,16307,2,0,L|278:131,1,56.2500021457673,0|2,0:0|2:2,0:0:0:0:
318,194,16641,2,0,L|384:198,1,56.2500021457673,0|2,0:0|2:2,0:0:0:0:
424,261,16974,2,0,L|490:265,1,56.2500021457673,2|2,2:2|2:2,0:0:0:0:
368,330,17307,5,2,2:2:0:0:
368,330,17474,1,0,0:0:0:0:
292,290,17640,5,2,2:2:0:0:
292,290,17807,1,0,0:0:0:0:
224,335,17974,5,2,2:2:0:0:
221,357,18140,1,0,0:0:0:0:
161,284,18307,6,0,L|158:260,6,14.0625005364418,2|0|0|0|2|0|0,2:2|0:0|0:0|0:0|2:2|0:0|0:0,0:0:0:0:
83,240,18640,6,0,P|103:210|138:193,1,56.2500021457673,2|0,2:2|0:0,0:0:0:0:
189,157,18974,2,0,P|224:149|261:162,1,56.2500021457673,0|2,0:0|2:2,0:0:0:0:
322,173,19307,2,0,P|352:193|368:228,1,56.2500021457673,0|2,0:0|2:2,0:0:0:0:
404,278,19640,2,0,P|411:313|398:350,1,56.2500021457673,2|2,2:2|2:2,0:0:0:0:
113,112,21307,6,0,P|185:112|288:173,1,168.750006437302,6|0,1:2|0:0,0:0:0:0:
272,166,21641,2,0,P|198:126|114:123,1,168.750006437302,6|0,1:2|0:0,0:0:0:0:
59,184,21974,5,10,2:1:0:0:
21,69,22140,1,0,0:0:0:0:
136,199,22307,2,0,P|141:227|135:290,1,75,2|2,1:2|2:2,0:0:0:0:
41,343,22640,5,2,2:2:0:0:
41,343,22807,1,8,2:1:0:0:
138,273,22974,5,2,2:2:0:0:
216,309,23140,1,2,2:2:0:0:
385,211,23307,2,0,P|330:214|272:257,1,112.500004291535,10|0,1:1|0:0,0:0:0:0:
434,150,23640,6,0,P|421:132|414:103,2,28.1250010728836,2|0|0,2:2|0:0|0:0,0:0:0:0:
357,84,23807,2,0,P|360:62|376:36,2,28.1250010728836,2|0|0,2:2|0:0|0:0,0:0:0:0:
450,291,23974,6,0,B|464:329|420:365|350:339|327:272|408:179,1,225,6|0,1:2|0:0,0:0:0:0:
434,150,24307,5,2,2:2:0:0:
491,43,24474,1,2,2:2:0:0:
357,84,24640,5,10,2:1:0:0:
302,21,24807,1,0,0:0:0:0:
231,184,24974,6,0,L|239:95,1,75,2|10,1:2|2:2,0:0:0:0:
138,248,25307,2,0,L|129:159,1,75,2|8,2:2|2:2,0:0:0:0:
30,47,25640,6,0,P|92:49|156:89,2,127.50000243187,2|2|10,1:2|2:2|2:1,0:0:0:0:
54,300,26140,5,2,2:3:0:0:
147,80,26307,1,2,2:3:0:0:
30,47,26474,2,0,P|24:73|36:102,1,37.5,2|0,2:3|0:0,0:0:0:0:
231,184,26641,6,0,B|316:176|316:176|343:186|343:186|366:172|366:172|454:164,1,225,6|0,1:2|0:0,0:0:0:0:
498,101,26974,2,0,L|491:26,2,75,2|2|10,2:2|2:2|2:1,0:0:0:0:
506,263,27474,5,0,0:0:0:0:
449,164,27640,2,0,P|405:129|325:109,1,112.500004291535,2|2,1:2|2:2,0:0:0:0:
288,17,27974,5,2,2:2:0:0:
288,17,28140,1,8,2:1:0:0:
352,111,28307,5,2,2:2:0:0:
311,209,28474,1,2,2:2:0:0:
393,286,28640,5,10,1:1:0:0:
434,384,28807,1,0,1:1:0:0:
506,263,28974,6,0,P|503:235|492:214,2,28.1250010728836,2|0|0,2:2|0:0|0:0,0:0:0:0:
430,212,29140,2,0,P|409:194|386:187,2,28.1250010728836,2|0|0,1:2|0:0|0:0,0:0:0:0:
189,221,29307,6,0,B|122:280|149:337|219:363|254:308|283:216,1,225,6|0,1:2|0:0,0:0:0:0:
311,209,29640,5,2,2:2:0:0:
148,158,29807,2,0,P|128:174|95:217,1,56.2500021457673,2|0,1:2|0:0,0:0:0:0:
228,122,29974,2,0,P|189:91|127:9,2,150,10|0|2,2:1|0:0|1:2,0:0:0:0:
228,122,30474,1,10,2:2:0:0:
359,67,30640,5,2,2:2:0:0:
359,67,30807,1,8,2:2:0:0:
457,165,30974,6,0,P|439:218|446:259,2,75,2|2|10,1:2|2:2|2:1,0:0:0:0:
451,310,31474,1,8,2:2:0:0:
365,94,31640,5,2,2:2:0:0:
394,88,31724,1,0,1:1:0:0:
422,98,31807,1,0,1:1:0:0:
299,314,31974,6,0,B|223:345|178:267|178:267|255:222,1,225,6|0,1:2|0:0,0:0:0:0:
318,191,32307,5,2,2:2:0:0:
253,45,32474,1,2,2:2:0:0:
213,162,32640,2,0,L|142:200,2,75,10|0|2,2:1|0:0|1:2,0:0:0:0:
248,227,33140,1,2,2:2:0:0:
27,179,33307,6,0,P|88:180|133:215,2,112.500004291535,2|8|2,2:2|2:1|2:2,0:0:0:0:
96,331,33807,1,2,2:2:0:0:
149,220,33974,5,10,2:1:0:0:
149,220,34140,1,0,1:1:0:0:
90,82,34307,6,0,P|73:94|65:107,2,28.1250010728836,2|0|0,1:2|0:0|1:1,0:0:0:0:
121,6,34474,2,0,P|100:2|85:6,2,28.1250010728836,2|0|0,1:2|0:0|0:0,0:0:0:0:
236,104,34641,6,0,P|271:113|398:257,1,225,6|0,1:2|0:0,0:0:0:0:
361,336,34974,5,2,2:2:0:0:
304,246,35140,1,2,1:2:0:0:
414,111,35307,2,0,P|446:153|462:191,2,75,10|0|2,2:1|0:0|1:2,0:0:0:0:
414,111,35807,1,10,2:2:0:0:
395,245,35974,5,2,2:2:0:0:
395,245,36140,1,8,2:2:0:0:
263,108,36307,2,0,B|232:71|247:32|247:32|274:38|273:58,2,112.500004291535,2|2|10,1:2|2:2|2:1,0:0:0:0:
244,365,36807,5,2,2:3:0:0:
335,170,36974,1,2,1:3:0:0:
263,108,37140,2,0,P|236:110|220:124,1,37.5,2|0,2:3|0:0,0:0:0:0:
93,251,37307,6,0,B|120:293|180:287|230:217|126:131|66:180,1,225,6|0,1:2|0:0,0:0:0:0:
28,208,37640,5,2,2:2:0:0:
118,350,37807,1,2,1:2:0:0:
227,115,37974,2,0,L|232:39,2,75,10|0|2,2:1|0:0|1:2,0:0:0:0:
92,168,38474,1,2,2:2:0:0:
328,150,38640,6,0,P|398:120|453:114,2,112.500004291535,2|8|2,2:2|2:2|2:2,0:0:0:0:
303,326,39140,1,2,1:2:0:0:
227,115,39307,1,10,2:1:0:0:
356,269,39474,1,0,1:1:0:0:
433,114,39640,6,0,P|437:100|439:114,2,37.5,2|0|0,1:2|1:1|1:1,0:0:0:0:
413,197,39807,2,0,P|409:211|407:197,2,37.5,2|0|0,1:2|1:1|1:1,0:0:0:0:
465,271,39974,6,0,B|414:305|411:364|411:364|411:305|344:261,1,225,6|0,1:2|0:0,0:0:0:0:
322,201,40307,2,0,P|297:198|250:224,2,75,2|2|10,2:2|1:2|2:1,0:0:0:0:
214,283,40807,1,0,0:0:0:0:
413,200,40974,1,2,1:2:0:0:
310,29,41140,1,10,2:2:0:0:
280,98,41307,5,2,2:2:0:0:
280,98,41640,1,2,2:2:0:0:
280,98,41974,5,2,2:2:0:0:
310,29,42140,1,2,2:2:0:0:
209,73,42307,6,0,P|201:95|208:114,1,37.5
139,143,42474,2,0,P|149:164|167:172,1,37.5
335,151,42640,6,0,L|326:243,1,89.9999972534181,4|0,1:2|0:0,0:0:0:0:
155,289,42974,6,0,P|212:269|279:305,1,134.999995880127,2|0,2:2|0:0,0:0:0:0:
351,312,43307,2,0,P|408:343|471:323,1,134.999995880127,10|0,2:1|0:0,0:0:0:0:
468,239,43640,6,0,L|463:190,1,44.999998626709,2|0,2:2|0:0,0:0:0:0:
448,195,43807,2,0,L|451:239,1,44.999998626709
335,151,43974,6,0,B|357:102|357:102|352:157|352:157|356:168|356:168|351:227,1,168.750006437302,2|0,2:2|0:0,0:0:0:0:
253,95,44307,2,0,B|230:46|230:46|235:101|235:101|231:112|231:112|236:171,1,168.750006437302,2|0,1:2|0:0,0:0:0:0:
120,209,44641,2,0,B|142:160|142:160|137:215|137:215|141:226|141:226|136:285,1,168.750006437302,10|0,1:1|0:0,0:0:0:0:
53,338,44974,6,0,P|63:357|64:336,1,56.2500021457673,2|0,2:2|0:0,0:0:0:0:
16,331,45140,2,0,P|26:312|27:333,1,56.2500021457673
137,274,45307,6,0,B|220:281|220:281|275:314|275:314|368:322,1,225,4|0,1:2|0:0,0:0:0:0:
472,299,45640,6,0,P|416:284|349:324,1,134.999995880127,2|0,2:2|0:0,0:0:0:0:
331,236,45974,2,0,P|391:209|467:214,1,134.999995880127,10|0,2:1|0:0,0:0:0:0:
481,136,46307,6,0,L|484:82,1,44.999998626709,2|0,1:2|0:0,0:0:0:0:
472,82,46474,2,0,L|468:126,1,44.999998626709,8|0,2:2|0:0,0:0:0:0:
299,33,46640,6,0,B|346:59|346:59|404:44,1,112.500004291535,2|8,2:2|2:2,0:0:0:0:
266,143,46974,2,0,B|218:169|218:169|160:154,1,112.500004291535,2|0,1:2|0:0,0:0:0:0:
50,34,47307,5,10,2:1:0:0:
173,251,47474,6,0,P|150:245|168:238,1,56.2500021457673,2|0,2:3|0:0,0:0:0:0:
266,143,47640,2,0,P|277:162|260:154,1,56.2500021457673,2|0,2:3|0:0,0:0:0:0:
162,154,47807,2,0,P|166:138|171:151,1,37.5,2|0,2:3|0:0,0:0:0:0:
135,352,47974,6,0,B|166:358|187:329|187:329|145:340|96:330|102:289|57:278|1:293,1,225,4|0,1:2|0:0,0:0:0:0:
9,202,48307,6,0,P|64:200|168:243,1,168.750006437302,2|0,2:2|0:0,0:0:0:0:
250,256,48641,2,0,P|324:293|408:296,1,168.750006437302,10|0,2:1|0:0,0:0:0:0:
473,244,48974,6,0,L|477:192,1,37.5,2|0,1:2|0:0,0:0:0:0:
463,193,49140,2,0,L|459:230,1,37.5
436,120,49307,6,0,B|391:119|372:152|372:152|335:155|296:93,1,140.625,2|0,2:2|0:0,0:0:0:0:
236,40,49640,2,0,B|226:21|240:-10|240:-10|283:19|247:95,1,140.625,2|0,2:2|0:0,0:0:0:0:
93,197,49974,2,0,B|122:209|165:191|128:139|172:126|204:132,1,140.625,10|0,1:1|0:0,0:0:0:0:
256,197,50307,6,0,B|266:214|266:214|272:178,2,37.5,2|0|0,1:2|1:1|1:1,0:0:0:0:
358,280,50640,6,0,P|241:351|157:314,1,225,4|0,1:2|0:0,0:0:0:0:
256,197,50974,6,0,P|258:230|206:269,1,89.9999972534181,2|0,2:2|1:1,0:0:0:0:
93,197,51307,2,0,P|91:164|143:125,1,89.9999972534181,10|0,2:1|0:0,0:0:0:0:
257,70,51640,5,2,1:2:0:0:
257,70,51807,1,8,2:2:0:0:
413,126,51974,6,0,L|316:133,1,89.9999972534181,2|8,2:2|2:2,0:0:0:0:
46,11,52307,2,0,L|196:22,1,134.999995880127,2|0,1:2|0:0,0:0:0:0:
257,70,52640,5,10,2:1:0:0:
430,242,52807,1,8,2:2:0:0:
25,366,53140,1,0,1:1:0:0:
41,274,53307,6,0,P|99:302|119:371,1,127.50000243187,4|0,1:2|0:0,0:0:0:0:
323,132,53640,2,0,P|266:158|243:216,1,127.50000243187,4|0,1:2|0:0,0:0:0:0:
491,358,53974,5,10,2:1:0:0:
413,151,54140,1,0,0:0:0:0:
477,67,54307,2,0,L|480:26,4,31.8750006079674,2|0|0|0|0,1:2|1:1|1:1|0:0|0:0,0:0:0:0:
330,272,54640,6,0,B|355:300|329:331|329:331|257:275|353:133|478:256|404:344,2,337.500012874604,2|2|10,2:2|2:2|2:1,0:0:0:0:
243,217,55474,1,0,0:0:0:0:
79,363,55640,6,0,P|96:367|120:357,2,42.1875016093255,2|0|2,2:2|0:0|0:0,0:0:0:0:
133,272,55807,2,0,P|147:262|157:238,2,42.1875016093255,0|0|2,0:0|0:0|0:0,0:0:0:0:
124,97,55974,6,0,B|126:52|63:39|63:39|10:146|111:187|164:166,1,253.125009655953,4|0,1:2|0:0,0:0:0:0:
194,145,56307,5,2,2:2:0:0:
248,332,56474,1,0,0:0:0:0:
371,144,56640,1,10,2:1:0:0:
243,217,56807,1,0,0:0:0:0:
438,58,56974,6,0,P|464:80|485:133,1,56.2500021457673,2|0,1:2|0:0,0:0:0:0:
458,114,57140,2,0,P|437:94|423:70,1,56.2500021457673,8|0,2:2|0:0,0:0:0:0:
376,226,57307,6,0,P|347:162|395:143,1,112.500004291535,2|8,2:2|2:2,0:0:0:0:
456,253,57640,2,0,P|384:307|321:282,1,112.500004291535,2|0,1:2|0:0,0:0:0:0:
194,145,57974,1,10,2:1:0:0:
30,328,58140,6,0,L|24:391,1,56.2500021457673,2|0,2:3|0:0,0:0:0:0:
97,197,58307,2,0,L|102:260,1,56.2500021457673,2|0,2:3|0:0,0:0:0:0:
50,94,58474,2,0,L|44:157,1,37.5,2|0,2:3|0:0,0:0:0:0:
194,145,58641,6,0,B|211:109|234:110|234:110|247:162|193:211|227:246|227:246|256:238|267:202,1,247.500007553101,4|0,1:2|0:0,0:0:0:0:
324,149,58974,5,2,2:2:0:0:
182,6,59140,1,0,0:0:0:0:
97,197,59307,1,10,2:1:0:0:
194,145,59474,1,0,0:0:0:0:
345,233,59640,1,2,1:2:0:0:
442,181,59807,1,0,0:0:0:0:
312,97,59974,6,0,B|330:118|323:150|323:150|264:121|286:28|286:28|385:32|402:106,2,330.000010070801,2|2|10,2:2|2:2|1:1,0:0:0:0:
182,6,60807,1,0,1:1:0:0:
97,197,60974,6,0,L|92:244,2,41.2500012588501,2|0|0,2:2|0:0|0:0,0:0:0:0:
194,145,61140,2,0,L|189:97,2,41.2500012588501,0|0|0,1:1|0:0|0:0,0:0:0:0:
158,297,61307,6,0,B|133:325|86:329|86:329|166:321|166:321|182:327|182:327|268:320,1,247.500007553101,6|0,1:2|0:0,0:0:0:0:
340,311,61640,5,2,2:2:0:0:
312,97,61807,1,0,1:1:0:0:
158,297,61974,1,10,2:1:0:0:
257,236,62140,1,0,0:0:0:0:
419,157,62307,5,2,1:2:0:0:
419,157,62474,1,8,2:2:0:0:
419,157,62641,6,0,P|428:123|435:38,2,112.500004291535,2|2|2,2:2|0:0|0:0,0:0:0:0:
473,211,63640,6,0,P|477:223|479:231,2,15,2|2|0,0:0|0:0|0:0,0:0:0:0:
79,77,74640,6,0,P|114:65|156:64,1,56.2500021457673,2|0,2:2|0:0,0:0:0:0:
97,194,74974,2,0,P|113:160|142:130,1,56.2500021457673,0|2,0:0|2:2,0:0:0:0:
192,264,75307,2,0,P|179:229|178:187,1,56.2500021457673,0|2,0:0|2:2,0:0:0:0:
308,246,75640,2,0,P|274:229|244:200,1,56.2500021457673,2|2,2:2|2:2,0:0:0:0:
358,176,75974,5,2,2:2:0:0:
380,175,76140,1,0,0:0:0:0:
412,94,76307,5,2,2:2:0:0:
426,77,76473,1,0,0:0:0:0:
381,2,76640,5,2,2:2:0:0:
381,2,76807,1,0,0:0:0:0:
309,48,76974,6,0,L|292:46,6,14.0625005364418,2|0|0|0|0|0|0,2:2|0:0|0:0|0:0|0:0|0:0|0:0,0:0:0:0:
190,103,77307,6,0,B|217:114|217:114|268:112,1,56.2500021457673,2|0,2:2|0:0,0:0:0:0:
135,205,77640,2,0,B|162:194|162:194|213:196,1,56.2500021457673,0|2,0:0|2:2,0:0:0:0:
56,121,77974,2,0,B|83:132|83:132|134:130,1,56.2500021457673,0|2,0:0|2:2,0:0:0:0:
1,223,78307,2,0,B|28:212|28:212|79:214,1,56.2500021457673,2|2,2:2|2:2,0:0:0:0:
132,317,78640,5,2,2:2:0:0:
110,310,78807,1,0,0:0:0:0:
240,272,78974,5,2,2:2:0:0:
218,279,79141,1,0,0:0:0:0:
313,326,79307,5,2,2:2:0:0:
313,326,79474,1,0,0:0:0:0:
389,284,79640,6,0,L|392:248,2,28.1250010728836,2|0|0,2:2|0:0|0:0,0:0:0:0:
460,204,79974,6,0,L|455:145,1,56.2500021457673,2|0,2:2|0:0,0:0:0:0:
368,150,80307,2,0,L|372:91,1,56.2500021457673,0|2,0:0|2:2,0:0:0:0:
296,233,80640,2,0,L|291:174,1,56.2500021457673,0|2,0:0|2:2,0:0:0:0:
221,144,80974,2,0,L|225:85,1,56.2500021457673,2|2,2:2|2:2,0:0:0:0:
156,28,81307,5,2,2:2:0:0:
140,44,81474,1,0,0:0:0:0:
57,88,81640,5,2,2:2:0:0:
57,110,81807,1,0,0:0:0:0:
125,187,81974,5,2,2:2:0:0:
125,187,82140,1,0,0:0:0:0:
73,271,82307,6,0,L|71:288,6,14.0625005364418,2|0|0|0|2|0|0,2:2|0:0|0:0|0:0|2:2|0:0|0:0,0:0:0:0:
142,334,82640,5,2,2:2:0:0:
149,311,82807,1,0,0:0:0:0:
235,362,82974,5,0,0:0:0:0:
226,313,83140,1,2,2:2:0:0:
316,371,83307,5,0,0:0:0:0:
332,298,83474,1,2,2:2:0:0:
425,376,83640,5,2,2:2:0:0:
414,278,83807,1,2,2:2:0:0:
472,229,85307,6,0,P|445:164|373:223,1,187.5,6|2,1:2|2:2,0:0:0:0:
335,367,85807,1,0,0:0:0:0:
320,129,85974,6,0,P|216:86|201:234,1,300,10|0,2:1|1:1,0:0:0:0:
372,217,86474,1,0,0:0:0:0:
320,129,86640,5,2,2:2:0:0:
447,37,86807,1,8,2:1:0:0:
372,217,86974,1,2,2:2:0:0:
232,82,87140,1,0,0:0:0:0:
107,259,87307,6,0,P|150:216|210:254,1,112.500004291535,10|0,1:1|0:0,0:0:0:0:
171,336,87640,6,0,P|168:315|183:333,1,56.2500021457673,2|0,2:2|0:0,0:0:0:0:
156,374,87807,2,0,P|139:361|163:363,1,56.2500021457673
499,351,87974,6,0,B|441:346|407:302|407:302|347:283|294:370,1,225.000008583069,6|2,1:2|2:2,0:0:0:0:
372,217,88474,1,0,0:0:0:0:
54,154,88640,6,0,B|125:147|167:93|167:93|259:73|307:178,1,300,10|0,2:1|1:1,0:0:0:0:
301,167,89140,1,8,2:2:0:0:
406,90,89307,5,2,2:2:0:0:
406,90,89474,1,8,2:2:0:0:
323,51,89640,5,2,1:2:0:0:
372,217,89807,1,0,0:0:0:0:
441,9,89974,1,10,2:1:0:0:
301,167,90140,6,0,L|227:173,1,75,2|0,2:3|0:0,0:0:0:0:
106,288,90307,2,0,L|180:282,1,75,2|0,2:3|0:0,0:0:0:0:
285,144,90474,6,0,L|221:149,1,37.5,2|0,2:3|0:0,0:0:0:0:
68,38,90640,6,0,P|12:91|86:113,1,187.5,6|2,1:2|2:2,0:0:0:0:
174,17,91140,1,0,0:0:0:0:
399,117,91307,6,0,P|433:195|301:162,1,300,10|0,2:1|1:1,0:0:0:0:
451,30,91807,1,0,0:0:0:0:
512,185,91974,5,2,2:2:0:0:
300,166,92140,1,8,2:1:0:0:
451,30,92307,1,2,2:2:0:0:
399,117,92474,1,0,0:0:0:0:
170,24,92640,6,0,P|227:47|244:93,1,112.500004291535,10|0,1:1|1:1,0:0:0:0:
105,143,92974,6,0,P|142:141|155:122,1,56.2500021457673,2|0,2:2|0:0,0:0:0:0:
148,114,93140,2,0,P|120:111|100:129,1,56.2500021457673,0|0,1:1|0:0,0:0:0:0:
303,254,93307,6,0,B|153:270|153:270|136:303|89:312,1,225,6|0,1:2|0:0,0:0:0:0:
80,231,93640,5,2,2:2:0:0:
225,362,93807,1,0,1:0:0:0:
298,125,93974,1,10,2:1:0:0:
214,263,94140,1,0,0:0:0:0:
20,288,94307,5,0,1:1:0:0:
20,288,94474,1,8,2:2:0:0:
20,288,94640,1,2,2:2:0:0:
437,63,95974,6,0,P|394:85|361:253,1,202.499993820191,6|0,1:2|0:0,0:0:0:0:
330,212,96307,2,0,P|341:113|418:52,1,202.499993820191,6|0,1:2|0:0,0:0:0:0:
494,122,96640,5,10,2:1:0:0:
422,302,96807,1,0,0:0:0:0:
262,73,96974,2,0,L|258:32,2,33.7499989700318,2|0|0,1:2|1:1|1:1,0:0:0:0:
330,212,97140,1,2,1:2:0:0:
171,112,97307,6,0,P|92:78|20:85,2,134.999995880127,2|8|2,2:2|2:1|2:2,0:0:0:0:
262,73,97807,1,2,2:2:0:0:
134,204,97974,5,10,1:1:0:0:
190,305,98140,1,0,0:0:0:0:
330,212,98307,6,0,P|332:198|333:212,6,33.7499989700318,2|0|0|2|2|0|0,1:2|0:0|1:1|0:0|1:2|0:0|0:0,0:0:0:0:
318,265,98641,6,0,P|283:178|378:245,1,281.25,6|0,1:2|0:0,0:0:0:0:
386,310,98974,5,2,2:2:0:0:
480,183,99140,1,2,1:2:0:0:
343,72,99307,2,0,P|261:87|213:144,1,134.999995880127,10|0,2:1|0:0,0:0:0:0:
190,305,99640,5,2,1:2:0:0:
190,305,99807,1,10,2:2:0:0:
138,88,99974,5,2,2:2:0:0:
138,88,100141,1,8,2:2:0:0:
103,341,100307,6,0,P|100:269|139:221,2,112.500004291535,2|2|10,1:2|2:2|2:1,0:0:0:0:
192,208,100807,6,0,P|156:170|121:162,1,75,2|0,2:3|0:0,0:0:0:0:
138,88,100974,2,0,P|85:86|55:105,1,75,2|0,1:3|0:0,0:0:0:0:
35,33,101140,2,0,P|4:62|-2:90,1,56.2500021457673,2|0,2:3|0:0,0:0:0:0:
218,340,101307,6,0,B|218:306|182:282|182:282|254:286|254:286|290:336|379:298,1,225,6|0,1:2|0:0,0:0:0:0:
319,234,101640,5,2,2:2:0:0:
459,362,101807,1,2,1:2:0:0:
312,153,101974,1,10,2:1:0:0:
326,313,102140,1,0,0:0:0:0:
309,130,102307,6,0,L|305:89,2,37.5,2|0|0,1:2|1:1|1:1,0:0:0:0:
396,267,102474,1,2,1:2:0:0:
387,65,102640,6,0,P|336:17|247:29,2,150,2|8|2,2:2|2:1|2:2,0:0:0:0:
247,198,103140,1,2,1:2:0:0:
144,27,103307,1,10,2:1:0:0:
305,92,103474,1,0,1:1:0:0:
86,133,103640,6,0,B|78:152|78:152|84:179,2,37.5,2|0|0,1:2|1:1|1:1,0:0:0:0:
148,241,103807,2,0,B|156:260|156:260|150:287,2,37.5,2|0|0,1:2|1:1|1:1,0:0:0:0:
30,310,103974,6,0,B|180:326|180:326|197:359|244:368,1,225,6|0,1:2|0:0,0:0:0:0:
254,288,104307,5,2,2:2:0:0:
292,132,104474,1,2,1:2:0:0:
398,316,104640,6,0,P|399:357|318:335,1,150,10|0,2:1|0:0,0:0:0:0:
292,132,104974,6,0,P|328:93|429:75,1,150,2|10,1:2|2:2,0:0:0:0:
182,79,105307,2,0,P|134:37|51:7,1,150,2|8,2:2|2:2,0:0:0:0:
21,220,105640,5,2,1:2:0:0:
119,187,105807,1,2,2:2:0:0:
292,132,105974,1,10,2:1:0:0:
91,271,106140,1,8,2:2:0:0:
0,21,106307,5,2,2:2:0:0:
25,5,106390,1,0,1:1:0:0:
55,7,106474,1,0,1:1:0:0:
279,287,106641,6,0,B|316:263|309:221|309:221|290:125,1,168.750006437302,6|0,1:2|0:0,0:0:0:0:
229,73,106974,2,0,B|192:97|199:139|199:139|216:228,1,168.750006437302,6|0,1:2|0:0,0:0:0:0:
225,359,107307,6,0,L|316:366,2,89.9999972534181,10|0|0,2:1|0:0|0:0,0:0:0:0:
217,229,107807,1,0,0:0:0:0:
91,271,107974,5,2,2:2:0:0:
91,271,108140,2,0,P|80:223|85:177,2,89.9999972534181,8|2|0,2:1|1:2|0:0,0:0:0:0:
0,114,108640,5,10,1:1:0:0:
0,114,108807,2,0,P|11:66|6:20,2,89.9999972534181
131,30,109307,5,6,1:2:0:0:
198,68,109474,1,0,0:0:0:0:
295,59,109640,5,2,2:2:0:0:
362,97,109807,1,0,0:0:0:0:
297,207,109974,6,0,P|261:157|255:121,1,89.9999972534181,10|0,2:1|0:0,0:0:0:0:
403,20,110307,2,0,P|367:70|361:106,1,89.9999972534181,0|8,1:1|2:2,0:0:0:0:
442,192,110640,5,2,2:2:0:0:
361,96,110807,1,8,2:2:0:0:
378,303,110974,1,2,1:2:0:0:
297,207,111140,1,0,0:0:0:0:
378,322,111307,1,10,2:1:0:0:
442,192,111474,6,0,L|489:187,1,44.999998626709,2|0,2:3|0:0,0:0:0:0:
361,96,111640,2,0,L|314:100,1,44.999998626709,2|0,2:3|0:0,0:0:0:0:
403,20,111807,2,0,L|430:22,1,28.1250010728836,2|0,2:3|0:0,0:0:0:0:
181,127,111974,6,0,P|201:173|207:215,2,89.9999972534181,6|0|2,1:2|0:0|2:2,0:0:0:0:
204,34,112474,1,0,0:0:0:0:
82,136,112640,5,10,2:1:0:0:
181,127,112807,1,0,0:0:0:0:
204,34,112973,1,0,1:1:0:0:
105,43,113140,1,0,0:0:0:0:
0,165,113307,6,0,B|25:207|25:207|83:231,1,89.9999972534181,2|8,2:2|2:1,0:0:0:0:
282,239,113640,2,0,B|257:281|257:281|199:305,1,89.9999972534181,2|0,2:2|0:0,0:0:0:0:
67,378,113974,5,10,1:1:0:0:
62,222,114140,1,0,0:0:0:0:
219,296,114307,5,0,1:1:0:0:
210,294,114390,1,0,1:1:0:0:
201,292,114474,1,0,1:1:0:0:
265,156,114640,6,0,L|368:147,1,89.9999972534181,6|0,1:2|0:0,0:0:0:0:
486,302,114974,2,0,L|396:295,1,89.9999972534181,2|0,2:2|1:1,0:0:0:0:
191,107,115308,5,10,2:1:0:0:
262,51,115474,1,0,0:0:0:0:
425,93,115640,5,0,1:1:0:0:
354,149,115806,1,8,2:2:0:0:
256,192,115974,12,0,117307,0:0:0:0:
