osu file format v14

[General]
AudioFilename: audio.mp3
AudioLeadIn: 0
PreviewTime: 49424
Countdown: 0
SampleSet: Normal
StackLeniency: 0.7
Mode: 1
LetterboxInBreaks: 0
WidescreenStoryboard: 1

[Editor]
Bookmarks: 12757
DistanceSpacing: 1.5
BeatDivisor: 4
GridSize: 4
TimelineZoom: 1

[Metadata]
Title:slip loop
TitleUnicode:slip loop
Artist:blackwinterwells
ArtistUnicode:blackwinterwells
Creator:Yasuho
Version:futsuu
Source:
Tags:oakscreen ambient hyperpop hyper pop english
BeatmapID:3366476
BeatmapSetID:1649331

[Difficulty]
HPDrainRate:9
CircleSize:4
OverallDifficulty:3
ApproachRate:8.6
SliderMultiplier:1.4
SliderTickRate:1

[Events]
//Background and Video events
0,0,"pexels-eberhard-grossgasteiger-2310646.jpg",0,0
//Break Periods
//Storyboard Layer 0 (Background)
//Storyboard Layer 1 (Fail)
//Storyboard Layer 2 (Pass)
//Storyboard Layer 3 (Foreground)
//Storyboard Layer 4 (Overlay)
//Storyboard Sound Samples

[TimingPoints]
2211,555.555555555556,4,1,0,55,1,0
2211,-100,4,1,0,55,0,0
4433,-100,4,1,0,60,0,0
4710,-100,4,1,0,40,0,0
4988,-100,4,1,0,20,0,0
5544,-100,4,1,0,20,0,0
5822,-100,4,1,0,30,0,0
6099,-100,4,1,0,40,0,0
6655,-100,4,1,0,20,0,0
7210,-100,4,1,0,25,0,0
7766,-100,4,1,0,35,0,0
8322,-100,4,1,0,45,0,0
8877,-100,4,1,0,60,0,0
26576,-100,4,1,0,50,0,0
45058,-100,4,1,0,60,0,0
79988,-111.111111111111,4,1,0,40,0,0
97697,-100,4,1,0,25,0,0

[HitObjects]
256,192,4433,12,0,5405,0:0:0:0:
256,192,5544,12,0,6516,0:0:0:0:
256,192,6655,12,0,8599,0:0:0:0:
188,160,8877,5,0,0:0:0:0:
184,176,9433,1,8,0:0:0:0:
280,184,10266,1,0,0:0:0:0:
280,184,10544,1,8,0:0:0:0:
280,184,11099,1,0,0:0:0:0:
224,168,11377,1,8,0:0:0:0:
224,168,11655,1,8,0:0:0:0:
224,168,12211,1,0,0:0:0:0:
232,164,12488,1,0,0:0:0:0:
232,164,12766,1,8,0:0:0:0:
240,248,13322,1,0,0:0:0:0:
240,248,13877,1,8,0:0:0:0:
240,248,14988,1,0,0:0:0:0:
240,248,15266,1,8,0:0:0:0:
240,248,15544,1,8,0:0:0:0:
240,248,16099,1,0,0:0:0:0:
240,248,16377,1,8,0:0:0:0:
240,248,16933,1,0,0:0:0:0:
240,248,17211,1,8,0:0:0:0:
240,248,17766,1,0,0:0:0:0:
240,248,18322,1,8,0:0:0:0:
224,188,19155,1,0,0:0:0:0:
256,244,19433,1,8,0:0:0:0:
256,244,19988,1,0,0:0:0:0:
264,244,20266,1,0,0:0:0:0:
264,240,20544,1,8,0:0:0:0:
264,244,21099,1,8,0:0:0:0:
272,240,21655,1,8,0:0:0:0:
200,200,22766,1,8,0:0:0:0:
200,200,23322,1,0,0:0:0:0:
204,196,23877,1,8,0:0:0:0:
208,192,24433,1,0,0:0:0:0:
212,188,24711,1,0,0:0:0:0:
144,168,24988,1,8,0:0:0:0:
212,180,25266,1,0,0:0:0:0:
212,180,25544,1,8,0:0:0:0:
212,180,26099,1,8,0:0:0:0:
216,180,26655,1,0,0:0:0:0:
216,184,26933,1,0,0:0:0:0:
216,180,27211,1,8,0:0:0:0:
256,148,27766,1,0,0:0:0:0:
276,160,28322,1,8,0:0:0:0:
268,172,28877,1,0,0:0:0:0:
292,144,29618,1,0,0:0:0:0:
248,160,29988,1,8,0:0:0:0:
312,136,30544,1,8,0:0:0:0:
312,136,31099,1,0,0:0:0:0:
380,96,31840,1,0,0:0:0:0:
344,224,32211,1,8,0:0:0:0:
264,172,32766,1,0,0:0:0:0:
268,164,33322,1,8,0:0:0:0:
236,144,34062,1,8,0:0:0:0:
236,144,34433,1,0,0:0:0:0:
284,180,34988,1,8,0:0:0:0:
276,168,35544,1,0,0:0:0:0:
192,152,36285,1,8,0:0:0:0:
280,160,36655,1,8,0:0:0:0:
200,144,37211,1,0,0:0:0:0:
244,120,37766,1,8,0:0:0:0:
236,112,38322,1,0,0:0:0:0:
292,176,38599,1,8,0:0:0:0:
292,176,38877,1,0,0:0:0:0:
292,176,39433,1,0,0:0:0:0:
300,176,39988,1,8,0:0:0:0:
336,184,40544,1,8,0:0:0:0:
316,180,40822,1,0,0:0:0:0:
316,180,41099,1,8,0:0:0:0:
216,176,41655,1,0,0:0:0:0:
228,176,42211,1,8,0:0:0:0:
232,168,42766,1,0,0:0:0:0:
224,168,43044,1,8,0:0:0:0:
224,168,43322,1,0,0:0:0:0:
224,168,43877,1,0,0:0:0:0:
200,172,44433,1,8,0:0:0:0:
164,172,45544,1,8,0:0:0:0:
168,156,46377,1,0,0:0:0:0:
220,168,46655,1,8,0:0:0:0:
228,164,47211,1,0,0:0:0:0:
228,160,47766,1,8,0:0:0:0:
228,164,48322,1,0,0:0:0:0:
232,156,48599,1,0,0:0:0:0:
232,156,48877,1,8,0:0:0:0:
340,132,49711,1,0,0:0:0:0:
348,132,49988,1,8,0:0:0:0:
328,160,50544,1,8,0:0:0:0:
328,160,51099,1,0,0:0:0:0:
272,180,51655,1,8,0:0:0:0:
272,180,52211,1,8,0:0:0:0:
264,168,53044,1,8,0:0:0:0:
268,168,53322,1,0,0:0:0:0:
284,172,54155,1,0,0:0:0:0:
284,172,54433,1,8,0:0:0:0:
284,172,54988,1,0,0:0:0:0:
288,176,55544,1,8,0:0:0:0:
288,176,56377,1,0,0:0:0:0:
288,176,56655,1,8,0:0:0:0:
212,160,57211,1,8,0:0:0:0:
88,260,57488,1,8,0:0:0:0:
236,168,57766,1,0,0:0:0:0:
224,156,58599,1,0,0:0:0:0:
224,160,58877,1,8,0:0:0:0:
232,152,59433,1,8,0:0:0:0:
232,152,59988,1,0,0:0:0:0:
272,180,60544,1,8,0:0:0:0:
272,180,61100,1,8,0:0:0:0:
264,168,61655,1,0,0:0:0:0:
224,124,61933,1,0,0:0:0:0:
304,216,62211,1,8,0:0:0:0:
244,120,62766,1,8,0:0:0:0:
324,212,63599,1,0,0:0:0:0:
324,212,63877,1,8,0:0:0:0:
324,212,64433,1,0,0:0:0:0:
324,212,64988,1,8,0:0:0:0:
328,208,65544,1,0,0:0:0:0:
332,208,65822,1,8,0:0:0:0:
332,208,66099,1,0,0:0:0:0:
236,156,67211,1,8,0:0:0:0:
328,204,68322,1,0,0:0:0:0:
328,204,68877,1,8,0:0:0:0:
328,204,69711,1,8,0:0:0:0:
328,204,69988,1,0,0:0:0:0:
328,204,70544,1,8,0:0:0:0:
328,204,71099,1,0,0:0:0:0:
224,152,71655,1,8,0:0:0:0:
252,124,72488,1,0,0:0:0:0:
252,124,73044,1,0,0:0:0:0:
252,124,73322,1,8,0:0:0:0:
260,120,73877,1,0,0:0:0:0:
260,120,74433,1,8,0:0:0:0:
220,72,74711,1,0,0:0:0:0:
260,120,74988,1,8,0:0:0:0:
260,120,75544,1,0,0:0:0:0:
240,32,76099,1,8,0:0:0:0:
260,120,76933,1,0,0:0:0:0:
268,120,77211,1,8,0:0:0:0:
264,120,77766,1,0,0:0:0:0:
268,120,78322,1,8,0:0:0:0:
268,120,78877,1,0,0:0:0:0:
264,120,79155,1,0,0:0:0:0:
220,164,79433,1,8,0:0:0:0:
192,52,79988,1,0,0:0:0:0:
168,152,81377,1,0,0:0:0:0:
192,56,81655,1,8,0:0:0:0:
192,56,82211,1,0,0:0:0:0:
192,64,83044,1,8,0:0:0:0:
200,60,83877,1,8,0:0:0:0:
184,56,84433,1,0,0:0:0:0:
192,148,84988,1,8,0:0:0:0:
192,148,86377,1,8,0:0:0:0:
192,148,86655,1,0,0:0:0:0:
208,144,87211,1,8,0:0:0:0:
212,152,88322,1,8,0:0:0:0:
216,148,88877,1,0,0:0:0:0:
224,160,89433,1,8,0:0:0:0:
216,128,90266,1,0,0:0:0:0:
224,168,90544,1,8,0:0:0:0:
224,128,91099,1,0,0:0:0:0:
236,152,91655,1,8,0:0:0:0:
220,244,92488,1,0,0:0:0:0:
240,152,92766,1,8,0:0:0:0:
232,156,93322,1,0,0:0:0:0:
232,156,93877,1,8,0:0:0:0:
232,156,94433,1,0,0:0:0:0:
232,156,94988,1,8,0:0:0:0:
232,156,95266,1,8,0:0:0:0:
186,149,95544,1,0,0:0:0:0:
232,156,96099,1,8,0:0:0:0:
232,156,96655,1,0,0:0:0:0:
232,156,96933,1,0,0:0:0:0:
232,156,97211,1,8,0:0:0:0:
