osu file format v14

[General]
AudioFilename: audio.mp3
AudioLeadIn: 0
PreviewTime: 15
Countdown: 0
SampleSet: Soft
StackLeniency: 0.7
Mode: 0
LetterboxInBreaks: 0
WidescreenStoryboard: 1

[Editor]
Bookmarks: 13804,27519,41233,54947,68662,82376,96090,109805,123519
DistanceSpacing: 0.9
BeatDivisor: 6
GridSize: 4
TimelineZoom: 1.5

[Metadata]
Title:Idfc (tarro Remix) (Cut Ver.)
TitleUnicode:Idfc (tarro Remix) (Cut Ver.)
Artist:blackbear
ArtistUnicode:blackbear
Creator:Mimari
Version:normal
Source:
Tags:deadroses english hip hop rap trap electronic alternative r&b van vanchanical opp 0pp oppinosu 0ppinosu some hero ldfc
BeatmapID:2834013
BeatmapSetID:1354939

[Difficulty]
HPDrainRate:2
CircleSize:3.7
OverallDifficulty:3.5
ApproachRate:5.5
SliderMultiplier:1.2
SliderTickRate:1

[Events]
//Background and Video events
0,0,"idfc.jpg",0,0
//Break Periods
2,68662,81243
//Storyboard Layer 0 (Background)
//Storyboard Layer 1 (Fail)
//Storyboard Layer 2 (Pass)
//Storyboard Layer 3 (Foreground)
//Storyboard Layer 4 (Overlay)
//Storyboard Sound Samples

[TimingPoints]
13805,428.571428571429,4,2,1,60,1,0
36947,-100,4,2,3,60,0,0
37055,-100,4,2,1,60,0,0
68662,-100,4,2,2,60,0,0
82376,-111.111111111111,4,2,2,50,0,0
91805,-111.111111111111,4,2,3,50,0,0
92019,-111.111111111111,4,2,2,50,0,0
95233,-111.111111111111,4,2,2,60,0,0
95876,-111.111111111111,4,2,1,70,0,0
96090,-95.2380952380951,4,2,1,75,0,0
123519,-95.2380952380951,4,2,1,50,0,0

[Colours]
Combo1 : 188,219,250
Combo2 : 244,198,232
Combo3 : 133,173,136

[HitObjects]
333,36,13804,6,0,L|321:116,1,60,2|2,1:2|0:2,0:0:0:0:
314,148,14233,1,2,0:2:0:0:
405,205,14662,2,0,L|429:350,1,120,10|0,0:2|0:0,0:0:0:0:
322,359,15519,2,0,L|245:346,1,60,2|2,1:2|0:2,0:0:0:0:
210,362,15947,2,0,L|133:349,1,60,2|2,0:2|0:2,0:0:0:0:
97,363,16376,1,10,0:2:0:0:
35,274,16805,1,0,0:0:0:0:
92,182,17233,6,0,P|121:172|167:189,1,60,2|2,1:2|0:2,0:0:0:0:
194,206,17662,1,2,0:2:0:0:
293,246,18090,2,0,L|311:120,1,120,10|2,0:2|0:2,0:0:0:0:
292,20,18947,2,0,L|212:32,1,60,2|2,1:2|0:2,0:0:0:0:
182,49,19376,2,0,L|102:61,1,60,2|2,0:2|0:2,0:0:0:0:
77,87,19805,1,10,0:2:0:0:
24,181,20233,2,0,P|21:215|35:252,1,60,0|2,0:0|0:2,0:0:0:0:
70,272,20662,6,0,L|208:302,1,120,2|2,1:2|0:2,0:0:0:0:
241,315,21305,1,2,0:2:0:0:
241,315,21519,2,0,L|315:301,1,60,10|0,0:2|0:0,0:0:0:0:
352,291,21947,2,0,P|417:296|464:353,2,120,0|0|0,0:0|1:2|0:0,0:0:0:0:
273,216,23233,2,0,P|253:161|264:94,1,120,8|2,0:2|0:2,0:0:0:0:
281,51,23876,1,2,0:2:0:0:
281,51,24090,6,0,L|413:76,2,120,0|0|8,1:2|0:0|0:2,0:0:0:0:
186,14,25376,1,0,0:0:0:0:
83,48,25805,2,0,B|64:69|64:69|83:158,1,120,0|0,1:2|0:0,0:0:0:0:
35,255,26662,2,0,B|56:274|56:274|145:255,1,120,8|0,0:2|0:0,0:0:0:0:
249,225,27519,6,0,L|323:242,1,60,2|2,1:2|0:2,0:0:0:0:
359,252,27947,1,2,0:2:0:0:
450,193,28376,2,0,L|433:63,1,120,10|0,0:2|0:0,0:0:0:0:
341,17,29233,2,0,L|264:30,1,60,2|2,1:2|0:2,0:0:0:0:
229,14,29662,2,0,L|152:27,1,60,2|2,0:2|0:2,0:0:0:0:
116,13,30090,1,10,0:2:0:0:
51,100,30519,1,0,0:0:0:0:
127,175,30947,6,0,P|137:205|126:256,1,60,2|2,1:2|0:2,0:0:0:0:
99,273,31376,2,0,P|89:303|100:354,1,60,2|2,0:2|0:2,0:0:0:0:
133,363,31805,2,0,B|184:355|184:355|202:363|202:363|269:352,1,120,10|0,0:2|0:0,0:0:0:0:
356,333,32662,2,0,L|368:247,1,60,2|2,1:2|0:2,0:0:0:0:
374,220,33090,1,2,0:2:0:0:
271,185,33519,2,0,L|252:43,1,120,10|0,0:2|0:0,0:0:0:0:
252,16,34162,1,2,0:2:0:0:
252,16,34376,6,0,P|276:4|328:25,1,60,2|2,1:2|0:2,0:0:0:0:
358,27,34805,1,2,0:2:0:0:
431,106,35233,2,0,L|409:250,1,120,10|0,0:2|0:0,0:0:0:0:
397,331,36090,2,0,P|460:340|513:282,2,120,0|0|8,1:2|0:0|0:1,0:0:0:0:
302,278,37376,2,0,L|224:295,1,60,2|2,0:2|0:2,0:0:0:0:
211,334,37805,6,0,L|75:316,1,120,0|0,1:2|0:0,0:0:0:0:
31,228,38662,1,8,0:2:0:0:
122,171,39090,1,0,0:0:0:0:
31,111,39519,2,0,B|18:97|18:97|55:-16,2,120,0|0|8,1:2|0:0|0:2,0:0:0:0:
122,171,40805,2,0,L|208:155,1,60,2|2,0:2|0:2,0:0:0:0:
218,120,41233,6,0,L|354:140,1,120,0|0,1:2|0:0,0:0:0:0:
393,151,41876,1,0,0:0:0:0:
393,151,42090,2,0,P|430:192|422:277,1,120,10|0,0:2|0:0,0:0:0:0:
352,325,42947,2,0,B|322:308|322:308|225:330,2,120,2|0|10,1:2|0:0|0:2,0:0:0:0:
444,380,44233,1,0,0:0:0:0:
473,276,44662,6,0,L|485:194,1,60,2|0,1:2|0:0,0:0:0:0:
448,173,45090,2,0,L|436:96,1,60,2|0,0:2|0:0,0:0:0:0:
462,64,45519,1,10,0:2:0:0:
368,11,45947,2,0,P|338:7|296:26,1,60,2|0,0:2|0:0,0:0:0:0:
267,49,46376,2,0,B|290:74|290:74|260:177,1,120,0|0,1:2|0:0,0:0:0:0:
251,211,47019,1,0,0:0:0:0:
251,211,47233,1,8,0:2:0:0:
304,305,47662,2,0,P|272:313|228:329,1,60,2|2,0:2|0:2,0:0:0:0:
203,354,48090,5,2,1:2:0:0:
96,333,48519,1,2,0:2:0:0:
48,236,48947,2,0,L|28:154,1,60,10|0,0:2|0:0,0:0:0:0:
73,140,49376,2,0,L|93:58,1,60
132,51,49805,2,0,B|203:42|177:84|247:89,2,120,0|0|8,1:2|0:0|0:2,0:0:0:0:
73,140,51090,2,0,L|93:222,1,60,0|2,0:0|0:2,0:0:0:0:
102,250,51519,5,2,1:2:0:0:
197,200,51947,1,2,0:2:0:0:
287,258,52376,2,0,P|316:267|347:264,1,60,10|0,0:2|0:0,0:0:0:0:
386,229,52805,2,0,P|415:220|446:223,1,60
487,254,53233,2,0,L|461:380,2,120,0|0|8,1:2|0:0|0:2,0:0:0:0:
386,229,54519,2,0,P|382:202|371:149,1,60,2|2,0:2|0:2,0:0:0:0:
335,134,54947,6,0,B|261:121|292:169|209:150,1,120,0|0,1:2|0:0,0:0:0:0:
170,159,55590,1,0,0:0:0:0:
170,159,55805,2,0,P|132:109|148:35,1,120,10|0,0:2|0:0,0:0:0:0:
232,5,56662,2,0,B|287:12|287:12|295:17|302:23|302:23|367:34,2,120,2|0|10,1:2|0:0|0:2,0:0:0:0:
136,54,57947,1,0,0:0:0:0:
33,19,58376,6,0,L|41:78,1,60,2|0,1:2|0:0,0:0:0:0:
53,131,58805,2,0,L|61:190,1,60,2|0,0:2|0:0,0:0:0:0:
70,243,59233,1,10,0:2:0:0:
20,338,59662,2,0,P|46:350|93:349,1,60,2|0,0:2|0:0,0:0:0:0:
127,333,60090,2,0,B|145:320|145:320|256:350,1,120,0|0,1:2|0:0,0:0:0:0:
295,363,60733,1,0,0:0:0:0:
295,363,60947,1,8,0:2:0:0:
376,291,61376,2,0,P|372:261|340:229,1,60,2|2,0:2|0:2,0:0:0:0:
303,220,61805,5,2,1:2:0:0:
206,269,62233,1,2,0:2:0:0:
105,230,62662,2,0,P|98:199|88:145,1,60,10|0,0:2|0:0,0:0:0:0:
52,135,63090,2,0,P|59:104|64:68,1,60
46,24,63519,2,0,B|117:15|91:57|161:62,1,120,0|0,1:2|0:0,0:0:0:0:
242,125,64376,1,8,0:2:0:0:
278,23,64805,2,0,L|358:7,1,60,0|2,0:0|0:2,0:0:0:0:
390,6,65233,5,2,1:2:0:0:
395,113,65662,1,2,0:2:0:0:
305,172,66090,2,0,P|288:215|300:303,1,120,10|0,0:2|0:0,0:0:0:0:
355,375,66947,2,0,B|307:365|307:365|291:368|279:373|279:373|219:357,1,120,0|0,1:2|0:0,0:0:0:0:
136,326,67805,2,0,P|124:300|126:265,1,60,10|2,0:2|0:2,0:0:0:0:
144,219,68233,2,0,P|156:193|154:158,1,60,2|2,0:2|0:2,0:0:0:0:
431,110,82376,6,0,B|385:73|311:115|367:144|292:187|231:143,1,215.999993408203,2|10,0:1|0:1,0:0:0:0:
143,156,83662,2,0,P|113:108|142:44,1,107.999996704102,2|2,0:1|0:2,0:0:0:0:
124,60,85376,5,2,0:1:0:0:
211,102,85805,2,0,P|194:205|176:324,1,215.999993408203,2|10,0:1|0:1,0:0:0:0:
258,368,87090,1,2,0:1:0:0:
258,368,89233,6,0,P|310:365|349:307,1,107.999996704102,2|2,0:1|0:2,0:0:0:0:
364,229,90090,2,0,L|374:150,1,53.9999983520508,10|2,0:1|0:2,0:0:0:0:
344,134,90519,2,0,L|323:3,2,107.999996704102,2|0|0,0:1|0:0|0:0,0:0:0:0:
274,202,91805,1,8,0:1:0:0:
186,158,92233,2,0,P|163:144|134:141,1,53.9999983520508,2|2,0:1|0:2,0:0:0:0:
88,135,92662,6,0,B|51:181|93:255|122:199|165:274|121:335,1,215.999993408203,2|10,0:1|0:1,0:0:0:0:
41,371,93947,1,2,0:1:0:0:
31,274,94376,6,0,P|135:298|257:335,1,215.999993408203,0|8,0:0|0:1,0:0:0:0:
324,281,95662,2,0,P|325:250|302:212,1,53.9999983520508,2|0,0:1|1:2,0:0:0:0:
283,182,96090,6,0,B|205:163|210:60|275:43|275:43|274:80|309:106,1,251.999992309571,6|10,1:1|0:1,0:0:0:0:
403,143,97376,6,0,L|461:157,2,41.9999987182618,2|2|2,0:1|0:2|0:2,0:0:0:0:
377,171,97805,2,0,B|282:189|282:189|266:208|254:229|254:229|145:254,1,251.999992309571,4|8,1:1|0:1,0:0:0:0:
95,268,98876,1,2,0:3:0:0:
61,313,99090,1,2,0:1:0:0:
159,368,99519,6,0,B|228:377|237:320|261:312|261:312|289:310|310:382|395:343,1,251.999992309571,6|10,1:1|0:1,0:0:0:0:
460,273,100805,1,2,0:1:0:0:
439,161,101233,6,0,B|388:120|338:171|338:171|346:178|346:178|287:241|217:201,1,251.999992309571,4|8,1:1|0:1,0:0:0:0:
125,168,102519,2,0,P|105:139|107:93,1,62.9999980773926,2|0,0:1|0:0,0:0:0:0:
59,74,102947,6,0,B|113:30|201:79|134:114|223:165|296:113,1,251.999992309571,6|10,1:1|0:1,0:0:0:0:
375,60,104233,6,0,L|387:13,2,41.9999987182618,2|2|2,0:1|0:2|0:2,0:0:0:0:
404,86,104662,2,0,B|422:180|422:180|441:197|462:208|462:208|487:318,1,251.999992309571,4|8,1:1|0:1,0:0:0:0:
458,362,105733,1,2,0:3:0:0:
400,366,105947,1,2,0:1:0:0:
316,289,106376,6,0,B|261:245|173:294|240:329|151:380|78:328,1,251.999992309571,6|10,1:1|0:1,0:0:0:0:
18,253,107662,1,2,0:1:0:0:
91,166,108090,6,0,B|110:169|133:156|133:156|217:194|217:194|253:183|257:145|257:145|246:84,1,251.999992309571,4|8,1:1|0:1,0:0:0:0:
177,8,109376,2,0,P|143:15|121:48,1,62.9999980773926,2|0,0:1|0:0,0:0:0:0:
96,84,109805,6,0,L|141:343,1,251.999992309571,6|10,1:1|0:1,0:0:0:0:
252,332,111091,6,0,P|246:356|238:389,2,41.9999987182618,2|2|2,0:1|0:2|0:2,0:0:0:0:
272,300,111519,2,0,B|325:281|336:202|271:195|271:195|199:206|183:134,1,251.999992309571,4|8,1:1|0:1,0:0:0:0:
207,98,112591,1,2,0:3:0:0:
259,76,112805,1,2,0:1:0:0:
358,21,113233,6,0,B|425:-21|496:53|463:111|463:111|434:172,1,251.999992309571,6|10,1:1|0:1,0:0:0:0:
339,227,114520,1,2,0:1:0:0:
380,331,114947,6,0,B|325:374|237:325|304:290|215:239|142:291,1,251.999992309571,4|8,1:1|0:1,0:0:0:0:
73,357,116234,2,0,P|53:328|55:282,1,62.9999980773926,2|0,0:1|0:0,0:0:0:0:
53,244,116662,6,0,B|85:102|85:102|140:137|140:137|160:155|162:179,1,251.999992309571,6|10,1:1|0:1,0:0:0:0:
240,252,117948,6,0,L|233:293,2,41.9999987182618,2|2|2,0:1|0:2|0:2,0:0:0:0:
265,224,118376,2,0,B|243:144|291:155|258:54|258:54|234:17|179:23,1,251.999992309571,4|8,1:1|0:1,0:0:0:0:
138,46,119448,1,2,0:3:0:0:
84,27,119662,1,2,0:1:0:0:
26,124,120091,6,0,B|-17:178|31:266|66:199|101:291|101:291|111:314|137:324,1,251.999992309571,6|10,1:1|0:1,0:0:0:0:
231,373,121377,1,2,0:1:0:0:
332,323,121805,2,0,B|443:266|402:158|315:148|312:247,1,251.999992309571,4|8,1:1|0:1,0:0:0:0:
202,250,123090,2,0,L|232:380,1,125.999996154785,2|2,0:1|0:1,0:0:0:0:
