osu file format v14

[General]
AudioFilename: audio.mp3
AudioLeadIn: 0
PreviewTime: 15
Countdown: 0
SampleSet: Soft
StackLeniency: 0.7
Mode: 0
LetterboxInBreaks: 0
WidescreenStoryboard: 0

[Editor]
Bookmarks: 13804,27519,41233,54947,68662,82376,96090,109805,123519
DistanceSpacing: 2.7
BeatDivisor: 4
GridSize: 4
TimelineZoom: 1.5

[Metadata]
Title:Idfc (tarro Remix) (Cut Ver.)
TitleUnicode:Idfc (tarro Remix) (Cut Ver.)
Artist:blackbear
ArtistUnicode:blackbear
Creator:Mimari
Version:emotions
Source:
Tags:deadroses english hip hop rap trap electronic alternative r&b van vanchanical opp 0pp oppinosu 0ppinosu some hero ldfc
BeatmapID:2830674
BeatmapSetID:1354939

[Difficulty]
HPDrainRate:5
CircleSize:4
OverallDifficulty:8
ApproachRate:9
SliderMultiplier:2.1
SliderTickRate:1

[Events]
//Background and Video events
0,0,"idfc.jpg",0,0
//Break Periods
//Storyboard Layer 0 (Background)
//Storyboard Layer 1 (Fail)
//Storyboard Layer 2 (Pass)
//Storyboard Layer 3 (Foreground)
//Storyboard Layer 4 (Overlay)
//Storyboard Sound Samples

[TimingPoints]
13805,428.571428571429,4,2,1,60,1,0
13805,-100,4,2,1,60,0,0
13912,-100,4,2,1,5,0,0
14019,-66.6666666666667,4,2,1,60,0,0
14179,-66.6666666666667,4,2,1,5,0,0
14233,-66.6666666666667,4,2,1,60,0,0
14340,-66.6666666666667,4,2,1,5,0,0
14447,-66.6666666666667,4,2,1,60,0,0
14554,-66.6666666666667,4,2,1,5,0,0
14662,-66.6666666666667,4,2,1,60,0,0
14983,-66.6666666666667,4,2,1,5,0,0
15090,-66.6666666666667,4,2,1,60,0,0
15412,-66.6666666666667,4,2,1,5,0,0
15519,-100,4,2,1,60,0,0
15626,-100,4,2,1,5,0,0
15733,-66.6666666666667,4,2,1,60,0,0
15894,-66.6666666666667,4,2,1,5,0,0
15947,-66.6666666666667,4,2,1,60,0,0
16054,-66.6666666666667,4,2,1,5,0,0
16162,-66.6666666666667,4,2,1,60,0,0
16269,-66.6666666666667,4,2,1,5,0,0
16376,-66.6666666666667,4,2,1,60,0,0
16697,-66.6666666666667,4,2,1,5,0,0
16804,-66.6666666666667,4,2,1,60,0,0
17126,-66.6666666666667,4,2,1,5,0,0
17233,-100,4,2,1,60,0,0
17340,-100,4,2,1,5,0,0
17447,-66.6666666666667,4,2,1,60,0,0
17608,-66.6666666666667,4,2,1,5,0,0
17662,-66.6666666666667,4,2,1,60,0,0
17983,-66.6666666666667,4,2,1,5,0,0
18090,-66.6666666666667,4,2,1,60,0,0
18412,-66.6666666666667,4,2,1,5,0,0
18519,-66.6666666666667,4,2,1,60,0,0
18840,-66.6666666666667,4,2,1,5,0,0
18947,-100,4,2,1,60,0,0
19055,-100,4,2,1,5,0,0
19162,-66.6666666666667,4,2,1,60,0,0
19322,-66.6666666666667,4,2,1,5,0,0
19376,-66.6666666666667,4,2,1,60,0,0
19697,-66.6666666666667,4,2,1,5,0,0
19805,-66.6666666666667,4,2,1,60,0,0
20126,-66.6666666666667,4,2,1,5,0,0
20233,-58.8235294117647,4,2,1,60,0,0
20394,-58.8235294117647,4,2,1,5,0,0
20447,-58.8235294117647,4,2,1,60,0,0
20662,-100,4,2,1,60,0,0
20769,-100,4,2,1,5,0,0
20876,-66.6666666666667,4,2,1,60,0,0
21037,-66.6666666666667,4,2,1,5,0,0
21090,-66.6666666666667,4,2,1,60,0,0
21197,-66.6666666666667,4,2,1,5,0,0
21305,-66.6666666666667,4,2,1,60,0,0
21412,-66.6666666666667,4,2,1,5,0,0
21519,-66.6666666666667,4,2,1,60,0,0
21626,-66.6666666666667,4,2,1,5,0,0
21733,-66.6666666666667,4,2,1,60,0,0
21840,-66.6666666666667,4,2,1,5,0,0
21947,-66.6666666666667,4,2,1,60,0,0
22269,-66.6666666666667,4,2,1,5,0,0
22376,-83.3333333333333,4,2,1,60,0,0
23769,-83.3333333333333,4,2,1,5,0,0
23876,-83.3333333333333,4,2,1,60,0,0
23983,-83.3333333333333,4,2,1,5,0,0
24090,-83.3333333333333,4,2,1,60,0,0
25376,-111.111111111111,4,2,1,60,0,0
25912,-83.3333333333333,4,2,1,5,0,0
26019,-83.3333333333333,4,2,1,60,0,0
26126,-83.3333333333333,4,2,1,5,0,0
26233,-83.3333333333333,4,2,1,60,0,0
26662,-100,4,2,1,60,0,0
27519,-100,4,2,1,60,0,0
27626,-100,4,2,1,5,0,0
27733,-66.6666666666667,4,2,1,60,0,0
27894,-66.6666666666667,4,2,1,5,0,0
27947,-66.6666666666667,4,2,1,60,0,0
28055,-66.6666666666667,4,2,1,5,0,0
28162,-66.6666666666667,4,2,1,60,0,0
28269,-66.6666666666667,4,2,1,5,0,0
28376,-66.6666666666667,4,2,1,60,0,0
28697,-66.6666666666667,4,2,1,5,0,0
28805,-66.6666666666667,4,2,1,60,0,0
28912,-66.6666666666667,4,2,1,5,0,0
29019,-66.6666666666667,4,2,1,60,0,0
29233,-100,4,2,1,60,0,0
29340,-100,4,2,1,5,0,0
29447,-66.6666666666667,4,2,1,60,0,0
29608,-66.6666666666667,4,2,1,5,0,0
29662,-66.6666666666667,4,2,1,60,0,0
29769,-66.6666666666667,4,2,1,5,0,0
29876,-66.6666666666667,4,2,1,60,0,0
29983,-66.6666666666667,4,2,1,5,0,0
30090,-66.6666666666667,4,2,1,60,0,0
30412,-66.6666666666667,4,2,1,5,0,0
30519,-66.6666666666667,4,2,1,60,0,0
30626,-66.6666666666667,4,2,1,5,0,0
30733,-66.6666666666667,4,2,1,60,0,0
30947,-100,4,2,1,60,0,0
31055,-100,4,2,1,5,0,0
31162,-66.6666666666667,4,2,1,60,0,0
31322,-66.6666666666667,4,2,1,5,0,0
31376,-66.6666666666667,4,2,1,60,0,0
31697,-66.6666666666667,4,2,1,5,0,0
31805,-66.6666666666667,4,2,1,60,0,0
32126,-66.6666666666667,4,2,1,5,0,0
32233,-66.6666666666667,4,2,1,60,0,0
32340,-66.6666666666667,4,2,1,5,0,0
32447,-66.6666666666667,4,2,1,60,0,0
32662,-100,4,2,1,60,0,0
32769,-100,4,2,1,5,0,0
32876,-66.6666666666667,4,2,1,60,0,0
33037,-66.6666666666667,4,2,1,5,0,0
33090,-66.6666666666667,4,2,1,60,0,0
33412,-66.6666666666667,4,2,1,5,0,0
33519,-66.6666666666667,4,2,1,60,0,0
34269,-66.6666666666667,4,2,1,5,0,0
34376,-100,4,2,1,60,0,0
34483,-100,4,2,1,5,0,0
34590,-66.6666666666667,4,2,1,60,0,0
34751,-66.6666666666667,4,2,1,5,0,0
34805,-66.6666666666667,4,2,1,60,0,0
34912,-66.6666666666667,4,2,1,5,0,0
35019,-66.6666666666667,4,2,1,60,0,0
35126,-66.6666666666667,4,2,1,5,0,0
35233,-66.6666666666667,4,2,1,60,0,0
35340,-66.6666666666667,4,2,1,5,0,0
35447,-66.6666666666667,4,2,1,60,0,0
35555,-66.6666666666667,4,2,1,5,0,0
35662,-66.6666666666667,4,2,1,60,0,0
35983,-66.6666666666667,4,2,1,5,0,0
36090,-83.3333333333333,4,2,1,60,0,0
36412,-83.3333333333333,4,2,1,5,0,0
36519,-83.3333333333333,4,2,1,60,0,0
36680,-83.3333333333333,4,2,1,5,0,0
36733,-83.3333333333333,4,2,1,60,0,0
36947,-83.3333333333333,4,2,3,60,0,0
37055,-83.3333333333333,4,2,1,60,0,0
37269,-83.3333333333333,4,2,1,5,0,0
37376,-83.3333333333333,4,2,1,60,0,0
37483,-83.3333333333333,4,2,1,5,0,0
37590,-83.3333333333333,4,2,1,60,0,0
37697,-83.3333333333333,4,2,1,5,0,0
37805,-83.3333333333333,4,2,1,60,0,0
39090,-111.111111111111,4,2,1,60,0,0
39519,-83.3333333333333,4,2,1,60,0,0
39626,-83.3333333333333,4,2,1,5,0,0
39733,-83.3333333333333,4,2,1,60,0,0
39840,-83.3333333333333,4,2,1,5,0,0
39947,-83.3333333333333,4,2,1,60,0,0
40269,-83.3333333333333,4,2,1,5,0,0
40376,-83.3333333333333,4,2,1,60,0,0
40697,-83.3333333333333,4,2,1,5,0,0
40805,-83.3333333333333,4,2,1,60,0,0
40912,-83.3333333333333,4,2,1,5,0,0
41019,-83.3333333333333,4,2,1,60,0,0
41233,-76.9230769230769,4,2,1,60,0,0
41555,-76.9230769230769,4,2,1,5,0,0
41662,-76.9230769230769,4,2,1,60,0,0
41769,-76.9230769230769,4,2,1,5,0,0
41876,-76.9230769230769,4,2,1,60,0,0
42412,-76.9230769230769,4,2,1,5,0,0
42519,-76.9230769230769,4,2,1,60,0,0
42626,-76.9230769230769,4,2,1,5,0,0
42733,-76.9230769230769,4,2,1,60,0,0
42840,-76.9230769230769,4,2,1,5,0,0
42947,-76.9230769230769,4,2,1,60,0,0
43269,-76.9230769230769,4,2,1,5,0,0
43376,-76.9230769230769,4,2,1,60,0,0
43912,-76.9230769230769,4,2,1,5,0,0
44019,-76.9230769230769,4,2,1,60,0,0
44340,-76.9230769230769,4,2,1,5,0,0
44447,-76.9230769230769,4,2,1,60,0,0
44555,-76.9230769230769,4,2,1,5,0,0
44662,-76.9230769230769,4,2,1,60,0,0
44983,-76.9230769230769,4,2,1,5,0,0
45090,-76.9230769230769,4,2,1,60,0,0
45840,-76.9230769230769,4,2,1,5,0,0
45947,-76.9230769230769,4,2,1,60,0,0
46055,-76.9230769230769,4,2,1,5,0,0
46162,-76.9230769230769,4,2,1,60,0,0
46269,-76.9230769230769,4,2,1,5,0,0
46376,-76.9230769230769,4,2,1,60,0,0
46697,-76.9230769230769,4,2,1,5,0,0
46805,-76.9230769230769,4,2,1,60,0,0
46912,-76.9230769230769,4,2,1,5,0,0
47019,-76.9230769230769,4,2,1,60,0,0
47555,-76.9230769230769,4,2,1,5,0,0
47662,-76.9230769230769,4,2,1,60,0,0
47769,-76.9230769230769,4,2,1,5,0,0
47876,-76.9230769230769,4,2,1,60,0,0
47983,-76.9230769230769,4,2,1,5,0,0
48090,-100,4,2,1,60,0,0
48197,-100,4,2,1,5,0,0
48305,-66.6666666666667,4,2,1,60,0,0
48465,-66.6666666666667,4,2,1,5,0,0
48519,-66.6666666666667,4,2,1,60,0,0
48626,-66.6666666666667,4,2,1,5,0,0
48733,-66.6666666666667,4,2,1,60,0,0
48840,-66.6666666666667,4,2,1,5,0,0
48947,-66.6666666666667,4,2,1,60,0,0
49055,-66.6666666666667,4,2,1,5,0,0
49162,-66.6666666666667,4,2,1,60,0,0
49269,-66.6666666666667,4,2,1,5,0,0
49376,-66.6666666666667,4,2,1,60,0,0
49697,-66.6666666666667,4,2,1,5,0,0
49805,-66.6666666666667,4,2,1,60,0,0
50126,-66.6666666666667,4,2,1,5,0,0
50233,-66.6666666666667,4,2,1,60,0,0
50340,-66.6666666666667,4,2,1,5,0,0
50447,-66.6666666666667,4,2,1,60,0,0
50662,-66.6666666666667,4,2,1,60,0,0
50983,-66.6666666666667,4,2,1,5,0,0
51090,-66.6666666666667,4,2,1,60,0,0
51197,-66.6666666666667,4,2,1,5,0,0
51305,-66.6666666666667,4,2,1,60,0,0
51412,-66.6666666666667,4,2,1,5,0,0
51519,-100,4,2,1,60,0,0
51626,-100,4,2,1,5,0,0
51733,-66.6666666666667,4,2,1,60,0,0
51894,-66.6666666666667,4,2,1,5,0,0
51947,-66.6666666666667,4,2,1,60,0,0
52055,-66.6666666666667,4,2,1,5,0,0
52162,-66.6666666666667,4,2,1,60,0,0
52269,-66.6666666666667,4,2,1,5,0,0
52376,-66.6666666666667,4,2,1,60,0,0
52483,-66.6666666666667,4,2,1,5,0,0
52590,-66.6666666666667,4,2,1,60,0,0
52697,-66.6666666666667,4,2,1,5,0,0
52805,-66.6666666666667,4,2,1,60,0,0
53126,-66.6666666666667,4,2,1,5,0,0
53233,-76.9230769230769,4,2,1,60,0,0
53555,-76.9230769230769,4,2,1,5,0,0
53662,-76.9230769230769,4,2,1,60,0,0
53769,-76.9230769230769,4,2,1,5,0,0
53876,-76.9230769230769,4,2,1,60,0,0
54090,-76.9230769230769,4,2,1,60,0,0
54412,-76.9230769230769,4,2,1,5,0,0
54519,-76.9230769230769,4,2,1,60,0,0
54626,-76.9230769230769,4,2,1,5,0,0
54733,-76.9230769230769,4,2,1,60,0,0
54947,-76.9230769230769,4,2,1,60,0,0
55269,-76.9230769230769,4,2,1,5,0,0
55376,-76.9230769230769,4,2,1,60,0,0
55483,-76.9230769230769,4,2,1,5,0,0
55590,-76.9230769230769,4,2,1,60,0,0
56126,-76.9230769230769,4,2,1,5,0,0
56233,-76.9230769230769,4,2,1,60,0,0
56340,-76.9230769230769,4,2,1,5,0,0
56447,-76.9230769230769,4,2,1,60,0,0
56554,-76.9230769230769,4,2,1,5,0,0
56661,-76.9230769230769,4,2,1,60,0,0
56983,-76.9230769230769,4,2,1,5,0,0
57090,-76.9230769230769,4,2,1,60,0,0
57197,-76.9230769230769,4,2,1,5,0,0
57305,-76.9230769230769,4,2,1,60,0,0
58054,-76.9230769230769,4,2,1,5,0,0
58161,-76.9230769230769,4,2,1,60,0,0
58269,-76.9230769230769,4,2,1,5,0,0
58376,-76.9230769230769,4,2,1,60,0,0
58697,-76.9230769230769,4,2,1,5,0,0
58804,-76.9230769230769,4,2,1,60,0,0
59554,-76.9230769230769,4,2,1,5,0,0
59661,-76.9230769230769,4,2,1,60,0,0
59769,-76.9230769230769,4,2,1,5,0,0
59876,-76.9230769230769,4,2,1,60,0,0
59983,-76.9230769230769,4,2,1,5,0,0
60090,-76.9230769230769,4,2,1,60,0,0
60411,-76.9230769230769,4,2,1,5,0,0
60519,-76.9230769230769,4,2,1,60,0,0
60626,-76.9230769230769,4,2,1,5,0,0
60733,-76.9230769230769,4,2,1,60,0,0
61269,-76.9230769230769,4,2,1,5,0,0
61376,-76.9230769230769,4,2,1,60,0,0
61483,-76.9230769230769,4,2,1,5,0,0
61590,-76.9230769230769,4,2,1,60,0,0
61697,-76.9230769230769,4,2,1,5,0,0
61804,-100,4,2,1,60,0,0
61912,-100,4,2,1,5,0,0
62019,-66.6666666666667,4,2,1,60,0,0
62179,-66.6666666666667,4,2,1,5,0,0
62233,-66.6666666666667,4,2,1,60,0,0
62340,-66.6666666666667,4,2,1,5,0,0
62447,-66.6666666666667,4,2,1,60,0,0
62554,-66.6666666666667,4,2,1,5,0,0
62661,-66.6666666666667,4,2,1,60,0,0
62769,-66.6666666666667,4,2,1,5,0,0
62876,-66.6666666666667,4,2,1,60,0,0
62983,-66.6666666666667,4,2,1,5,0,0
63090,-66.6666666666667,4,2,1,60,0,0
63411,-66.6666666666667,4,2,1,5,0,0
63519,-66.6666666666667,4,2,1,60,0,0
63626,-66.6666666666667,4,2,1,5,0,0
63733,-66.6666666666667,4,2,1,60,0,0
63947,-76.9230769230769,4,2,1,60,0,0
64376,-76.9230769230769,4,2,1,60,0,0
64483,-76.9230769230769,4,2,1,5,0,0
64590,-76.9230769230769,4,2,1,60,0,0
64697,-76.9230769230769,4,2,1,5,0,0
64805,-76.9230769230769,4,2,1,60,0,0
64912,-76.9230769230769,4,2,1,5,0,0
65019,-76.9230769230769,4,2,1,60,0,0
65340,-76.9230769230769,4,2,1,5,0,0
65447,-76.9230769230769,4,2,1,60,0,0
65555,-76.9230769230769,4,2,1,5,0,0
65662,-76.9230769230769,4,2,1,60,0,0
65822,-76.9230769230769,4,2,1,5,0,0
65876,-76.9230769230769,4,2,1,60,0,0
66412,-76.9230769230769,4,2,1,5,0,0
66519,-100,4,2,1,60,0,0
66947,-83.3333333333333,4,2,1,60,0,0
67269,-83.3333333333333,4,2,1,5,0,0
67376,-83.3333333333333,4,2,1,60,0,0
67483,-83.3333333333333,4,2,1,5,0,0
67590,-83.3333333333333,4,2,1,60,0,0
67805,-125,4,2,1,60,0,0
68555,-125,4,2,1,5,0,0
68662,-166.666666666667,4,2,2,60,0,0
71126,-166.666666666667,4,2,2,5,0,0
71233,-166.666666666667,4,2,2,60,0,0
82376,-142.857142857143,4,2,2,50,0,0
83126,-142.857142857143,4,2,2,5,0,0
83233,-142.857142857143,4,2,2,50,0,0
83555,-142.857142857143,4,2,2,5,0,0
83662,-142.857142857143,4,2,2,50,0,0
85697,-142.857142857143,4,2,2,5,0,0
85805,-142.857142857143,4,2,2,50,0,0
87412,-142.857142857143,4,2,2,5,0,0
87519,-142.857142857143,4,2,2,50,0,0
88269,-142.857142857143,4,2,2,5,0,0
88376,-142.857142857143,4,2,2,50,0,0
88697,-142.857142857143,4,2,2,5,0,0
88805,-142.857142857143,4,2,2,50,0,0
88912,-142.857142857143,4,2,2,5,0,0
89019,-142.857142857143,4,2,2,50,0,0
89233,-125,4,2,2,50,0,0
89340,-125,4,2,2,5,0,0
89447,-125,4,2,2,50,0,0
89555,-125,4,2,2,5,0,0
89662,-125,4,2,2,50,0,0
90197,-125,4,2,2,5,0,0
90305,-125,4,2,2,50,0,0
90412,-125,4,2,2,5,0,0
90519,-125,4,2,2,50,0,0
90840,-125,4,2,2,5,0,0
90947,-125,4,2,2,50,0,0
91805,-125,4,2,3,50,0,0
92019,-125,4,2,2,50,0,0
92662,-117.647058823529,4,2,2,50,0,0
93412,-117.647058823529,4,2,2,5,0,0
93519,-117.647058823529,4,2,2,50,0,0
94376,-105.263157894737,4,2,2,50,0,0
95126,-105.263157894737,4,2,2,5,0,0
95233,-83.3333333333333,4,2,2,60,0,0
95555,-83.3333333333333,4,2,2,5,0,0
95662,-76.9230769230769,4,2,2,60,0,0
95769,-83.3333333333333,4,2,2,5,0,0
95876,-83.3333333333333,4,2,1,70,0,0
96090,-66.6666666666667,4,2,1,75,0,0
96840,-66.6666666666667,4,2,1,5,0,0
96947,-66.6666666666667,4,2,1,75,0,0
97269,-66.6666666666667,4,2,1,5,0,0
97376,-100,4,2,1,75,0,0
97447,-100,4,2,1,5,0,0
97519,-100,4,2,1,75,0,0
97590,-100,4,2,1,5,0,0
97662,-100,4,2,1,75,0,0
97733,-100,4,2,1,5,0,0
97805,-66.6666666666667,4,2,1,75,0,0
98555,-66.6666666666667,4,2,1,5,0,0
98662,-83.3333333333333,4,2,1,75,0,0
98769,-83.3333333333333,4,2,1,5,0,0
98876,-83.3333333333333,4,2,1,75,0,0
98983,-83.3333333333333,4,2,1,5,0,0
99090,-100,4,2,1,75,0,0
99162,-100,4,2,1,5,0,0
99233,-100,4,2,1,75,0,0
99305,-100,4,2,1,5,0,0
99376,-100,4,2,1,75,0,0
99447,-100,4,2,1,5,0,0
99519,-66.6666666666667,4,2,1,75,0,0
100055,-66.6666666666667,4,2,1,5,0,0
100162,-133.333333333333,4,2,1,75,0,0
100269,-133.333333333333,4,2,1,5,0,0
100376,-66.6666666666667,4,2,1,75,0,0
101126,-66.6666666666667,4,2,1,5,0,0
101233,-66.6666666666667,4,2,1,75,0,0
101983,-66.6666666666667,4,2,1,5,0,0
102090,-83.3333333333333,4,2,1,75,0,0
102197,-83.3333333333333,4,2,1,5,0,0
102305,-83.3333333333333,4,2,1,75,0,0
102412,-83.3333333333333,4,2,1,5,0,0
102519,-71.4285714285714,4,2,1,75,0,0
102840,-71.4285714285714,4,2,1,5,0,0
102947,-66.6666666666667,4,2,1,75,0,0
103483,-66.6666666666667,4,2,1,5,0,0
103590,-100,4,2,1,75,0,0
103697,-100,4,2,1,5,0,0
103805,-66.6666666666667,4,2,1,75,0,0
104233,-100,4,2,1,75,0,0
104305,-100,4,2,1,5,0,0
104376,-100,4,2,1,75,0,0
104447,-100,4,2,1,5,0,0
104519,-100,4,2,1,75,0,0
104590,-100,4,2,1,5,0,0
104662,-66.6666666666667,4,2,1,75,0,0
105412,-66.6666666666667,4,2,1,5,0,0
105519,-83.3333333333333,4,2,1,75,0,0
105626,-83.3333333333333,4,2,1,5,0,0
105733,-83.3333333333333,4,2,1,75,0,0
105840,-83.3333333333333,4,2,1,5,0,0
105947,-100,4,2,1,75,0,0
106019,-100,4,2,1,5,0,0
106090,-100,4,2,1,75,0,0
106162,-100,4,2,1,5,0,0
106233,-100,4,2,1,75,0,0
106305,-100,4,2,1,5,0,0
106376,-66.6666666666667,4,2,1,75,0,0
106912,-66.6666666666667,4,2,1,5,0,0
107019,-133.333333333333,4,2,1,75,0,0
107126,-133.333333333333,4,2,1,5,0,0
107233,-66.6666666666667,4,2,1,75,0,0
107983,-66.6666666666667,4,2,1,5,0,0
108090,-66.6666666666667,4,2,1,75,0,0
108840,-66.6666666666667,4,2,1,5,0,0
108947,-83.3333333333333,4,2,1,75,0,0
109055,-83.3333333333333,4,2,1,5,0,0
109162,-83.3333333333333,4,2,1,75,0,0
109269,-83.3333333333333,4,2,1,5,0,0
109376,-100,4,2,1,75,0,0
109697,-100,4,2,1,5,0,0
109805,-66.6666666666667,4,2,1,75,0,0
110555,-66.6666666666667,4,2,1,5,0,0
110662,-66.6666666666667,4,2,1,75,0,0
110984,-66.6666666666667,4,2,1,5,0,0
111091,-100,4,2,1,75,0,0
111162,-100,4,2,1,5,0,0
111234,-100,4,2,1,75,0,0
111305,-100,4,2,1,5,0,0
111377,-100,4,2,1,75,0,0
111448,-100,4,2,1,5,0,0
111519,-66.6666666666667,4,2,1,75,0,0
112270,-66.6666666666667,4,2,1,5,0,0
112377,-83.3333333333333,4,2,1,75,0,0
112484,-83.3333333333333,4,2,1,5,0,0
112590,-83.3333333333333,4,2,1,75,0,0
112698,-83.3333333333333,4,2,1,5,0,0
112805,-100,4,2,1,75,0,0
112877,-100,4,2,1,5,0,0
112948,-100,4,2,1,75,0,0
113020,-100,4,2,1,5,0,0
113091,-100,4,2,1,75,0,0
113162,-100,4,2,1,5,0,0
113234,-66.6666666666667,4,2,1,75,0,0
113770,-66.6666666666667,4,2,1,5,0,0
113877,-133.333333333333,4,2,1,75,0,0
113984,-133.333333333333,4,2,1,5,0,0
114090,-66.6666666666667,4,2,1,75,0,0
114841,-66.6666666666667,4,2,1,5,0,0
114948,-66.6666666666667,4,2,1,75,0,0
115698,-66.6666666666667,4,2,1,5,0,0
115805,-83.3333333333333,4,2,1,75,0,0
115912,-83.3333333333333,4,2,1,5,0,0
116020,-83.3333333333333,4,2,1,75,0,0
116127,-83.3333333333333,4,2,1,5,0,0
116233,-71.4285714285714,4,2,1,75,0,0
116555,-71.4285714285714,4,2,1,5,0,0
116662,-66.6666666666667,4,2,1,75,0,0
117198,-66.6666666666667,4,2,1,5,0,0
117305,-100,4,2,1,75,0,0
117412,-100,4,2,1,5,0,0
117519,-66.6666666666667,4,2,1,75,0,0
117948,-100,4,2,1,75,0,0
118020,-100,4,2,1,5,0,0
118091,-100,4,2,1,75,0,0
118162,-100,4,2,1,5,0,0
118234,-100,4,2,1,75,0,0
118305,-100,4,2,1,5,0,0
118377,-66.6666666666667,4,2,1,75,0,0
119127,-66.6666666666667,4,2,1,5,0,0
119234,-83.3333333333333,4,2,1,75,0,0
119341,-83.3333333333333,4,2,1,5,0,0
119448,-83.3333333333333,4,2,1,75,0,0
119555,-83.3333333333333,4,2,1,5,0,0
119662,-100,4,2,1,75,0,0
119734,-100,4,2,1,5,0,0
119805,-100,4,2,1,75,0,0
119877,-100,4,2,1,5,0,0
119948,-100,4,2,1,75,0,0
120020,-100,4,2,1,5,0,0
120090,-66.6666666666667,4,2,1,75,0,0
120627,-66.6666666666667,4,2,1,5,0,0
120733,-133.333333333333,4,2,1,75,0,0
120841,-133.333333333333,4,2,1,5,0,0
120947,-66.6666666666667,4,2,1,75,0,0
121698,-66.6666666666667,4,2,1,5,0,0
121805,-66.6666666666667,4,2,1,75,0,0
122555,-66.6666666666667,4,2,1,5,0,0
122662,-83.3333333333333,4,2,1,75,0,0
122770,-83.3333333333333,4,2,1,5,0,0
122877,-83.3333333333333,4,2,1,75,0,0
122984,-83.3333333333333,4,2,1,5,0,0
123091,-100,4,2,1,75,0,0
123412,-100,4,2,1,5,0,0
123520,-66.6666666666667,4,2,1,50,0,0

[Colours]
Combo1 : 188,219,250
Combo2 : 244,198,232
Combo3 : 133,173,136

[HitObjects]
186,4,13804,6,0,P|166:19|159:52,1,52.5,2|0,1:2|0:0,0:0:0:0:
125,116,14019,2,0,B|158:132|185:119|185:119|213:102|263:128,1,118.125004506111,2|0,0:2|0:0,0:0:0:0:
258,124,14233,6,0,P|274:160|275:218,1,78.7500030040742,2|0,0:2|0:0,0:0:0:0:
324,268,14447,2,0,P|303:301|256:335,1,78.7500030040742,2|0,0:2|0:0,0:0:0:0:
88,294,14662,2,0,B|54:307|7:284|31:206|91:190|164:222|177:286,1,236.250009012223,10|0,0:2|0:0,0:0:0:0:
168,380,15090,6,0,B|132:328|176:273|176:273|225:220|178:140,1,236.250009012223
22,93,15519,6,0,P|27:117|54:137,1,52.5,2|0,1:2|0:0,0:0:0:0:
165,0,15733,2,0,P|107:9|91:65,1,118.125004506111,2|0,0:2|0:0,0:0:0:0:
100,79,15947,6,0,B|137:88|137:88|139:86|139:86|191:98,1,78.7500030040742,2|0,0:2|0:0,0:0:0:0:
272,188,16162,2,0,B|309:179|309:179|311:180|311:180|363:169,1,78.7500030040742,2|0,0:2|0:0,0:0:0:0:
464,49,16376,6,0,B|469:30|469:30|478:-22|407:-42|390:17|390:17|368:108,1,236.250009012223,10|0,0:2|0:0,0:0:0:0:
400,266,16804,2,0,B|419:271|419:271|471:280|491:209|432:192|432:192|341:170,1,236.250009012223
191,244,17233,6,0,P|187:268|204:297,1,52.5,2|0,1:2|0:0,0:0:0:0:
223,367,17448,2,0,B|257:355|268:327|268:327|276:295|330:279,1,118.125004506111,2|0,0:2|0:0,0:0:0:0:
320,290,17662,1,2,0:2:0:0:
144,352,17876,2,0,B|98:347|120:323|76:316,1,78.7500030040742,2|0,0:2|0:0,0:0:0:0:
156,165,18090,6,0,B|143:131|181:73|256:113|260:168|228:241|164:254,1,236.250009012223,10|0,0:2|0:0,0:0:0:0:
90,212,18519,2,0,P|174:182|336:162,1,236.250009012223,2|0,0:2|0:0,0:0:0:0:
479,179,18947,6,0,P|483:203|466:232,1,52.5,2|0,1:2|0:0,0:0:0:0:
369,289,19162,2,0,B|353:281|353:281|339:240|368:200|400:196,1,118.125004506111,2|0,0:2|0:0,0:0:0:0:
404,191,19376,1,2,0:2:0:0:
497,349,19590,2,0,P|459:367|420:371,1,78.7500030040742,2|0,0:2|0:0,0:0:0:0:
243,264,19805,6,0,B|295:228|350:272|350:272|403:321|483:274,1,236.250009012223,10|0,0:2|0:0,0:0:0:0:
404,191,20233,2,0,P|353:252|331:327,1,133.875002553463
336,319,20447,1,2,0:2:0:0:
503,104,20662,6,0,P|496:79|468:60,1,52.5,2|0,1:2|0:0,0:0:0:0:
440,0,20876,2,0,P|382:4|356:69,1,118.125004506111,2|0,0:2|0:0,0:0:0:0:
344,66,21090,6,0,B|353:103|353:103|352:106|352:106|362:145,1,78.7500030040742,2|0,0:2|0:0,0:0:0:0:
484,206,21305,2,0,B|475:243|475:243|476:246|476:246|466:285,1,78.7500030040742,2|0,0:2|0:0,0:0:0:0:
304,369,21519,6,0,P|284:339|295:274,1,78.7500030040742,10|0,0:2|0:0,0:0:0:0:
263,206,21733,2,0,P|298:203|349:245,1,78.7500030040742
396,310,21947,2,0,B|344:346|289:302|289:302|236:253|156:300,1,236.250009012223
18,325,22376,6,0,B|14:348|14:348|15:400|88:406|94:345|94:345|103:241,1,251.999992309571,0|0,1:2|0:0,0:0:0:0:
124,43,23019,1,0,0:0:0:0:
180,210,23233,2,0,P|144:162|64:166,1,125.999996154785,8|0,0:2|0:0,0:0:0:0:
182,329,23662,6,0,P|210:308|224:257,1,62.9999980773926,2|0,0:2|0:0,0:0:0:0:
265,208,23876,2,0,P|258:174|217:141,1,62.9999980773926,2|0,0:2|0:0,0:0:0:0:
100,125,24090,6,0,B|77:121|77:121|25:122|19:195|80:201|80:201|184:210,1,251.999992309571,0|0,1:2|0:0,0:0:0:0:
372,226,24733,1,0,0:0:0:0:
213,118,24947,2,0,P|261:155|266:216,1,125.999996154785,8|0,0:2|0:0,0:0:0:0:
173,330,25376,2,0,B|146:325|116:319,2,47.2499985580445
354,378,25805,6,0,P|383:367|400:345,1,47.2499985580445,0|0,1:2|0:0,0:0:0:0:
459,306,26019,2,0,P|466:275|448:223,1,62.9999980773926
504,162,26233,2,0,P|482:123|403:103,1,125.999996154785
260,278,26662,6,0,B|312:285|335:229|335:229|363:167|435:179,1,210,8|0,0:2|0:0,0:0:0:0:
60,372,27519,6,0,P|43:353|42:319,1,52.5,2|0,1:2|0:0,0:0:0:0:
35,249,27734,2,0,B|71:246|91:268|91:268|111:294|167:289,1,118.125004506111,2|0,0:2|0:0,0:0:0:0:
165,283,27947,6,0,P|184:248|191:191,1,78.7500030040742,2|0,0:2|0:0,0:0:0:0:
245,146,28161,2,0,P|227:110|184:72,1,78.7500030040742,2|0,0:2|0:0,0:0:0:0:
42,84,28376,2,0,B|8:71|-39:94|-15:172|45:188|118:156|131:92,1,236.250009012223,10|0,0:2|0:0,0:0:0:0:
200,82,28805,6,0,P|220:47|213:-8,1,78.7500030040742
124,110,29019,1,2,0:2:0:0:
355,180,29234,6,0,P|350:156|323:136,1,52.5,2|0,1:2|0:0,0:0:0:0:
220,274,29448,2,0,P|278:265|294:209,1,118.125004506111,2|0,0:2|0:0,0:0:0:0:
282,198,29662,6,0,B|271:188|271:188|189:205,1,78.7500030040742,2|0,0:2|0:0,0:0:0:0:
124,110,29876,2,0,B|110:115|110:115|92:197,1,78.7500030040742,2|0,0:2|0:0,0:0:0:0:
75,330,30090,2,0,B|77:349|77:349|88:401|161:393|155:331|155:331|141:239,1,236.250009012223,10|0,0:2|0:0,0:0:0:0:
124,110,30519,6,0,L|107:-1,1,78.7500030040742
16,188,30733,1,2,0:2:0:0:
220,274,30947,6,0,P|244:273|269:251,1,52.5,2|0,1:2|0:0,0:0:0:0:
330,220,31162,2,0,B|311:189|282:183|282:183|248:182|223:131,1,118.125004506111,2|0,0:2|0:0,0:0:0:0:
241,135,31376,1,2,0:2:0:0:
412,236,31590,6,0,B|407:282|383:260|376:304,1,78.7500030040742,2|0,0:2|0:0,0:0:0:0:
451,75,31805,2,0,B|448:55|448:55|437:3|364:11|370:73|370:73|384:165,1,236.250009012223,10|0,0:2|0:0,0:0:0:0:
478,294,32233,6,0,P|497:260|480:191,1,78.7500030040742
382,157,32447,1,2,0:2:0:0:
322,365,32662,6,0,P|339:380|373:382,1,52.5,2|0,1:2|0:0,0:0:0:0:
304,286,32876,2,0,B|264:290|250:321|250:321|236:352|178:364,1,118.125004506111,2|0,0:2|0:0,0:0:0:0:
199,363,33090,1,2,0:2:0:0:
322,211,33305,6,0,B|368:216|346:240|390:247,1,78.7500030040742,2|0,0:2|0:0,0:0:0:0:
322,365,33519,2,0,P|302:285|274:50,1,315.000012016297,10|0,0:2|0:0,0:0:0:0:
179,280,34162,6,0,P|194:246|209:201,1,78.7500030040742,2|0,0:2|0:0,0:0:0:0:
160,15,34376,6,0,P|135:22|116:50,1,52.5,2|0,1:2|0:0,0:0:0:0:
40,31,34590,2,0,P|16:80|27:164,1,118.125004506111,2|0,0:2|0:0,0:0:0:0:
32,151,34805,6,0,B|71:141|71:141|74:142|74:142|116:131,1,78.7500030040742,2|0,0:2|0:0,0:0:0:0:
207,206,35019,2,0,B|246:216|246:216|249:215|249:215|291:226,1,78.7500030040742,2|0,0:2|0:0,0:0:0:0:
384,33,35233,6,0,P|404:63|393:128,1,78.7500030040742,10|0,0:2|0:0,0:0:0:0:
425,196,35447,2,0,P|390:199|339:157,1,78.7500030040742
290,91,35662,2,0,B|342:55|397:99|397:99|450:148|530:101,1,236.250009012223
463,45,36090,6,0,P|432:161|421:246,1,188.999994232178,0|0,1:2|0:0,0:0:0:0:
352,275,36519,2,0,P|365:323|390:376,1,94.499997116089
404,372,36733,1,0,0:0:0:0:
349,185,36947,6,0,B|294:177|265:222|265:222|231:269|170:254,1,188.999994232178,8|0,0:1|0:0,0:0:0:0:
71,232,37376,2,0,P|66:197|93:151,1,62.9999980773926,2|0,0:2|0:0,0:0:0:0:
34,104,37590,2,0,P|57:82|108:72,1,62.9999980773926,2|0,0:2|0:0,0:0:0:0:
155,7,37805,6,0,P|173:113|186:274,1,251.999992309571,0|0,1:2|0:0,0:0:0:0:
95,384,38447,1,0,0:0:0:0:
261,287,38661,2,0,P|224:335|163:340,1,125.999996154785,8|0,0:2|0:0,0:0:0:0:
71,232,39090,2,0,B|58:178,2,47.2499985580445
331,328,39519,6,0,P|344:299|336:244,1,62.9999980773926,0|0,1:2|0:0,0:0:0:0:
367,184,39733,2,0,P|350:156|301:131,1,62.9999980773926
266,196,39947,2,0,P|346:174|444:116,1,188.999994232178
406,39,40376,6,0,B|390:97|442:125|442:125|489:150|470:220,1,188.999994232178,8|0,0:2|0:0,0:0:0:0:
512,269,40805,2,0,P|507:303|483:335,1,62.9999980773926,2|0,0:2|0:0,0:0:0:0:
430,384,41019,1,2,0:2:0:0:
266,196,41233,6,0,B|240:172|248:96|364:105|363:197|336:238,1,204.749990627289,0|0,1:2|0:0,0:0:0:0:
288,284,41662,2,0,P|249:288|215:265,1,68.2499968757631
209,262,41876,1,0,0:0:0:0:
49,307,42090,6,0,B|103:304|112:242|112:242|125:183|187:169,1,204.749990627289,10|0,0:2|0:0,0:0:0:0:
245,118,42519,2,0,P|262:83|263:48,1,68.2499968757631
172,66,42733,2,0,P|162:33|141:6,1,68.2499968757631
79,86,42947,6,0,B|130:110|166:71|166:71|193:33|234:24|272:52,1,204.749990627289,2|0,1:2|0:0,0:0:0:0:
375,145,43376,2,0,B|388:160|388:160|376:196|344:224|288:200,1,136.499993751526
445,48,43805,2,0,P|465:80|465:125,1,68.2499968757631,10|0,0:2|0:0,0:0:0:0:
462,126,44019,1,0,0:0:0:0:
330,326,44233,6,0,P|328:289|352:249,1,68.2499968757631
323,185,44447,2,0,P|347:156|392:144,1,68.2499968757631
436,312,44662,6,0,P|331:288|223:268,1,204.749990627289,2|0,1:2|0:0,0:0:0:0:
163,221,45090,2,0,B|137:216|137:216|171:344,1,136.499993751526,2|0,0:2|0:0,0:0:0:0:
323,185,45519,6,0,B|342:135|321:85|272:67|272:67|304:108|294:152,1,204.749990627289,10|0,0:2|0:0,0:0:0:0:
231,161,45947,2,0,P|186:149|158:119,1,68.2499968757631,2|0,0:2|0:0,0:0:0:0:
93,125,46162,2,0,P|77:81|85:41,1,68.2499968757631
204,22,46376,6,0,P|197:104|150:247,1,204.749990627289,0|0,1:2|0:0,0:0:0:0:
189,310,46805,2,0,P|170:339|119:367,1,68.2499968757631
121,353,47019,1,0,0:0:0:0:
268,235,47233,6,0,B|322:238|331:300|331:300|344:359|406:373,1,204.749990627289,8|0,0:2|0:0,0:0:0:0:
471,337,47662,2,0,P|488:302|489:267,1,68.2499968757631,2|0,0:2|0:0,0:0:0:0:
427,224,47876,2,0,P|417:191|396:164,1,68.2499968757631,2|0,0:2|0:0,0:0:0:0:
146,265,48090,6,0,P|156:287|187:300,1,52.5,2|0,1:2|0:0,0:0:0:0:
244,346,48305,2,0,B|266:316|258:287|258:287|247:256|282:212,1,118.125004506111,2|0,0:2|0:0,0:0:0:0:
280,216,48519,6,0,P|272:177|240:129,1,78.7500030040742,2|0,0:2|0:0,0:0:0:0:
250,60,48733,2,0,P|213:45|155:44,1,78.7500030040742,2|0,0:2|0:0,0:0:0:0:
36,137,48947,6,0,P|49:170|108:198,1,78.7500030040742,10|0,0:2|0:0,0:0:0:0:
146,265,49161,2,0,P|168:238|163:172,1,78.7500030040742
105,71,49376,2,0,B|102:42|102:42|91:-9|18:-1|24:60|24:60|38:152,1,236.250009012223
58,282,49805,6,0,B|124:312|161:250|161:250|198:183|289:229,1,236.250009012223,0|0,1:2|0:0,0:0:0:0:
334,271,50234,2,0,P|329:317|300:361,1,78.7500030040742
292,359,50448,1,0,0:0:0:0:
225,138,50662,6,0,B|212:104|250:46|325:86|329:141|297:214|233:227,1,236.250009012223,8|0,0:2|0:0,0:0:0:0:
174,209,51091,2,0,P|149:183|143:120,1,78.7500030040742
64,113,51305,2,0,P|70:81|112:39,1,78.7500030040742,2|0,0:2|0:0,0:0:0:0:
247,93,51519,6,0,P|240:120|212:143,1,52.5,2|0,1:2|0:0,0:0:0:0:
242,18,51734,2,0,B|279:13|299:38|299:38|319:64|375:59,1,118.125004506111,2|0,0:2|0:0,0:0:0:0:
366,52,51948,6,0,P|393:80|414:134,1,78.7500030040742,2|0,0:2|0:0,0:0:0:0:
476,166,52162,2,0,P|467:204|434:252,1,78.7500030040742,2|0,0:2|0:0,0:0:0:0:
338,373,52376,6,0,P|318:343|329:278,1,78.7500030040742,10|0,0:2|0:0,0:0:0:0:
297,210,52590,2,0,P|332:207|383:249,1,78.7500030040742
430,314,52804,2,0,B|378:350|323:306|323:306|270:257|190:304,1,236.250009012223
79,324,53233,6,0,B|117:348|117:348|149:165,1,204.749990627289,0|0,1:2|0:0,0:0:0:0:
140,84,53662,2,0,P|98:91|71:125,1,68.2499968757631
71,122,53877,1,0,0:0:0:0:
227,183,54090,2,0,B|272:214|320:176|320:176|366:133|435:174,1,204.749990627289,8|0,0:2|0:0,0:0:0:0:
483,213,54519,2,0,P|485:245|456:290,1,68.2499968757631,2|0,0:2|0:0,0:0:0:0:
450,286,54733,1,2,0:2:0:0:
268,120,54947,6,0,B|212:68|252:-42|360:14|312:80,1,204.749990627289,0|0,1:2|0:0,0:0:0:0:
315,181,55376,2,0,P|284:195|250:194,1,68.2499968757631
227,183,55590,1,0,0:0:0:0:
110,42,55805,6,0,B|79:87|117:135|117:135|160:181|119:250,1,204.749990627289,10|0,0:2|0:0,0:0:0:0:
68,287,56233,2,0,P|49:257|70:190,1,68.2499968757631
126,146,56447,2,0,P|139:113|206:92,1,68.2499968757631
248,259,56662,6,0,P|139:252|18:211,1,204.749990627289,2|0,1:2|0:0,0:0:0:0:
35,148,57090,2,0,P|22:122|16:64,1,68.2499968757631
30,63,57305,1,0,0:0:0:0:
227,183,57519,2,0,B|242:196|242:196|229:251|213:319,1,136.499993751526,10|0,0:2|0:0,0:0:0:0:
45,374,57947,6,0,P|57:337|94:310,1,68.2499968757631
91,240,58161,2,0,P|124:221|170:227,1,68.2499968757631
227,183,58376,6,0,B|280:171|310:224|310:224|337:281|416:269,1,204.749990627289,2|0,1:2|0:0,0:0:0:0:
470,136,58805,2,0,P|388:150|404:215,1,136.499993751526,2|0,0:2|0:0,0:0:0:0:
425,339,59233,6,0,B|428:352|428:352|445:411|516:391|507:339|507:339|480:247,1,204.749990627289,10|0,0:2|0:0,0:0:0:0:
478,270,59661,2,0,B|443:264|443:264|442:265|442:265|382:254,1,68.2499968757631,2|0,0:2|0:0,0:0:0:0:
343,341,59876,2,0,B|308:347|308:347|307:346|307:346|247:357,1,68.2499968757631
165,279,60090,6,0,B|127:270|99:229|147:168|213:180|262:240|246:307,1,204.749990627289,0|0,1:2|0:0,0:0:0:0:
191,357,60519,2,0,P|158:364|103:319,1,68.2499968757631
114,341,60733,1,0,0:0:0:0:
59,215,60947,6,0,B|57:159|114:136|114:136|173:116|171:36,1,204.749990627289,8|0,0:2|0:0,0:0:0:0:
71,0,61376,2,0,P|82:56|127:92,1,68.2499968757631,2|0,0:2|0:0,0:0:0:0:
149,207,61590,2,0,P|138:263|93:299,1,68.2499968757631,2|0,0:2|0:0,0:0:0:0:
8,343,61804,6,0,P|18:318|49:305,1,52.5,2|0,1:2|0:0,0:0:0:0:
205,331,62019,2,0,P|147:365|71:373,1,118.125004506111,2|0,0:2|0:0,0:0:0:0:
77,370,62233,6,0,B|93:358|93:358|157:378,1,78.7500030040742,2|0,0:2|0:0,0:0:0:0:
261,273,62447,2,0,B|278:282|278:282|286:349,1,78.7500030040742,2|0,0:2|0:0,0:0:0:0:
148,206,62662,6,0,P|133:176|145:106,1,78.7500030040742,10|0,0:2|0:0,0:0:0:0:
207,91,62876,2,0,P|228:65|297:47,1,78.7500030040742
321,131,63090,2,0,B|258:133|232:69|232:69|210:3|121:6,1,236.250009012223
75,49,63519,6,0,P|32:71|8:119,1,78.7500030040742,0|0,1:2|0:0,0:0:0:0:
16,117,63733,1,0,0:0:0:0:
112,267,63947,2,0,B|149:268|164:230|164:230|178:190|231:192,1,136.499993751526
373,245,64376,6,0,B|381:257|381:257|364:334,1,68.2499968757631,8|0,0:2|0:0,0:0:0:0:
392,261,64590,2,0,B|389:275|389:275|331:327,1,68.2499968757631
229,382,64805,6,0,P|205:354|208:296,1,68.2499968757631
214,304,65019,1,2,0:2:0:0:
322,179,65233,6,0,P|341:151|343:93,1,68.2499968757631,2|0,1:2|0:0,0:0:0:0:
271,63,65447,2,0,P|253:34|200:8,1,68.2499968757631,2|0,0:2|0:0,0:0:0:0:
146,157,65662,2,0,B|158:166|158:166|266:136,1,102.374995313645,2|0,0:2|0:0,0:0:0:0:
261,137,65876,1,2,0:2:0:0:
63,125,66090,6,0,B|40:176|84:218|84:218|131:259|99:332,1,204.749990627289,10|0,0:2|0:0,0:0:0:0:
50,363,66519,2,0,P|25:357|-4:352,2,52.5
146,157,66947,6,0,B|202:155|221:209|221:209|238:262|308:270,1,188.999994232178,0|0,1:2|0:0,0:0:0:0:
385,241,67376,2,0,P|399:220|402:181,1,62.9999980773926
390,164,67590,1,2,0:2:0:0:
151,235,67805,6,0,B|101:262|69:326|107:382|107:382|100:330|119:285|154:265,1,294,10|0,0:2|0:0,0:0:0:0:
230,231,68662,6,0,B|299:195|341:256|341:256|389:327|463:281,1,251.999992309571,0|10,0:0|0:2,0:0:0:0:
230,231,70376,6,0,P|211:171|219:109,1,125.999996154785,2|0,0:2|0:0,0:0:0:0:
291,69,71019,2,0,P|301:57|316:51,1,31.4999990386963
395,97,71233,6,0,B|329:128|288:63|288:63|246:2|177:38,2,251.999992309571,8|0|8,0:2|0:0|0:2,0:0:0:0:
177,37,73697,6,0,L|170:77,1,31.4999990386963
352,349,74662,5,10,0:2:0:0:
432,224,75519,6,0,B|367:188|324:257|324:257|282:318|213:282,1,251.999992309571,0|10,0:0|0:2,0:0:0:0:
431,279,77233,2,0,B|366:315|323:245|323:245|281:184|212:220,1,251.999992309571,2|10,0:2|0:2,0:0:0:0:
431,279,78947,6,0,B|460:42|460:42|471:-36|378:-42|373:34|373:34|357:157,1,503.999984619141
432,280,81519,1,2,0:2:0:0:
165,339,82376,6,0,B|134:268|198:224|198:224|269:174|230:98,1,257.249992149353,2|0,0:1|0:0,0:0:0:0:
225,94,83233,2,0,P|178:88|156:140,1,110.249996635437,10|0,0:1|0:0,0:0:0:0:
165,149,83662,1,2,0:1:0:0:
243,306,84090,6,0,B|291:350|378:333|440:285|415:189|342:188|317:237,1,293.999991027832,2|8,0:2|0:2,0:0:0:0:
324,225,85376,6,0,P|312:283|315:338,1,110.249996635437,2|0,0:1|0:0,0:0:0:0:
325,344,85805,1,2,0:1:0:0:
479,110,86662,5,10,0:1:0:0:
469,35,87090,2,0,B|431:35|413:57|426:63|405:87|365:82,1,110.249996635437,2|0,0:1|0:0,0:0:0:0:
302,71,87519,6,0,B|264:14|370:-32|398:28|405:103|352:172,1,257.249992149353
352,172,88376,2,0,P|329:187|231:195,1,110.249996635437,8|0,0:2|0:0,0:0:0:0:
175,229,88805,2,0,P|161:214|153:182,1,36.749998878479,2|0,0:1|0:0,0:0:0:0:
159,181,89019,1,2,0:2:0:0:
299,280,89233,6,0,P|298:311|284:341,1,42,2|0,0:1|0:0,0:0:0:0:
210,317,89447,2,0,P|184:333|151:339,1,42,2|0,0:2|0:0,0:0:0:0:
115,280,89662,2,0,P|72:249|51:206,1,84,2|2,0:2|0:2,0:0:0:0:
117,27,90090,6,0,L|129:90,1,42,10|0,0:1|0:0,0:0:0:0:
194,14,90305,2,0,L|206:77,1,42,2|0,0:2|0:0,0:0:0:0:
275,4,90519,2,0,L|303:159,1,126,2|0,0:1|0:0,0:0:0:0:
301,145,90947,6,0,B|348:132|377:171|377:171|413:217|469:196,2,168,0|0|8,0:0|0:0|0:1,0:0:0:0:
320,220,92019,1,0,0:0:0:0:
441,125,92233,2,0,P|455:85|444:32,1,84,2|2,0:1|0:2,0:0:0:0:
275,4,92662,6,0,B|189:-15|154:65|154:65|112:162|21:128,1,312.37500595808,2|0,0:1|0:0,0:0:0:0:
60,48,93519,2,0,P|81:92|96:232,1,178.500003404617,10|2,0:1|0:1,0:0:0:0:
40,346,94162,6,0,P|29:333|43:284,1,44.6250008511543
97,219,94376,2,0,B|195:204|228:297|228:297|272:404|373:378,1,349.124990677357
481,319,95233,6,0,B|517:327|562:256|466:207|406:267,1,188.999994232178,8|0,0:1|0:0,0:0:0:0:
347,317,95662,6,0,P|351:354|373:382,1,68.2499968757631,2|0,0:1|0:0,0:0:0:0:
391,384,95876,1,0,1:2:0:0:
396,76,96090,6,0,B|403:55|389:27|363:17|363:17|337:7|308:21|298:47|298:47|288:73|301:102|327:112|327:112|355:125|370:156|367:186|367:186|363:217|339:241|309:247|309:247|278:252|248:238|233:211|233:211|219:185|223:151|244:128|244:128,1,551.25002102852,6|0,1:1|0:0,0:0:0:0:
382,171,96947,2,0,P|347:246|214:205,1,236.250009012223,10|0,0:1|0:0,0:0:0:0:
132,75,97376,6,0,L|145:23,1,35,2|0,0:1|0:0,0:0:0:0:
139,80,97519,6,0,L|182:113,1,35,2|0,0:2|0:0,0:0:0:0:
132,82,97662,6,0,L|81:102,1,35,2|0,0:2|0:0,0:0:0:0:
296,4,97805,6,0,B|287:85|287:85|300:104|300:104|296:148|296:148|303:149|303:149|296:148|296:148|290:196|290:196|279:210|279:210|264:311|264:311|252:381|340:393|349:327|349:327|362:231,1,551.25002102852,4|0,1:1|0:0,0:0:0:0:
265,244,98662,6,0,L|255:316,1,62.9999980773926,8|0,0:1|0:0,0:0:0:0:
359,316,98876,2,0,L|367:254,1,62.9999980773926,2|0,0:3|0:0,0:0:0:0:
450,117,99090,6,0,L|437:65,1,35,2|0,0:1|0:0,0:0:0:0:
443,122,99233,6,0,L|400:155,1,35,2|0,0:2|0:0,0:0:0:0:
450,124,99376,6,0,L|501:144,1,35,2|0,0:2|0:0,0:0:0:0:
296,4,99519,6,0,B|270:-21|230:-25|201:-4|201:-4|171:16|162:54|177:87|177:87|191:120|180:158|152:179|152:179|122:201|83:200|56:177,1,393.750015020371,6|0,1:1|0:0,0:0:0:0:
104,122,100162,2,0,P|99:108|111:118,1,39.3750015020371,0|0,1:2|0:0,0:0:0:0:
93,338,100376,6,0,P|23:306|21:207,1,157.500006008148,10|0,0:1|0:0,0:0:0:0:
245,57,100805,2,0,B|262:39|290:36|311:50|311:50|332:65|338:92|327:115|327:115|318:138|325:165|345:180|345:180|366:194|391:197|414:185,1,236.250009012223,2|0,0:1|0:0,0:0:0:0:
433,234,101233,6,0,B|462:230|485:206|486:176|486:176|487:146|467:120|437:114|437:114|409:109|379:124|369:152|369:152|346:260|346:260|336:286|308:301|281:295|281:295|254:288|235:263|238:235|238:235|241:207|264:185|291:185,1,551.25002102852,4|0,1:1|0:0,0:0:0:0:
413,103,102090,6,0,P|447:100|491:148,1,62.9999980773926,8|0,0:1|0:0,0:0:0:0:
334,297,102305,2,0,P|305:310|274:306,1,62.9999980773926,2|0,0:3|0:0,0:0:0:0:
101,93,102519,6,0,B|92:69|92:69|77:13|165:-7|177:68|177:68|191:149,1,220.499993270874,2|0,0:1|0:0,0:0:0:0:
124,176,102947,6,0,B|79:237|-50:137|84:24|191:37|251:88|269:165,1,393.750015020371,6|0,1:1|0:0,0:0:0:0:
349,153,103590,2,0,P|344:188|295:229,1,52.5,0|0,1:2|0:0,0:0:0:0:
148,322,103805,6,0,P|201:242|266:238,1,157.500006008148,10|2,0:1|0:2,0:0:0:0:
361,351,104233,6,0,L|348:403,1,35,2|0,0:1|0:0,0:0:0:0:
354,346,104376,6,0,L|311:313,1,35,2|0,0:2|0:0,0:0:0:0:
361,344,104519,6,0,L|412:324,1,35,2|0,0:2|0:0,0:0:0:0:
511,174,104662,6,0,B|430:165|430:165|411:178|411:178|367:174|367:174|366:181|366:181|367:174|367:174|319:168|319:168|305:157|305:157|204:142|204:142|134:130|122:218|188:227|188:227|284:240,1,551.25002102852,4|0,1:1|0:0,0:0:0:0:
271,143,105519,6,0,L|199:133,1,62.9999980773926,8|0,0:1|0:0,0:0:0:0:
199,237,105733,2,0,L|261:245,1,62.9999980773926,2|0,0:3|0:0,0:0:0:0:
375,63,105947,6,0,L|362:11,1,35,2|0,0:1|0:0,0:0:0:0:
368,68,106090,6,0,L|325:101,1,35,2|0,0:2|0:0,0:0:0:0:
375,70,106233,6,0,L|426:90,1,35,2|0,0:2|0:0,0:0:0:0:
210,14,106376,6,0,B|174:22|149:53|151:89|151:89|151:125|178:153|214:159|214:159|250:165|275:195|278:230|278:230|280:267|258:299|229:318,1,393.750015020371,6|0,1:1|0:0,0:0:0:0:
255,378,107019,2,0,P|228:381|205:361,1,39.3750015020371,0|0,1:2|0:0,0:0:0:0:
63,172,107233,6,0,B|153:170|109:242|213:236,1,157.500006008148,10|0,0:1|0:0,0:0:0:0:
374,75,107662,2,0,B|381:44|381:44|396:-12|307:-38|296:43|296:43|282:124,1,236.250009012223,2|0,0:1|0:0,0:0:0:0:
358,152,108090,6,0,B|388:158|420:144|438:117|438:117|456:92|455:57|437:31|437:31|418:5|386:-7|355:0|355:0|324:6|301:31|291:60|291:60|279:97|246:123|208:130|208:130|170:137|129:127|101:101|101:101,1,551.25002102852,4|0,1:1|0:0,0:0:0:0:
64,175,108947,6,0,P|40:152|50:81,1,62.9999980773926,8|0,0:1|0:0,0:0:0:0:
88,64,109162,2,0,P|93:31|156:-1,1,62.9999980773926,2|0,0:3|0:0,0:0:0:0:
284,187,109376,6,0,B|271:261|271:261|274:268|274:268|257:364,1,157.5,2|0,0:1|0:0,0:0:0:0:
115,262,109805,6,0,B|92:246|86:216|99:193|99:193|112:170|140:159|165:169|165:169|190:178|204:205|197:231|197:231|189:259|199:289|223:307|223:307|247:323|278:323|302:307|302:307|326:290|337:260|329:232|329:232|320:204|296:184|266:182|266:182,1,551.25002102852,6|0,1:1|0:0,0:0:0:0:
187,287,110662,2,0,P|286:331|340:233,1,236.250009012223,10|0,0:1|0:0,0:0:0:0:
394,91,111091,6,0,L|381:39,1,35,2|0,0:1|0:0,0:0:0:0:
387,96,111234,6,0,L|344:129,1,35,2|0,0:2|0:0,0:0:0:0:
394,98,111377,6,0,L|445:118,1,35,2|0,0:2|0:0,0:0:0:0:
502,215,111519,6,0,B|458:209|458:209|427:223|427:223|345:212|345:212|346:207|346:207|346:212|346:212|271:203|271:203|245:182|245:182|214:176|214:176|234:233|234:233|342:250|342:250|342:257|342:257|342:250|342:250|413:261,1,551.25002102852,4|0,1:1|0:0,0:0:0:0:
266,171,112377,6,0,L|193:160,1,62.9999980773926,8|0,0:1|0:0,0:0:0:0:
398,275,112590,2,0,L|460:284,1,62.9999980773926,2|0,0:3|0:0,0:0:0:0:
231,351,112805,6,0,L|223:297,1,35,2|0,0:1|0:0,0:0:0:0:
233,357,112947,6,0,L|193:394,1,35,2|0,0:2|0:0,0:0:0:0:
239,353,113090,6,0,L|291:367,1,35,2|0,0:2|0:0,0:0:0:0:
98,309,113234,6,0,B|73:283|69:243|90:214|90:214|110:184|148:175|181:190|181:190|214:204|252:193|273:165|273:165|295:135|294:96|271:69,1,393.750015020371,6|0,1:1|0:0,0:0:0:0:
209,109,113877,2,0,P|214:123|202:113,1,39.3750015020371,0|0,1:2|0:0,0:0:0:0:
366,97,114090,6,0,P|354:35|257:2,1,157.500006008148,10|0,0:1|0:0,0:0:0:0:
151,256,114519,2,0,B|142:280|142:280|127:336|215:356|227:281|227:281|242:189,1,236.250009012223,2|0,0:1|0:0,0:0:0:0:
165,181,114947,6,0,B|135:175|103:189|85:216|85:216|67:241|68:276|86:302|86:302|105:328|137:340|168:333|168:333|199:327|222:302|232:273|232:273|244:236|277:210|315:203|315:203|353:196|394:206|422:232|422:232,1,551.25002102852,4|0,1:1|0:0,0:0:0:0:
482,345,115805,6,0,P|453:358|422:354,1,62.9999980773926,8|0,0:1|0:0,0:0:0:0:
289,205,116020,2,0,P|318:192|349:196,1,62.9999980773926,2|0,0:3|0:0,0:0:0:0:
476,61,116233,2,0,P|470:186|431:315,1,220.499993270874,2|0,0:1|0:0,0:0:0:0:
229,330,116662,6,0,B|175:350|84:290|147:172|233:166|348:216|369:317,1,393.750015020371,6|0,1:1|0:0,0:0:0:0:
334,383,117305,2,0,P|314:367|306:315,1,52.5,0|0,1:2|0:0,0:0:0:0:
224,133,117519,6,0,P|279:135|373:189,1,157.500006008148,10|0,0:1|0:0,0:0:0:0:
111,311,117948,6,0,L|59:324,1,35,2|0,0:1|0:0,0:0:0:0:
118,311,118090,6,0,L|138:260,1,35,2|0,0:2|0:0,0:0:0:0:
116,318,118233,6,0,L|149:361,1,35,2|0,0:2|0:0,0:0:0:0:
79,151,118377,6,0,B|160:160|160:160|179:147|179:147|223:151|223:151|224:144|224:144|223:151|223:151|271:157|271:157|285:168|285:168|386:183|386:183|456:195|468:107|402:98|402:98|306:85,1,551.25002102852,4|0,1:1|0:0,0:0:0:0:
341,186,119234,6,0,L|413:196,1,62.9999980773926,8|0,0:1|0:0,0:0:0:0:
416,91,119448,2,0,L|354:83,1,62.9999980773926,2|0,0:3|0:0,0:0:0:0:
258,274,119662,6,0,L|271:326,1,35,2|0,0:1|0:0,0:0:0:0:
258,267,119805,6,0,L|207:247,1,35,2|0,0:2|0:0,0:0:0:0:
265,269,119947,6,0,L|308:236,1,35,2|0,0:2|0:0,0:0:0:0:
97,123,120090,6,0,B|52:113|52:113|29:112|9:127|5:150|5:150|1:172|12:195|34:203|34:203|116:220|116:220|136:228|148:249|143:270|143:270|138:291|119:305|97:303|97:303|76:301|59:283|59:262,1,393.750015020371,6|0,1:1|0:0,0:0:0:0:
32,361,120733,2,0,P|14:341|10:303,1,39.3750015020371,0|0,1:2|0:0,0:0:0:0:
220,285,120947,6,0,P|185:347|104:383,1,157.500006008148,10|0,0:1|0:0,0:0:0:0:
97,123,121376,2,0,B|160:99|198:152|198:152|240:213|316:177,1,236.250009012223,2|0,0:1|0:0,0:0:0:0:
408,136,121805,6,0,B|420:88|420:88|430:31|352:9|333:74|333:74|284:263|284:263|262:331|348:364|368:288|368:288|382:235,1,551.25002102852,4|0,1:1|0:0,0:0:0:0:
437,245,122662,6,0,P|409:216|355:208,1,62.9999980773926,8|0,0:1|0:0,0:0:0:0:
323,122,122877,2,0,P|289:120|244:174,1,62.9999980773926,2|0,0:3|0:0,0:0:0:0:
119,215,123091,6,0,B|132:289|132:289|129:296|129:296|146:392,1,157.5,2|0,0:1|0:0,0:0:0:0:
156,384,123519,5,2,0:1:0:0:
