osu file format v14

[General]
AudioFilename: audio.mp3
AudioLeadIn: 0
PreviewTime: 15
Countdown: 0
SampleSet: Soft
StackLeniency: 0.7
Mode: 0
LetterboxInBreaks: 0
WidescreenStoryboard: 1

[Editor]
Bookmarks: 13804,27519,41233,54947,68662,82376,96090,109805,123519
DistanceSpacing: 0.1
BeatDivisor: 4
GridSize: 16
TimelineZoom: 1.5

[Metadata]
Title:Idfc (tarro Remix) (Cut Ver.)
TitleUnicode:Idfc (tarro Remix) (Cut Ver.)
Artist:blackbear
ArtistUnicode:blackbear
Creator:Mimari
Version:0pp's insane
Source:
Tags:deadroses english hip hop rap trap electronic alternative r&b van vanchanical opp 0pp oppinosu 0ppinosu some hero ldfc
BeatmapID:2842731
BeatmapSetID:1354939

[Difficulty]
HPDrainRate:4
CircleSize:3.7
OverallDifficulty:7.5
ApproachRate:9
SliderMultiplier:2
SliderTickRate:1

[Events]
//Background and Video events
0,0,"idfc.jpg",0,0
//Break Periods
2,72933,73847
2,79147,80704
//Storyboard Layer 0 (Background)
//Storyboard Layer 1 (Fail)
//Storyboard Layer 2 (Pass)
//Storyboard Layer 3 (Foreground)
//Storyboard Layer 4 (Overlay)
//Storyboard Sound Samples

[TimingPoints]
13805,428.571428571429,4,2,1,60,1,0
13806,-66.6666666666667,4,2,1,60,0,0
14126,-66.6666666666667,4,2,1,5,0,0
14232,-166.666666666667,4,2,1,60,0,0
14340,-166.666666666667,4,2,1,5,0,0
14447,-166.666666666667,4,2,1,60,0,0
14554,-166.666666666667,4,2,1,5,0,0
14662,-83.3333333333333,4,2,1,60,0,0
14983,-83.3333333333333,4,2,1,5,0,0
15090,-83.3333333333333,4,2,1,60,0,0
15412,-83.3333333333333,4,2,1,5,0,0
15519,-66.6666666666667,4,2,1,60,0,0
15840,-66.6666666666667,4,2,1,5,0,0
15947,-166.666666666667,4,2,1,60,0,0
16054,-166.666666666667,4,2,1,5,0,0
16162,-166.666666666667,4,2,1,60,0,0
16269,-166.666666666667,4,2,1,5,0,0
16376,-83.3333333333333,4,2,1,60,0,0
16697,-83.3333333333333,4,2,1,5,0,0
16804,-83.3333333333333,4,2,1,60,0,0
17126,-83.3333333333333,4,2,1,5,0,0
17233,-166.666666666667,4,2,1,60,0,0
17340,-166.666666666667,4,2,1,5,0,0
17447,-166.666666666667,4,2,1,60,0,0
17554,-166.666666666667,4,2,1,5,0,0
17662,-166.666666666667,4,2,1,60,0,0
18090,-83.3333333333333,4,2,1,60,0,0
18412,-83.3333333333333,4,2,1,5,0,0
18519,-83.3333333333333,4,2,1,60,0,0
18947,-166.666666666667,4,2,1,60,0,0
19055,-166.666666666667,4,2,1,5,0,0
19162,-166.666666666667,4,2,1,60,0,0
19269,-166.666666666667,4,2,1,5,0,0
19376,-166.666666666667,4,2,1,60,0,0
19805,-83.3333333333333,4,2,1,60,0,0
20340,-83.3333333333333,4,2,1,5,0,0
20447,-83.3333333333333,4,2,1,60,0,0
20662,-66.6666666666667,4,2,1,60,0,0
20769,-66.6666666666667,4,2,1,5,0,0
20876,-66.6666666666667,4,2,1,60,0,0
20983,-66.6666666666667,4,2,1,5,0,0
21090,-100,4,2,1,60,0,0
21197,-100,4,2,1,5,0,0
21305,-100,4,2,1,60,0,0
21412,-100,4,2,1,5,0,0
21519,-166.666666666667,4,2,1,60,0,0
21626,-166.666666666667,4,2,1,5,0,0
21733,-166.666666666667,4,2,1,60,0,0
21840,-166.666666666667,4,2,1,5,0,0
21947,-333.333333333334,4,2,1,60,0,0
22269,-333.333333333334,4,2,1,5,0,0
22376,-100,4,2,1,60,0,0
25376,-166.666666666667,4,2,1,60,0,0
25805,-100,4,2,1,60,0,0
27518,-66.6666666666667,4,2,1,60,0,0
27626,-66.6666666666667,4,2,1,5,0,0
27733,-66.6666666666667,4,2,1,60,0,0
27944,-166.666666666667,4,2,1,60,0,0
28055,-166.666666666667,4,2,1,5,0,0
28162,-166.666666666667,4,2,1,60,0,0
28269,-166.666666666667,4,2,1,5,0,0
28374,-83.3333333333333,4,2,1,60,0,0
28697,-83.3333333333333,4,2,1,5,0,0
28805,-83.3333333333333,4,2,1,60,0,0
29126,-83.3333333333333,4,2,1,5,0,0
29231,-66.6666666666667,4,2,1,60,0,0
29340,-66.6666666666667,4,2,1,5,0,0
29447,-66.6666666666667,4,2,1,60,0,0
29659,-166.666666666667,4,2,1,60,0,0
29769,-166.666666666667,4,2,1,5,0,0
29876,-166.666666666667,4,2,1,60,0,0
29983,-166.666666666667,4,2,1,5,0,0
30088,-83.3333333333333,4,2,1,60,0,0
30412,-83.3333333333333,4,2,1,5,0,0
30519,-83.3333333333333,4,2,1,60,0,0
30840,-83.3333333333333,4,2,1,5,0,0
30945,-166.666666666667,4,2,1,60,0,0
31055,-166.666666666667,4,2,1,5,0,0
31162,-166.666666666667,4,2,1,60,0,0
31269,-166.666666666667,4,2,1,5,0,0
31376,-166.666666666667,4,2,1,60,0,0
31802,-83.3333333333333,4,2,1,60,0,0
32126,-83.3333333333333,4,2,1,5,0,0
32233,-83.3333333333333,4,2,1,60,0,0
32659,-166.666666666667,4,2,1,60,0,0
32769,-166.666666666667,4,2,1,5,0,0
32876,-166.666666666667,4,2,1,60,0,0
32983,-166.666666666667,4,2,1,5,0,0
33090,-166.666666666667,4,2,1,60,0,0
33517,-83.3333333333333,4,2,1,60,0,0
34055,-83.3333333333333,4,2,1,5,0,0
34162,-83.3333333333333,4,2,1,60,0,0
34374,-66.6666666666667,4,2,1,60,0,0
34483,-66.6666666666667,4,2,1,5,0,0
34590,-66.6666666666667,4,2,1,60,0,0
34697,-66.6666666666667,4,2,1,5,0,0
34802,-100,4,2,1,60,0,0
34912,-100,4,2,1,5,0,0
35019,-100,4,2,1,60,0,0
35126,-100,4,2,1,5,0,0
35231,-166.666666666667,4,2,1,60,0,0
35340,-166.666666666667,4,2,1,5,0,0
35447,-166.666666666667,4,2,1,60,0,0
35555,-166.666666666667,4,2,1,5,0,0
35659,-333.333333333334,4,2,1,60,0,0
35983,-333.333333333334,4,2,1,5,0,0
36088,-100,4,2,1,60,0,0
36947,-100,4,2,3,60,0,0
37055,-100,4,2,1,60,0,0
39088,-166.666666666667,4,2,1,60,0,0
39517,-100,4,2,1,60,0,0
41233,-83.3333333333333,4,2,1,60,0,0
41983,-83.3333333333333,4,2,1,5,0,0
42090,-83.3333333333333,4,2,1,60,0,0
42412,-83.3333333333333,4,2,1,5,0,0
42519,-83.3333333333333,4,2,1,60,0,0
43697,-83.3333333333333,4,2,1,5,0,0
43805,-83.3333333333333,4,2,1,60,0,0
44126,-83.3333333333333,4,2,1,5,0,0
44233,-83.3333333333333,4,2,1,60,0,0
45840,-83.3333333333333,4,2,1,5,0,0
45947,-83.3333333333333,4,2,1,60,0,0
48090,-66.6666666666667,4,2,1,60,0,0
48197,-66.6666666666667,4,2,1,5,0,0
48305,-66.6666666666667,4,2,1,60,0,0
48412,-66.6666666666667,4,2,1,5,0,0
48518,-100,4,2,1,60,0,0
48626,-100,4,2,1,5,0,0
48733,-100,4,2,1,60,0,0
48840,-100,4,2,1,5,0,0
48947,-166.666666666667,4,2,1,60,0,0
49055,-166.666666666667,4,2,1,5,0,0
49162,-166.666666666667,4,2,1,60,0,0
49269,-166.666666666667,4,2,1,5,0,0
49375,-333.333333333334,4,2,1,60,0,0
49697,-333.333333333334,4,2,1,5,0,0
49804,-100,4,2,1,60,0,0
51519,-66.6666666666667,4,2,1,60,0,0
51626,-66.6666666666667,4,2,1,5,0,0
51733,-66.6666666666667,4,2,1,60,0,0
51840,-66.6666666666667,4,2,1,5,0,0
51947,-100,4,2,1,60,0,0
52055,-100,4,2,1,5,0,0
52162,-100,4,2,1,60,0,0
52269,-100,4,2,1,5,0,0
52376,-166.666666666667,4,2,1,60,0,0
52483,-166.666666666667,4,2,1,5,0,0
52590,-166.666666666667,4,2,1,60,0,0
52697,-166.666666666667,4,2,1,5,0,0
52805,-333.333333333334,4,2,1,60,0,0
53126,-333.333333333334,4,2,1,5,0,0
53233,-100,4,2,1,60,0,0
54947,-83.3333333333333,4,2,1,60,0,0
55697,-83.3333333333333,4,2,1,5,0,0
55805,-83.3333333333333,4,2,1,60,0,0
56126,-83.3333333333333,4,2,1,5,0,0
56233,-83.3333333333333,4,2,1,60,0,0
57840,-83.3333333333333,4,2,1,5,0,0
57947,-83.3333333333333,4,2,1,60,0,0
59555,-83.3333333333333,4,2,1,5,0,0
59662,-83.3333333333333,4,2,1,60,0,0
61805,-66.6666666666667,4,2,1,60,0,0
61912,-66.6666666666667,4,2,1,5,0,0
62019,-66.6666666666667,4,2,1,60,0,0
62126,-66.6666666666667,4,2,1,5,0,0
62233,-100,4,2,1,60,0,0
62340,-100,4,2,1,5,0,0
62447,-100,4,2,1,60,0,0
62555,-100,4,2,1,5,0,0
62662,-166.666666666667,4,2,1,60,0,0
62769,-166.666666666667,4,2,1,5,0,0
62876,-166.666666666667,4,2,1,60,0,0
62983,-166.666666666667,4,2,1,5,0,0
63090,-333.333333333334,4,2,1,60,0,0
63412,-333.333333333334,4,2,1,5,0,0
63519,-100,4,2,1,60,0,0
65233,-66.6666666666667,4,2,1,60,0,0
65340,-66.6666666666667,4,2,1,5,0,0
65447,-66.6666666666667,4,2,1,60,0,0
65555,-66.6666666666667,4,2,1,5,0,0
65662,-100,4,2,1,60,0,0
65769,-100,4,2,1,5,0,0
65876,-100,4,2,1,60,0,0
68662,-166.666666666667,4,2,2,60,0,0
76376,-166.666666666667,4,2,2,60,0,0
76805,-166.666666666667,4,2,2,60,0,0
82376,-166.666666666667,4,2,2,50,0,0
91805,-166.666666666667,4,2,3,50,0,0
92019,-166.666666666667,4,2,2,50,0,0
95126,-166.666666666667,4,2,2,5,0,0
95233,-83.3333333333333,4,2,2,60,0,0
95555,-83.3333333333333,4,2,2,5,0,0
95662,-83.3333333333333,4,2,2,60,0,0
95769,-83.3333333333333,4,2,2,5,0,0
95876,-83.3333333333333,4,2,1,70,0,0
95983,-83.3333333333333,4,2,1,5,0,0
96090,-66.6666666666667,4,2,1,75,0,0
96840,-66.6666666666667,4,2,1,5,0,0
96947,-66.6666666666667,4,2,1,75,0,0
97376,-66.6666666666667,4,2,1,75,0,0
98555,-66.6666666666667,4,2,1,5,0,0
98662,-66.6666666666667,4,2,1,75,0,0
98769,-66.6666666666667,4,2,1,5,0,0
98876,-66.6666666666667,4,2,1,75,0,0
100055,-66.6666666666667,4,2,1,5,0,0
100162,-66.6666666666667,4,2,1,75,0,0
100269,-66.6666666666667,4,2,1,5,0,0
100376,-66.6666666666667,4,2,1,75,0,0
100697,-66.6666666666667,4,2,1,5,0,0
100805,-66.6666666666667,4,2,1,75,0,0
101126,-66.6666666666667,4,2,1,5,0,0
101233,-66.6666666666667,4,2,1,75,0,0
102197,-66.6666666666667,4,2,1,5,0,0
102305,-66.6666666666667,4,2,1,75,0,0
102840,-66.6666666666667,4,2,1,5,0,0
102947,-66.6666666666667,4,2,1,75,0,0
103483,-66.6666666666667,4,2,1,5,0,0
103590,-66.6666666666667,4,2,1,75,0,0
103697,-66.6666666666667,4,2,1,5,0,0
103805,-66.6666666666667,4,2,1,75,0,0
104233,-66.6666666666667,4,2,1,75,0,0
105412,-66.6666666666667,4,2,1,5,0,0
105519,-66.6666666666667,4,2,1,75,0,0
105626,-66.6666666666667,4,2,1,5,0,0
105733,-66.6666666666667,4,2,1,75,0,0
107019,-66.6666666666667,4,2,1,75,0,0
107126,-66.6666666666667,4,2,1,5,0,0
107233,-66.6666666666667,4,2,1,75,0,0
107555,-66.6666666666667,4,2,1,5,0,0
107662,-66.6666666666667,4,2,1,75,0,0
107983,-66.6666666666667,4,2,1,5,0,0
108090,-66.6666666666667,4,2,1,75,0,0
108840,-66.6666666666667,4,2,1,5,0,0
108947,-66.6666666666667,4,2,1,75,0,0
109697,-66.6666666666667,4,2,1,5,0,0
109805,-66.6666666666667,4,2,1,75,0,0
110555,-66.6666666666667,4,2,1,5,0,0
110662,-66.6666666666667,4,2,1,75,0,0
112269,-66.6666666666667,4,2,1,5,0,0
112376,-66.6666666666667,4,2,1,75,0,0
112483,-66.6666666666667,4,2,1,5,0,0
112590,-66.6666666666667,4,2,1,75,0,0
113769,-66.6666666666667,4,2,1,5,0,0
113876,-66.6666666666667,4,2,1,75,0,0
113983,-66.6666666666667,4,2,1,5,0,0
114090,-66.6666666666667,4,2,1,75,0,0
114412,-66.6666666666667,4,2,1,5,0,0
114519,-66.6666666666667,4,2,1,75,0,0
114840,-66.6666666666667,4,2,1,5,0,0
114947,-66.6666666666667,4,2,1,75,0,0
115697,-66.6666666666667,4,2,1,5,0,0
115805,-66.6666666666667,4,2,1,75,0,0
115912,-66.6666666666667,4,2,1,5,0,0
116019,-66.6666666666667,4,2,1,75,0,0
116555,-66.6666666666667,4,2,1,5,0,0
116662,-66.6666666666667,4,2,1,75,0,0
117197,-66.6666666666667,4,2,1,5,0,0
117305,-66.6666666666667,4,2,1,75,0,0
117412,-66.6666666666667,4,2,1,5,0,0
117519,-66.6666666666667,4,2,1,75,0,0
119126,-66.6666666666667,4,2,1,5,0,0
119233,-66.6666666666667,4,2,1,75,0,0
119340,-66.6666666666667,4,2,1,5,0,0
119447,-66.6666666666667,4,2,1,75,0,0
120626,-66.6666666666667,4,2,1,5,0,0
120733,-66.6666666666667,4,2,1,75,0,0
120840,-66.6666666666667,4,2,1,5,0,0
120947,-66.6666666666667,4,2,1,75,0,0
121269,-66.6666666666667,4,2,1,5,0,0
121376,-66.6666666666667,4,2,1,75,0,0
121697,-66.6666666666667,4,2,1,5,0,0
121805,-66.6666666666667,4,2,1,75,0,0
122555,-66.6666666666667,4,2,1,5,0,0
122662,-66.6666666666667,4,2,1,75,0,0
122769,-66.6666666666667,4,2,1,5,0,0
122876,-66.6666666666667,4,2,1,75,0,0
123519,-66.6666666666667,4,2,1,50,0,0

[Colours]
Combo1 : 188,219,250
Combo2 : 244,198,232
Combo3 : 133,173,136

[HitObjects]
65,189,13804,5,2,1:2:0:0:
362,80,14019,2,0,P|352:123|306:149,1,75.0000028610231,2|0,0:2|0:0,0:0:0:0:
211,77,14233,2,0,L|197:43,1,29.9999990844727,2|0,0:2|0:0,0:0:0:0:
220,73,14447,2,0,L|206:39,1,29.9999990844727,2|0,0:2|0:0,0:0:0:0:
286,9,14663,6,0,P|245:116|259:223,1,179.999994506836,10|0,0:2|0:0,0:0:0:0:
203,321,15090,2,0,B|184:241|343:303|321:198,1,179.999994506836
334,212,15519,5,2,1:2:0:0:
137,379,15733,2,0,P|111:353|105:317,1,75.0000028610231,2|0,0:2|0:0,0:0:0:0:
91,212,15947,2,0,L|111:172,1,29.9999990844727,2|0,0:2|0:0,0:0:0:0:
100,219,16162,2,0,L|120:179,1,29.9999990844727,2|0,0:2|0:0,0:0:0:0:
105,316,16376,6,0,P|67:234|22:147,1,179.999994506836,10|0,0:2|0:0,0:0:0:0:
173,32,16804,2,0,B|191:27|148:-49|77:1|69:55|90:92,1,179.999994506836
88,100,17233,6,0,L|136:111,1,29.9999990844727,2|0,1:2|0:0,0:0:0:0:
264,137,17447,2,0,L|312:148,1,29.9999990844727,2|0,0:2|0:0,0:0:0:0:
344,218,17662,5,2,0:2:0:0:
224,259,17876,1,2,0:2:0:0:
286,316,18090,6,0,B|336:299|359:337|352:354|370:376|419:393|445:383,1,179.999994506836,10|0,0:2|0:0,0:0:0:0:
512,265,18519,2,0,P|459:252|434:320,1,119.999996337891,2|0,0:2|0:0,0:0:0:0:
495,164,18947,6,0,L|502:134,1,29.9999990844727,2|0,1:2|0:0,0:0:0:0:
483,160,19162,2,0,L|490:130,1,29.9999990844727,2|0,0:2|0:0,0:0:0:0:
396,173,19376,5,2,0:2:0:0:
275,144,19590,1,2,0:2:0:0:
212,200,19805,6,0,B|153:219|147:169|128:120|25:162|-27:215|62:306|112:242,1,299.999990844727,10|0,0:2|0:0,0:0:0:0:
102,252,20447,1,2,0:2:0:0:
121,383,20662,6,0,P|135:340|164:317,1,75.0000028610231,2|0,1:2|0:0,0:0:0:0:
239,290,20876,2,0,P|282:304|306:333,1,75.0000028610231,2|0,0:2|0:0,0:0:0:0:
360,232,21090,6,0,P|377:263|400:271,1,50,2|0,0:2|0:0,0:0:0:0:
405,349,21305,2,0,P|439:338|452:317,1,50,2|0,0:2|0:0,0:0:0:0:
512,272,21519,6,0,L|496:222,1,29.9999990844727,10|0,0:2|0:0,0:0:0:0:
437,53,21733,2,0,L|428:24,1,29.9999990844727
479,126,21947,2,0,L|466:169,1,44.999998626709
390,126,22376,6,0,B|250:99|250:99|181:82|166:168|226:180|226:180|251:185,1,300,0|0,1:2|0:0,0:0:0:0:
321,163,23233,2,0,B|345:50|192:136|202:30,1,200,8|2,0:2|0:2,0:0:0:0:
316,9,23876,1,2,0:2:0:0:
84,71,24090,6,0,P|23:183|151:267,1,300,0|0,1:2|0:0,0:0:0:0:
251,317,24947,2,0,P|267:247|248:212,1,100,8|0,0:2|0:0,0:0:0:0:
45,334,25376,2,0,L|37:367,1,29.9999990844727
35,330,25590,2,0,L|27:363,1,29.9999990844727
57,245,25805,2,0,B|118:240|145:192|116:171|164:126|223:138,2,200,0|0|8,1:2|0:0|0:2,0:0:0:0:
40,234,27519,6,0,P|51:272|105:292,1,75.0000028610231,2|0,1:2|0:0,0:0:0:0:
225,243,27733,1,2,0:2:0:0:
50,147,27947,2,0,L|39:119,1,29.9999990844727,2|0,0:2|0:0,0:0:0:0:
59,143,28162,2,0,L|48:115,1,29.9999990844727,2|0,0:2|0:0,0:0:0:0:
124,206,28377,6,0,P|196:150|294:132,1,179.999994506836,10|0,0:2|0:0,0:0:0:0:
438,184,28805,2,0,B|397:166|374:121|374:121|369:171|340:206,1,179.999994506836
359,319,29234,6,0,P|397:288|396:244,1,75.0000028610231,2|0,1:2|0:0,0:0:0:0:
278,141,29448,1,2,0:2:0:0:
486,315,29662,2,0,L|495:344,1,29.9999990844727,2|0,0:2|0:0,0:0:0:0:
475,321,29877,2,0,L|484:350,1,29.9999990844727,2|0,0:2|0:0,0:0:0:0:
512,231,30091,6,0,B|526:144|380:202|403:103,1,179.999994506836,10|0,0:2|0:0,0:0:0:0:
494,13,30519,2,0,P|452:52|311:94,1,179.999994506836
323,106,30948,6,0,L|275:95,1,29.9999990844727,2|0,1:2|0:0,0:0:0:0:
111,61,31162,2,0,L|63:50,1,29.9999990844727,2|0,0:2|0:0,0:0:0:0:
30,199,31377,5,2,0:2:0:0:
129,165,31591,1,2,0:2:0:0:
217,207,31805,6,0,B|270:239|270:239|245:366,1,179.999994506836,10|0,0:2|0:0,0:0:0:0:
165,369,32233,6,0,B|106:358|136:316|63:302,1,119.999996337891,0|2,0:0|0:2,0:0:0:0:
296,271,32662,6,0,L|336:255,1,29.9999990844727,2|0,1:2|0:0,0:0:0:0:
289,259,32877,2,0,L|329:243,1,29.9999990844727,2|0,0:2|0:0,0:0:0:0:
413,80,33091,5,2,0:2:0:0:
372,157,33305,1,2,0:2:0:0:
401,301,33519,6,0,B|405:318|405:318|418:396|517:369|499:307|499:307|463:180,1,299.999990844727,10|0,0:2|0:0,0:0:0:0:
452,192,34162,1,2,0:2:0:0:
485,67,34376,6,0,P|447:67|416:86,1,75.0000028610231,2|0,1:2|0:0,0:0:0:0:
350,18,34590,2,0,P|323:44|314:80,1,75.0000028610231,2|0,0:2|0:0,0:0:0:0:
231,78,34805,6,0,P|211:105|191:117,1,50,2|0,0:2|0:0,0:0:0:0:
179,197,35019,2,0,P|147:186|129:171,1,50,2|0,0:2|0:0,0:0:0:0:
89,35,35234,6,0,L|80:64,1,29.9999990844727,10|0,0:2|0:0,0:0:0:0:
14,254,35448,2,0,L|5:283,1,29.9999990844727
38,137,35662,2,0,L|51:180,1,44.999998626709
129,140,36090,6,0,B|218:88|275:218|241:178|215:244|265:312|353:277,1,300,0|0,1:2|0:0,0:0:0:0:
350,371,36948,2,0,B|417:163,1,200,8|2,0:1|0:2,0:0:0:0:
310,77,37591,1,2,0:2:0:0:
449,33,37805,6,0,B|469:27|515:9|541:89|478:110|478:110|313:166,1,300,0|0,1:2|0:0,0:0:0:0:
158,109,38662,2,0,P|197:47|235:44,1,100,8|0,0:2|0:0,0:0:0:0:
411,180,39091,2,0,L|400:212,1,29.9999990844727
400,176,39305,2,0,L|389:208,1,29.9999990844727
278,255,39519,2,0,B|216:266|196:206|219:181|171:136|118:157,2,200,0|0|8,1:2|0:0|0:2,0:0:0:0:
278,255,40805,5,2,0:2:0:0:
291,335,41019,1,2,0:2:0:0:
407,289,41233,2,0,B|349:219|235:281|323:334|188:349|188:349|125:351|117:265|183:257|183:257|205:255,1,419.999987182618,0|0,1:2|0:0,0:0:0:0:
258,197,42090,6,0,B|266:164|266:164|282:108|191:83|180:154|180:154|176:170,1,179.999994506836,10|0,0:2|0:0,0:0:0:0:
169,167,42519,1,0,0:0:0:0:
438,74,42947,6,0,B|511:32|463:-73|359:-26|349:8|285:95|377:150|377:150|412:169|415:212,1,419.999987182618,2|0,1:2|0:0,0:0:0:0:
497,194,43805,2,0,P|453:215|393:337,1,179.999994506836,10|0,0:2|0:0,0:0:0:0:
383,339,44233,1,0,0:0:0:0:
187,264,44662,6,0,P|225:238|302:252,1,119.999996337891,2|0,1:2|0:0,0:0:0:0:
157,361,45090,2,0,P|115:341|89:267,1,119.999996337891,2|0,0:2|0:0,0:0:0:0:
19,81,45519,6,0,B|84:57|130:118|108:124|101:174|156:190,1,179.999994506836,10|0,0:2|0:0,0:0:0:0:
151,196,45947,2,0,P|187:199|242:130,1,119.999996337891
415,106,46376,6,0,B|408:64|408:64|395:2|300:22|312:85|312:85|321:128,2,239.999992675781,0|0|8,1:2|0:0|0:2,0:0:0:0:
301,297,47447,5,2,0:2:0:0:
395,223,47662,1,2,0:2:0:0:
238,202,47876,1,2,0:2:0:0:
162,339,48090,6,0,P|135:335|98:296,1,75.0000028610231,2|0,1:2|0:0,0:0:0:0:
14,312,48305,2,0,P|9:285|35:237,1,75.0000028610231,2|0,0:2|0:0,0:0:0:0:
9,155,48519,6,0,P|54:144|75:122,1,50,2|0,0:2|0:0,0:0:0:0:
142,150,48733,2,0,P|166:110|165:79,1,50,2|0,0:2|0:0,0:0:0:0:
209,30,48948,6,0,L|180:22,1,29.9999990844727,10|0,0:2|0:0,0:0:0:0:
408,81,49162,2,0,L|437:89,1,29.9999990844727
328,52,49376,2,0,L|283:64,1,44.999998626709
258,146,49805,6,0,B|200:283|457:190|394:363,1,300,0|0,1:2|0:0,0:0:0:0:
285,337,50662,2,0,B|477:281,1,200,8|0,0:2|0:0,0:0:0:0:
512,142,51305,1,2,0:2:0:0:
405,49,51519,6,0,P|356:63|342:111,1,75.0000028610231,2|0,1:2|0:0,0:0:0:0:
263,108,51733,2,0,P|261:158|302:187,1,75.0000028610231,2|0,0:2|0:0,0:0:0:0:
348,209,51947,6,0,P|364:202|410:204,1,50,2|0,0:2|0:0,0:0:0:0:
462,256,52162,2,0,P|474:268|490:311,1,50,2|0,0:2|0:0,0:0:0:0:
432,358,52376,6,0,L|388:349,1,29.9999990844727,10|0,0:2|0:0,0:0:0:0:
177,297,52590,2,0,L|221:307,1,29.9999990844727
325,327,52805,2,0,L|281:339,1,44.999998626709
274,254,53233,6,0,P|238:152|142:148,2,200,0|0|8,1:2|0:0|0:2,0:0:0:0:
285,245,54519,5,2,0:2:0:0:
250,337,54733,1,2,0:2:0:0:
379,359,54947,2,0,B|414:348|475:331|429:238|397:242|338:250|356:281|356:297|273:318|224:262|208:161|297:144|353:135,1,419.999987182618,0|0,1:2|0:0,0:0:0:0:
457,112,55805,6,0,B|508:96|555:151|548:231|458:242,1,179.999994506836,10|0,0:2|0:0,0:0:0:0:
488,239,56233,1,0,0:0:0:0:
276,130,56662,6,0,B|274:91|270:52|289:-26|124:32|148:76|168:102|213:109|191:200|111:214,1,359.999989013672,2|0,1:2|0:0,0:0:0:0:
99,293,57519,2,0,P|69:185|8:131,1,179.999994506836,10|0,0:2|0:0,0:0:0:0:
8,151,57948,1,0,0:0:0:0:
159,6,58376,6,0,P|95:27|95:105,1,119.999996337891,2|0,1:2|0:0,0:0:0:0:
213,201,58805,2,0,P|226:135|159:96,1,119.999996337891,2|0,0:2|0:0,0:0:0:0:
57,235,59233,2,0,P|89:302|207:275,1,179.999994506836,10|0,0:2|0:0,0:0:0:0:
201,307,59662,2,0,P|226:300|292:366,1,119.999996337891
404,210,60090,6,0,B|425:174|391:117|328:119|253:222|377:307,2,239.999992675781,0|0|8,1:2|0:0|0:2,0:0:0:0:
331,376,61162,5,2,0:2:0:0:
512,330,61376,1,2,0:2:0:0:
409,306,61590,1,2,0:2:0:0:
504,193,61805,6,0,P|487:151|449:132,1,75.0000028610231,2|0,1:2|0:0,0:0:0:0:
430,53,62019,2,0,P|384:56|354:86,1,75.0000028610231,2|0,0:2|0:0,0:0:0:0:
272,53,62233,6,0,P|257:79|231:96,1,50,2|0,0:2|0:0,0:0:0:0:
230,175,62447,2,0,P|200:168|176:149,1,50,2|0,0:2|0:0,0:0:0:0:
115,101,62662,6,0,L|123:72,1,29.9999990844727,10|0,0:2|0:0,0:0:0:0:
64,300,62876,2,0,L|56:329,1,29.9999990844727
86,181,63090,2,0,L|98:226,1,44.999998626709
148,292,63519,6,0,B|288:319|288:319|357:336|372:250|312:238|312:238|287:233,1,300,0|0,1:2|0:0,0:0:0:0:
235,173,64376,6,0,B|269:134|278:83|278:83|302:132|353:164,1,200,8|0,0:2|0:0,0:0:0:0:
482,357,65019,1,2,0:2:0:0:
452,262,65233,6,0,P|384:242|350:272,1,75.0000028610231,2|0,1:2|0:0,0:0:0:0:
299,235,65447,2,0,P|259:293|277:334,1,75.0000028610231,2|0,0:2|0:0,0:0:0:0:
176,319,65662,6,0,P|158:356|132:367,1,50,2|0,0:2|0:0,0:0:0:0:
69,366,65876,1,2,0:2:0:0:
20,300,66090,6,0,B|-36:155|234:236|164:76,1,300,10|0,0:2|0:0,0:0:0:0:
75,103,66947,2,0,B|64:106|64:106|7:128|35:210|100:183|100:183|233:132,1,300,0|2,1:2|0:2,0:0:0:0:
321,33,67805,5,10,0:2:0:0:
470,60,68019,1,2,0:2:0:0:
420,156,68233,5,2,0:2:0:0:
337,139,68447,1,2,0:2:0:0:
337,139,69519,6,0,B|284:140|268:186|282:188|277:243|209:248,1,179.999994506836,10|0,0:2|0:0,0:0:0:0:
145,201,70376,2,0,B|195:186|224:225|211:231|232:282|299:267,1,179.999994506836,2|0,0:2|0:0,0:0:0:0:
379,253,71233,6,0,B|422:243|422:243|535:221|502:77|391:103|391:103|311:116|294:39,1,419.999987182618,8|0,0:2|0:0,0:0:0:0:
296,47,74447,5,2,0:2:0:0:
218,73,74662,1,10,0:2:0:0:
247,153,74876,1,2,0:2:0:0:
325,127,75091,1,0,0:0:0:0:
382,189,75305,6,0,L|343:309,1,119.999996337891,2|0,0:2|0:0,0:0:0:0:
344,303,76376,6,0,P|313:307|292:338,1,59.9999981689454,10|0,0:2|0:0,0:0:0:0:
294,327,77233,2,0,P|193:353|230:270,2,239.999992675781,2|10|0,0:2|0:2|0:0,0:0:0:0:
294,327,81304,5,2,0:2:0:0:
374,344,81519,1,2,0:2:0:0:
393,264,81733,1,2,0:2:0:0:
313,247,81948,1,2,0:2:0:0:
233,155,82162,5,2,0:2:0:0:
297,50,82376,2,0,B|361:67|330:111|390:126,1,119.999996337891,2|0,0:1|0:0,0:0:0:0:
512,186,83233,2,0,L|450:212,1,59.9999981689454,10|0,0:1|0:0,0:0:0:0:
416,278,83662,2,0,L|361:254,1,59.9999981689454,2|0,0:1|0:0,0:0:0:0:
334,182,84090,6,0,B|381:205|393:280|354:323|318:333|318:333|285:342|272:373,1,239.999992675781,2|8,0:2|0:2,0:0:0:0:
277,361,85376,6,0,L|251:305,1,59.9999981689454,2|0,0:1|0:0,0:0:0:0:
100,308,85805,2,0,P|106:336|189:363,1,119.999996337891,2|0,0:1|0:0,0:0:0:0:
308,243,86662,6,0,P|279:224|247:228,1,59.9999981689454,10|0,0:1|0:0,0:0:0:0:
214,150,87090,2,0,P|180:143|130:69,1,119.999996337891,2|0,0:1|0:0,0:0:0:0:
130,77,88376,6,0,P|134:135|99:182,1,119.999996337891,8|2,0:2|0:1,0:0:0:0:
15,160,89019,1,2,0:2:0:0:
112,272,89233,5,2,0:1:0:0:
237,296,89447,1,2,0:2:0:0:
316,217,89662,5,2,0:2:0:0:
402,196,89876,1,2,0:2:0:0:
463,259,90090,6,0,L|447:327,2,59.9999981689454,10|2|2,0:1|0:2|0:1,0:0:0:0:
463,259,90947,6,0,B|477:209|477:209|495:147|414:120|393:187|393:187|379:230,1,239.999992675781,0|8,0:0|0:1,0:0:0:0:
180,357,92233,2,0,L|248:335,1,59.9999981689454,2|2,0:1|0:2,0:0:0:0:
299,275,92662,2,0,P|287:239|161:191,1,179.999994506836,2|0,0:1|0:0,0:0:0:0:
137,264,93519,2,0,P|103:245|92:218,1,59.9999981689454,10|0,0:1|0:0,0:0:0:0:
12,225,93947,2,0,P|19:186|41:167,1,59.9999981689454,2|0,0:1|0:0,0:0:0:0:
48,146,94269,5,0,0:0:0:0:
48,146,94376,2,0,B|108:161|153:131|131:108|182:70|242:93,1,209.999993591309
284,75,95233,2,0,B|248:188|248:188|234:239|301:264,1,179.999994506836,8|0,0:1|0:0,0:0:0:0:
309,313,95662,6,0,L|409:289,1,59.9999981689454,2|0,0:1|0:0,0:0:0:0:
440,364,95876,2,0,L|382:379,1,59.9999981689454,0|0,1:2|0:0,0:0:0:0:
174,335,96090,6,0,B|112:320|132:239|197:255|197:255|292:280|318:188|254:90|122:106|67:111|59:207|101:218,1,525.000020027161,6|0,1:1|0:0,0:0:0:0:
39,316,96947,6,0,P|148:341|287:387,1,225.000008583069,10|0,0:1|0:0,0:0:0:0:
427,343,97376,2,0,P|426:295|386:269,2,100.000003814697,2|2|2,0:1|0:2|0:2,0:0:0:0:
341,345,97805,6,0,B|275:322|279:210|364:200|426:250|402:288|443:276|453:233|587:326|616:37|270:-6|291:79|365:130,1,525.000020027161,4|0,1:1|0:0,0:0:0:0:
288,172,98662,6,0,P|234:183|188:127,1,75.0000028610231,8|0,0:1|0:0,0:0:0:0:
183,101,98876,1,2,0:3:0:0:
117,269,99090,2,0,L|94:385,2,100.000003814697,2|2|2,0:1|0:2|0:2,0:0:0:0:
202,237,99519,6,0,B|227:160|145:82|79:148|28:176|-16:111|53:-2|173:22,1,375.000014305115,6|0,1:1|0:0,0:0:0:0:
210,32,100162,2,0,P|256:78|233:129,1,75.0000028610231,0|0,1:2|0:0,0:0:0:0:
306,199,100376,6,0,B|299:219|299:219|270:295|360:318|378:254|378:254|390:210,1,225.000008583069,10|0,0:1|0:0,0:0:0:0:
415,127,100805,2,0,B|421:106|421:106|450:30|360:7|342:71|342:71|330:115,1,225.000008583069,2|0,0:1|0:0,0:0:0:0:
158,210,101233,6,0,B|137:124|73:78|-38:151|-77:247|-2:306|84:193|119:193|198:269|143:344,1,450.000017166138,4|0,1:1|0:0,0:0:0:0:
209,380,102090,2,0,P|238:339|225:280,1,75.0000028610231,8|0,0:1|0:0,0:0:0:0:
249,216,102305,6,0,B|253:205|253:205|273:129|377:161|333:249|333:249|295:332|407:384|427:275|427:275,1,375.000014305115,2|0,0:3|0:0,0:0:0:0:
478,210,102947,6,0,B|419:225|396:140|463:129|463:129|551:117|537:18|429:-19|387:25|383:65,1,375.000014305115,6|0,1:1|0:0,0:0:0:0:
243,107,103590,2,0,P|224:67|255:23,1,75.0000028610231,0|0,1:2|0:0,0:0:0:0:
359,110,103805,6,0,L|125:56,1,225.000008583069,10|0,0:1|0:0,0:0:0:0:
25,126,104233,2,0,P|21:223|80:231,2,100.000003814697,2|2|2,0:1|0:2|0:2,0:0:0:0:
80,357,104662,6,0,B|41:307|67:281|56:170|188:207|174:261|221:295|294:307|322:188|318:189|254:144|130:132|117:190,1,525.000020027161,4|0,1:1|0:0,0:0:0:0:
161,326,105519,6,0,L|241:347,1,75.0000028610231,8|0,0:1|0:0,0:0:0:0:
314,369,105733,1,2,0:3:0:0:
358,212,105947,2,0,P|383:169|427:148,2,100.000003814697,2|2|2,0:1|0:2|0:2,0:0:0:0:
438,232,106376,6,0,B|465:238|465:238|518:251|500:330|445:318|445:318|372:304|335:306|390:214|275:203,1,375.000014305115,6|0,1:1|0:0,0:0:0:0:
171,91,107019,2,0,P|203:108|217:142,1,75.0000028610231,0|0,1:2|0:0,0:0:0:0:
82,342,107233,6,0,P|-6:308|56:208,1,225.000008583069,10|0,0:1|0:0,0:0:0:0:
145,181,107662,2,0,P|233:214|170:314,1,225.000008583069,2|0,0:1|0:0,0:0:0:0:
115,261,108090,6,0,B|35:252|15:118|72:78|124:110|158:67|252:77|238:70|218:-76|-3:-49|37:90,1,525.000020027161,4|0,1:1|0:0,0:0:0:0:
23,66,108947,1,8,0:1:0:0:
259,106,109162,2,0,B|347:93|405:243|311:218|308:265|326:274|308:318|347:378|434:337|428:303,1,375.000014305115,2|0,0:3|0:0,0:0:0:0:
456,219,109805,6,0,B|470:145|363:127|355:193|352:205|352:205|333:310|296:342|79:233|236:82|291:116|302:152,1,525.000020027161,6|0,1:1|0:0,0:0:0:0:
474,97,110662,6,0,B|492:58|492:58|517:6|446:-25|422:31|422:31|392:96,1,225.000008583069,10|0,0:1|0:0,0:0:0:0:
244,19,111091,2,0,P|297:26|318:86,2,100.000003814697,2|2|2,0:1|0:2|0:2,0:0:0:0:
117,12,111519,6,0,B|31:64|2:172|46:237|149:207|158:128|144:66|176:27|419:129|168:252,1,525.000020027161,4|0,1:1|0:0,0:0:0:0:
157,253,112377,6,0,P|175:284|209:300,1,75.0000028610231,8|0,0:1|0:0,0:0:0:0:
281,274,112591,1,2,0:3:0:0:
367,124,112805,2,0,L|333:8,2,100.000003814697,2|2|2,0:1|0:2|0:2,0:0:0:0:
434,176,113234,6,0,B|333:135|293:263|308:313|359:285|425:219|507:297|476:377,1,375.000014305115,6|0,1:1|0:0,0:0:0:0:
389,365,113877,2,0,L|297:336,1,75.0000028610231,0|0,1:2|0:0,0:0:0:0:
166,294,114091,6,0,B|122:278|122:278|60:256|89:168|167:196|167:196|190:204,1,225.000008583069,10|0,0:1|0:0,0:0:0:0:
257,229,114519,2,0,B|272:234|272:234|350:262|379:174|317:152|317:152|274:137,1,225.000008583069,2|0,0:1|0:0,0:0:0:0:
165,13,114947,6,0,B|64:7|44:114|70:153|131:151|118:132|161:125|247:113|244:70|234:44|187:26|259:-34|316:-33|370:23|339:85,1,525.000020027161,4|0,1:1|0:0,0:0:0:0:
324,169,115805,2,0,P|360:179|392:161,1,75.0000028610231,8|0,0:1|0:0,0:0:0:0:
512,201,116020,2,0,B|481:125|383:179|439:254|439:254|481:322|394:369|358:294|358:294|349:273,1,375.000014305115,2|0,0:3|0:0,0:0:0:0:
272,336,116662,6,0,B|299:268|217:190|151:256|100:284|85:234|125:106|226:147,1,375.000014305115,6|0,1:1|0:0,0:0:0:0:
324,169,117305,2,0,P|301:134|317:84,1,75.0000028610231,0|0,1:2|0:0,0:0:0:0:
439,92,117520,2,0,L|205:38,1,225.000008583069,10|0,0:1|0:0,0:0:0:0:
64,12,117948,2,0,P|7:38|19:101,2,100.000003814697,2|2|2,0:1|0:2|0:2,0:0:0:0:
131,117,118376,6,0,B|204:117|203:205|121:201|121:201|27:192|-31:184|-8:358|44:364|220:344|141:257,1,525.000020027161,4|0,1:1|0:0,0:0:0:0:
246,222,119234,6,0,L|340:242,1,75.0000028610231,8|0,0:1|0:0,0:0:0:0:
399,253,119448,1,2,0:3:0:0:
274,92,119662,2,0,P|284:47|352:18,2,100.000003814697,2|2|2,0:1|0:2|0:2,0:0:0:0:
443,103,120090,6,0,B|508:142|537:206|491:286|442:289|410:189|337:210|270:272|308:345,1,375.000014305115,6|0,1:1|0:0,0:0:0:0:
348,376,120734,2,0,P|394:330|371:279,1,75.0000028610231,0|0,1:2|0:0,0:0:0:0:
233,253,120947,6,0,B|169:319|103:261|121:176|225:174,1,225.000008583069,10|0,0:1|0:0,0:0:0:0:
284,141,121376,2,0,B|344:79|410:137|392:222|312:223,1,225.000008583069,2|0,0:1|0:0,0:0:0:0:
213,87,121805,6,0,B|203:67|203:67|177:4|98:41|127:102|127:102|145:147|190:240|53:275|-46:189|-55:99|4:90,1,525.000020027161,4|0,1:1|0:0,0:0:0:0:
51,27,122662,2,0,P|84:77|66:128,1,75.0000028610231,8|0,0:1|0:0,0:0:0:0:
38,292,122877,2,0,B|-18:295|-27:411|76:419|129:359|98:346|107:309|126:274|180:281|180:281|253:293|273:208|216:193,1,450.000017166138,2|2,0:3|0:1,0:0:0:0:
