osu file format v14

[General]
AudioFilename: audio.mp3
AudioLeadIn: 0
PreviewTime: -1
Countdown: 1
SampleSet: Normal
StackLeniency: 0.7
Mode: 0
LetterboxInBreaks: 0
WidescreenStoryboard: 0

[Editor]
Bookmarks: 59245,63989,118020,120163,122918
DistanceSpacing: 1.3
BeatDivisor: 4
GridSize: 4
TimelineZoom: 0.7

[Metadata]
Title:Anxiety (ft. FRND)
TitleUnicode:Anxiety (ft. FRND)
Artist:blackbear
ArtistUnicode:blackbear
Creator:hamse12345
Version:
Source:
Tags:
BeatmapID:1519196
BeatmapSetID:719401

[Difficulty]
HPDrainRate:5
CircleSize:5
OverallDifficulty:5
ApproachRate:5
SliderMultiplier:1.4
SliderTickRate:1

[Events]
//Background and Video events
0,0,"d7296a8030e111e7914beb4e06cf1752-BLACKBEAR-MUSIC.jpg",0,0
//Break Periods
2,23934,28657
2,127403,146208
//Storyboard Layer 0 (Background)
//Storyboard Layer 1 (Fail)
//Storyboard Layer 2 (Pass)
//Storyboard Layer 3 (Foreground)
//Storyboard Sound Samples

[TimingPoints]
10265.4388649272,612.244897959184,4,1,0,100,1,0

[HitObjects]
196,108,10265,6,0,B|444:396|448:400|360:128|208:32|436:104|496:264|452:80|352:12|260:24|264:32,1,630
252,120,13326,2,0,L|328:108,2,70
416,308,15163,5,0,0:0:0:0:
260,216,15775,2,0,L|204:68,1,140
360,252,17000,1,0,0:0:0:0:
192,192,17612,1,0,0:0:0:0:
208,148,17765,1,0,0:0:0:0:
220,104,17918,1,0,0:0:0:0:
264,100,18071,1,0,0:0:0:0:
368,188,18530,1,0,0:0:0:0:
328,156,20061,5,0,0:0:0:0:
244,192,20367,5,0,0:0:0:0:
144,148,20673,1,0,0:0:0:0:
168,60,20979,1,0,0:0:0:0:
280,52,21285,1,0,0:0:0:0:
144,176,21898,2,0,L|224:140,2,70
208,152,23122,1,0,0:0:0:0:
336,40,23734,1,0,0:0:0:0:
32,32,29857,6,0,B|32:88|36:32|488:360,1,560
476,264,32612,1,0,0:0:0:0:
436,180,32918,2,0,P|240:288|248:296,1,420
336,284,35061,1,0,0:0:0:0:
424,256,35367,1,0,0:0:0:0:
376,180,35673,1,0,0:0:0:0:
204,124,36285,2,0,L|204:208,2,70
324,260,37510,1,0,0:0:0:0:
348,172,37816,2,0,P|172:216|196:236,1,420
340,144,40265,1,0,0:0:0:0:
340,144,40877,1,0,0:0:0:0:
340,144,41489,1,0,0:0:0:0:
340,144,42102,1,0,0:0:0:0:
340,144,42408,1,0,0:0:0:0:
340,144,42714,1,0,0:0:0:0:
340,144,43020,1,0,0:0:0:0:
340,144,43326,1,0,0:0:0:0:
340,144,43632,1,0,0:0:0:0:
340,144,43938,1,0,0:0:0:0:
340,144,44245,1,0,0:0:0:0:
248,152,44551,2,0,L|284:152,24,35
208,160,49296,5,0,0:0:0:0:
208,160,49449,2,0,P|280:160|304:104,1,140
392,80,50367,1,0,0:0:0:0:
392,80,50673,1,0,0:0:0:0:
416,260,51285,1,0,0:0:0:0:
324,264,51591,1,0,0:0:0:0:
224,112,52204,1,0,0:0:0:0:
224,112,52510,1,0,0:0:0:0:
216,292,53122,2,0,P|312:280|368:312,1,140
268,256,54347,2,0,L|272:88,1,140
180,116,55265,2,0,P|124:112|124:116,4,70
88,200,57102,2,0,P|304:200|284:232,1,490
124,152,59857,2,0,L|224:124,1,70
132,64,60469,2,0,P|168:56|180:84,2,70
244,212,61387,1,0,0:0:0:0:
92,112,62000,2,0,L|168:112,1,70
162,112,62306,6,0,L|232:112,1,70
197,269,62918,2,0,L|304:272,1,105
304,228,63530,6,0,L|308:144,1,70
216,152,64142,2,0,L|64:164,1,140
132,236,65061,1,0,0:0:0:0:
224,228,65367,1,0,0:0:0:0:
236,92,65979,5,0,0:0:0:0:
72,308,66898,2,0,L|168:304,1,70
141,305,67204,2,0,P|280:232|284:248,1,280
112,180,69040,1,0,0:0:0:0:
192,140,69347,1,0,0:0:0:0:
284,120,69653,1,0,0:0:0:0:
108,172,70265,2,0,L|248:200,2,140
176,112,71796,5,0,0:0:0:0:
212,84,71949,1,0,0:0:0:0:
248,56,72102,1,0,0:0:0:0:
340,64,72408,1,0,0:0:0:0:
88,172,73173,1,0,0:0:0:0:
88,172,73326,6,0,B|252:188|248:188,1,140
408,188,74551,1,0,0:0:0:0:
236,132,75163,1,0,0:0:0:0:
156,180,75469,2,0,L|136:260,2,70
132,92,76387,2,0,L|216:48,3,70
208,96,78224,1,0,0:0:0:0:
280,148,78530,1,0,0:0:0:0:
352,204,78836,1,0,0:0:0:0:
192,292,79449,2,0,L|216:144,1,140
214,153,80367,1,0,0:0:0:0:
300,188,80673,1,0,0:0:0:0:
124,144,81285,2,0,L|216:140,3,70
128,312,82816,1,0,0:0:0:0:
200,256,83122,1,0,0:0:0:0:
144,184,83428,2,0,B|336:184|464:268|312:348,1,350
232,300,85265,1,0,0:0:0:0:
148,252,85571,1,0,0:0:0:0:
208,184,85877,2,0,L|420:88,1,210
32,32,88632,22,0,B|32:88|36:32|488:360,1,560
476,264,91388,1,0,0:0:0:0:
436,180,91694,2,0,P|240:288|248:296,1,420
336,284,93837,1,0,0:0:0:0:
424,256,94143,1,0,0:0:0:0:
376,180,94449,1,0,0:0:0:0:
204,124,95060,2,0,L|204:208,2,70
324,260,96285,1,0,0:0:0:0:
348,172,96591,2,0,P|172:216|196:236,1,420
340,144,99040,1,0,0:0:0:0:
340,144,99652,1,0,0:0:0:0:
340,144,100264,1,0,0:0:0:0:
340,144,100877,1,0,0:0:0:0:
340,144,101183,1,0,0:0:0:0:
340,144,101489,1,0,0:0:0:0:
340,144,101795,1,0,0:0:0:0:
340,144,102101,1,0,0:0:0:0:
340,144,102407,1,0,0:0:0:0:
340,144,102713,1,0,0:0:0:0:
340,144,103020,1,0,0:0:0:0:
248,152,103326,2,0,L|284:152,24,35
208,160,108071,5,0,0:0:0:0:
208,160,108224,2,0,P|280:160|304:104,1,140
392,80,109142,1,0,0:0:0:0:
392,80,109448,1,0,0:0:0:0:
416,260,110060,1,0,0:0:0:0:
324,264,110366,1,0,0:0:0:0:
224,112,110979,1,0,0:0:0:0:
224,112,111285,1,0,0:0:0:0:
216,292,111897,2,0,P|312:280|368:312,1,140
268,256,113122,2,0,L|272:88,1,140
180,116,114040,2,0,P|124:112|124:116,4,70
88,200,115877,2,0,P|304:200|284:232,1,490
124,152,118632,2,0,L|224:124,1,70
132,64,119244,2,0,P|168:56|180:84,2,70
244,212,120162,1,0,0:0:0:0:
92,112,120775,2,0,L|168:112,1,70
162,112,121081,6,0,L|232:112,1,70
197,269,121693,2,0,L|304:272,1,105
304,228,122305,6,0,L|308:144,1,70
216,152,122917,2,0,L|64:164,1,140
132,236,123836,1,0,0:0:0:0:
224,228,124142,1,0,0:0:0:0:
236,92,124754,5,0,0:0:0:0:
72,308,125673,2,0,L|168:304,1,70
141,305,125979,2,0,P|280:232|284:248,1,280
32,32,147408,6,0,B|32:88|36:32|488:360,1,560
476,264,150163,1,0,0:0:0:0:
436,180,150469,2,0,P|240:288|248:296,1,420
336,284,152612,1,0,0:0:0:0:
424,256,152918,1,0,0:0:0:0:
376,180,153224,1,0,0:0:0:0:
204,124,153835,2,0,L|204:208,2,70
324,260,155060,1,0,0:0:0:0:
348,172,155366,2,0,P|172:216|196:236,1,420
340,144,157815,1,0,0:0:0:0:
340,144,158427,1,0,0:0:0:0:
340,144,159039,1,0,0:0:0:0:
340,144,159652,1,0,0:0:0:0:
340,144,159958,1,0,0:0:0:0:
340,144,160264,1,0,0:0:0:0:
340,144,160570,1,0,0:0:0:0:
340,144,160876,1,0,0:0:0:0:
340,144,161182,1,0,0:0:0:0:
340,144,161488,1,0,0:0:0:0:
340,144,161795,1,0,0:0:0:0:
248,152,162102,2,0,L|284:152,24,35
