osu file format v14

[General]
AudioFilename: audio.mp3
AudioLeadIn: 0
PreviewTime: 59094
Countdown: 0
SampleSet: Soft
StackLeniency: 0.7
Mode: 0
LetterboxInBreaks: 0
WidescreenStoryboard: 1

[Editor]
Bookmarks: 117623,126289
DistanceSpacing: 1
BeatDivisor: 4
GridSize: 32
TimelineZoom: 1.8

[Metadata]
Title:Sugar/Tzu
TitleUnicode:Sugar/Tzu
Artist:black midi
ArtistUnicode:black midi
Creator:-Gavin
Version:Normal
Source:
Tags:black midi sun tzu sugar avant garde avant-garde avant-jazz jazz fusion jazz-fusion math rock hellfire -gavin
BeatmapID:4577067
BeatmapSetID:2167655

[Difficulty]
HPDrainRate:2.5
CircleSize:3.4
OverallDifficulty:4
ApproachRate:5.2
SliderMultiplier:0.999999999999999
SliderTickRate:1

[Events]
//Background and Video events
0,0,"1.jpg",0,0
//Break Periods
2,17424,18945
2,117822,125119
2,159283,160720
2,202036,203611
//Storyboard Layer 0 (Background)
//Storyboard Layer 1 (Fail)
//Storyboard Layer 2 (Pass)
//Storyboard Layer 3 (Foreground)
//Storyboard Layer 4 (Overlay)
//Storyboard Sound Samples

[TimingPoints]
14376,356.083086053412,4,2,0,100,1,0
14376,-100,4,2,0,100,0,0
17224,361.44578313253,4,2,0,55,1,0
17224,-100,4,2,0,55,0,0
20115,364.741641337386,4,2,0,55,1,0
20115,-100,4,2,0,55,0,0
23059,349.854227405248,4,2,0,55,1,0
23059,-100,4,2,0,55,0,0
27279,355.555555555556,4,2,0,55,1,0
28705,358.208955223881,4,2,0,70,1,0
34436,353.982300884956,4,2,0,55,1,0
37806,355.450236966825,4,2,0,55,1,0
39938,-94.3396226415094,4,2,0,55,0,0
40099,348.33091436865,4,2,0,55,1,0
45672,342.368045649073,4,2,0,75,1,0
48410,342.563516985441,4,2,0,75,1,0
51149,345.821325648414,4,2,0,75,1,0
53915,342.368045649073,4,2,0,75,1,0
56642,350.364963503649,4,2,0,75,1,0
59444,352.941176470588,4,2,0,100,1,0
59444,-90.9090909090909,4,2,0,100,0,1
65091,350.36496350365,4,2,0,85,1,1
65091,-90.9090909090909,4,2,0,85,0,1
69295,350.877192982456,4,2,0,85,1,1
69295,-90.9090909090909,4,2,0,85,0,1
70708,350.364963503649,4,2,0,85,1,1
70708,-90.9090909090909,4,2,0,85,0,1
73015,285.374554102259,4,2,0,70,1,0
73244,427.807486631015,4,2,0,70,1,0
73485,336.605890603085,4,2,0,85,1,0
73825,343.347639484978,4,2,0,85,1,0
73825,-90.9090909090909,4,2,0,85,0,0
76228,343.347639484978,4,2,0,85,1,1
76228,-90.9090909090909,4,2,0,85,0,1
78974,344.530577088717,4,2,0,85,1,1
78974,-90.9090909090909,4,2,0,85,0,1
81738,344.827586206896,4,2,0,85,1,1
81738,-90.9090909090909,4,2,0,85,0,1
84496,339.462517680339,4,2,0,85,1,1
84496,-90.9090909090909,4,2,0,85,0,1
87235,344.332855093256,4,2,0,85,1,0
92756,344.827586206896,4,2,0,85,1,0
95514,344.827586206896,4,2,0,85,1,0
96893,350.877192982456,4,2,0,85,1,0
98297,338.504936530324,4,2,0,85,1,0
101005,341.880341880341,4,2,0,85,1,0
103743,338.983050847457,4,2,0,85,1,0
109186,353.982300884955,4,2,0,85,1,0
112003,348.837209302325,4,2,0,85,1,0
114787,354.50516986706,4,2,0,85,1,0
117623,369.230769230769,4,2,0,60,1,0
120576,364.741641337385,4,2,0,70,1,0
123441,360.36036036036,4,2,0,70,1,0
126289,360.902255639098,4,2,0,70,1,0
129176,356.612184249628,4,2,0,70,1,0
132028,348.33091436865,4,2,0,70,1,0
134782,350.36496350365,4,2,0,70,1,0
137421,337.078651685393,4,2,0,70,1,0
137589,341.394025604551,4,2,0,70,1,0
140320,338.504936530324,4,2,0,70,1,0
143028,339.943342776203,4,2,0,70,1,0
145747,330.123796423658,4,2,0,70,1,0
148388,334.261838440111,4,2,0,70,1,0
151062,331.491712707182,4,2,0,70,1,0
153548,-101.010101010101,4,2,0,70,0,0
153713,335.664335664335,4,2,0,70,1,0
159083,350.877192982455,4,2,0,70,1,0
161890,333.796940194714,4,2,0,70,1,0
164560,338.504936530324,4,2,0,90,1,0
167268,329.670329670329,4,2,0,90,1,0
169905,335.195530726257,4,2,0,90,1,0
172586,341.394025604552,4,2,0,90,1,0
175321,336.605890603085,4,2,0,90,1,0
178013,334.728033472803,4,2,0,90,1,0
180669,332.871012482662,4,2,0,95,1,1
183331,323.014804845221,4,2,0,95,1,1
185924,331.950207468879,4,2,0,95,1,1
185924,-90.9090909090909,4,2,0,95,0,1
188569,332.409972299168,4,2,0,100,1,1
188569,-90.9090909090909,4,2,0,100,0,1
189898,350.364963503649,4,2,0,100,1,1
189898,-90.9090909090909,4,2,0,100,0,1
191306,343.347639484978,4,2,0,90,1,0
194052,337.078651685393,4,2,0,90,1,0
196748,347.322720694645,4,2,0,95,1,0
199526,330.123796423658,4,2,0,95,1,0
202166,326.975476839236,4,2,0,60,1,0
204781,314.13612565445,4,2,0,100,1,1
209807,310.077519379844,4,2,0,100,1,1
214768,306.513409961685,4,2,0,100,1,1
217220,308.087291399229,4,2,0,100,1,1
219684,313.315926892949,4,2,0,100,1,1
222190,309.278350515463,4,2,0,100,1,1
224664,319.999999999999,4,2,0,100,1,0
225944,323.450134770889,4,2,0,100,1,0
227237,326.975476839236,4,2,0,100,1,0
228544,320.855614973261,4,2,0,100,1,0
229827,320.855614973261,4,2,0,80,1,0

[Colours]
Combo1 : 130,120,255
Combo2 : 164,100,240
Combo3 : 230,110,150
Combo4 : 100,200,200

[HitObjects]
256,192,14376,12,0,17224,0:0:0:0:
44,134,20115,6,0,L|214:105,1,150
233,136,20844,2,0,B|279:179|344:174|380:121|380:121|362:82,1,200
460,211,22121,2,0,B|360:258|441:323|322:373,1,200
287,340,23059,2,0,P|149:278|9:333,1,300
6,226,24458,2,0,B|22:212|48:203|48:203|47:137|111:72|196:93|236:147,1,300
430,69,28705,6,0,B|348:56|296:117|296:117|325:268,1,300
155,361,30496,6,0,B|101:374|60:345|60:345|72:142,1,300
71,144,32824,5,0,0:0:0:0:
71,144,33003,2,0,P|164:95|259:146,1,200
337,90,34078,1,0,0:0:0:0:
474,240,34789,5,0,0:0:0:0:
474,240,34966,2,0,P|443:299|396:321,1,99.9999999999999
281,383,35851,2,0,L|129:365,1,150
56,307,36736,1,0,0:0:0:0:
56,307,36913,2,0,B|27:262|51:214|51:214|206:171,1,250
263,64,38250,6,0,P|383:27|495:132,1,275
361,193,39760,1,0,0:0:0:0:
361,193,39938,2,0,L|243:180,1,99.9999999999999
173,229,40621,2,0,P|135:272|182:359,1,150
214,352,41318,2,0,L|333:348,1,99.9999999999999
355,321,41840,2,0,L|321:114,1,200
258,46,42885,6,0,P|175:48|118:98,1,150
107,135,43582,2,0,P|123:216|182:263,1,150
188,305,44278,2,0,P|153:351|95:364,1,99.9999999999999
14,370,44975,1,0,0:0:0:0:
28,166,45672,6,0,B|77:182|77:182|121:162|121:162|169:178|169:178|214:158|214:158|262:173|262:173|310:155,1,300
349,63,47041,2,0,B|299:46|299:46|255:66|255:66|207:50|207:50|162:70|162:70|114:55|114:55|67:74,1,300
41,169,48410,6,0,B|42:216|42:216|77:253|77:253|128:258|128:258|168:288|168:288|184:335|184:335|233:349|233:349,1,300
332,333,49780,2,0,B|316:285|316:285|340:241|340:241|389:239|389:239|422:202|422:202|411:145|411:145|441:91|441:91,1,300
347,56,51149,6,0,B|298:65|298:65|263:100|263:100|212:104|212:104|178:139|178:139|127:146|127:146|92:183,1,300
19,249,52532,2,0,B|67:259|67:259|98:300|98:300|151:310|151:310|191:290|191:290|228:324|228:324|277:310,1,300
366,356,53915,6,0,B|393:318|393:318|382:267|382:267|405:226|405:226|386:173|386:173|393:127|393:127|356:88,1,300
279,27,55284,2,0,B|233:44|233:44|184:31|184:31|136:50|136:50|142:97|142:97|119:146|119:146|61:174,1,300
126,246,56642,6,0,P|76:256|42:282,2,74.9999999999999
228,355,57693,6,0,B|267:158|267:158|279:136|279:136|278:114|278:114|293:92|293:92|289:65,1,300
321,28,58919,1,0,0:0:0:0:
480,71,59444,6,0,L|495:141,1,55.0000016784668
479,233,59973,2,0,L|457:360,1,110.000003356934
416,367,60502,1,0,0:0:0:0:
416,367,60679,2,0,P|332:328|253:337,1,165.0000050354
159,362,61561,1,0,0:0:0:0:
159,362,61738,2,0,P|97:369|48:338,1,110.000003356934
17,307,62267,6,0,L|6:361,2,55.0000016784668
14,251,62796,2,0,L|4:122,1,110.000003356934
29,91,63326,2,0,L|86:67,1,55.0000016784668
183,31,63855,6,0,P|232:21|294:41,1,110.000003356934
326,77,64385,2,0,L|303:197,1,110.000003356934
299,239,64914,1,0,0:0:0:0:
259,278,65091,6,0,P|168:290|80:380,1,220.000006713867
8,295,66142,1,0,0:0:0:0:
13,184,66492,2,0,L|41:53,1,110.000003356934
144,94,67193,2,0,L|121:201,1,110.000003356934
177,301,67893,5,0,0:0:0:0:
177,301,68069,2,0,P|219:330|280:333,1,110.000003356934
384,312,68769,2,0,P|433:317|487:360,1,110.000003356934
505,244,69470,2,0,L|482:126,1,110.000003356934
389,0,70347,1,0,0:0:0:0:
315,86,70708,6,0,P|278:98|236:96,1,55.0000016784668
167,34,71233,2,0,P|115:34|48:67,1,110.000003356934
39,108,71759,1,0,0:0:0:0:
39,108,71934,2,0,L|57:222,1,110.000003356934
64,270,72459,1,0,0:0:0:0:
143,346,72810,5,0,0:0:0:0:
200,303,73015,2,0,L|219:223,1,81.2499999999999
328,363,73825,6,0,L|510:338,1,165.0000050354
457,179,74855,2,0,L|275:204,1,165.0000050354
226,114,75713,2,0,P|228:50|285:28,1,110.000003356934
317,21,76228,6,0,L|446:35,1,110.000003356934
447,140,76914,2,0,L|337:128,1,110.000003356934
293,161,77429,1,0,0:0:0:0:
293,161,77601,2,0,P|269:210|289:273,1,110.000003356934
217,350,78288,2,0,P|170:368|101:358,1,110.000003356934
27,292,78974,6,0,L|50:171,1,110.000003356934
13,140,79490,2,0,P|27:71|70:30,1,110.000003356934
105,27,80007,1,0,0:0:0:0:
146,62,80179,1,0,0:0:0:0:
201,64,80352,2,0,P|237:57|299:8,1,110.000003356934
403,31,81041,2,0,P|411:88|453:141,1,110.000003356934
507,221,81738,6,0,L|331:270,1,165.0000050354
339,319,82427,2,0,P|304:360|193:340,1,165.0000050354
141,257,83289,1,0,0:0:0:0:
141,257,83462,2,0,L|8:231,1,110.000003356934
3,189,83979,2,0,P|-4:136|35:84,1,110.000003356934
77,71,84496,2,0,L|194:97,1,110.000003356934
282,44,85174,2,0,P|359:10|453:17,1,165.0000050354
469,57,85853,5,0,0:0:0:0:
454,110,86023,2,0,L|470:223,1,110.000003356934
426,320,86702,1,0,0:0:0:0:
277,362,87235,6,0,B|231:343|231:343|183:355|183:355|136:333|136:333|88:341|88:341|38:317|38:317|-12:326,1,300
11,226,88612,2,0,B|55:218|55:218|105:242|105:242|153:234|153:234|200:256|200:256|248:244|248:244|294:263,1,300
374,203,89989,6,0,B|408:167|408:167|405:116|405:116|363:90|363:90|339:47|339:47|290:54|290:54|234:34,1,300
152,83,91366,2,0,B|106:106|106:106|58:104|58:104|35:150|35:150|54:194|54:194|36:244|36:244|59:294,1,300
139,348,92756,6,0,B|188:343|188:343|225:309|225:309|276:307|276:307|312:274|312:274|362:273|362:273|399:307,1,300
476,243,94135,2,0,B|482:195|482:195|461:157|461:157|474:104|474:104|445:59|445:59|396:57|396:57|349:34,1,300
253,37,95514,6,0,B|207:55|207:55|157:49|157:49|111:70|111:70|62:64|62:64|22:89|22:89|1:139,1,300
71,207,96893,2,0,B|53:255|53:255|60:313,1,99.9999999999999
158,316,97594,2,0,B|176:268|176:268|169:210,1,99.9999999999999
243,145,98297,6,0,B|342:162|342:162|326:260|326:260|433:283,1,300
439,328,99481,1,0,0:0:0:0:
414,372,99651,2,0,L|312:377,1,99.9999999999999
265,367,100158,5,0,0:0:0:0:
231,329,100328,1,0,0:0:0:0:
184,312,100497,2,0,L|83:333,1,99.9999999999999
52,295,101005,2,0,B|36:247|36:247|51:196,1,99.9999999999999
177,120,101859,6,0,B|188:160|188:160|180:196,1,74.9999999999999
205,263,102372,2,0,L|315:281,1,99.9999999999999
375,208,103056,6,0,B|379:157|379:157|353:97,2,99.9999999999999
416,238,103912,2,0,P|443:293|381:368,1,150
301,383,104759,1,0,0:0:0:0:
227,315,105098,2,0,L|110:341,1,99.9999999999999
80,332,105607,1,0,0:0:0:0:
80,332,105776,2,0,P|52:283|61:197,1,125
111,134,106539,2,0,L|192:116,1,74.9999999999999
262,55,107132,1,0,0:0:0:0:
262,55,107302,2,0,L|373:70,1,99.9999999999999
383,113,107810,2,0,B|375:163|375:163|326:157|326:157|317:206|317:206|267:200|267:200|246:321,1,300
165,355,109186,6,0,P|120:343|77:349,2,74.9999999999999
315,355,110247,2,0,P|367:355|381:120,1,350
377,55,111752,1,0,0:0:0:0:
306,43,112003,6,0,P|265:46|218:73,2,74.9999999999999
270,188,113049,2,0,P|206:247|90:47,1,400
168,30,114787,5,0,0:0:0:0:
168,30,114964,2,0,L|265:63,1,99.9999999999999
344,120,115673,2,0,L|415:105,2,50
293,206,116382,5,0,0:0:0:0:
250,179,116559,2,0,L|133:208,1,99.9999999999999
136,301,117268,5,0,0:0:0:0:
97,333,117445,2,0,L|36:324,1,50
475,302,126289,6,0,P|491:256|443:159,1,150
377,101,127191,2,0,L|263:126,1,99.9999999999999
181,143,127913,2,0,L|67:168,2,99.9999999999999
280,232,129116,5,0,0:0:0:0:
306,274,129294,2,0,B|297:329|257:359|257:359|214:348,1,133.333333333333
225,350,131806,1,0,0:0:0:0:
163,332,132028,2,0,L|57:298,1,99.9999999999999
20,213,132724,6,0,P|8:153|50:66,1,150
132,30,133595,1,0,0:0:0:0:
195,107,133943,2,0,P|210:152|173:227,1,125
276,284,134782,2,0,B|315:241|373:233|402:276|440:303|498:297|540:246|538:189|493:132|422:156,1,400
76,37,137421,5,0,0:0:0:0:
76,37,137589,2,0,L|182:21,1,99.9999999999999
223,50,138101,2,0,P|233:109|207:146,1,99.9999999999999
132,200,138783,2,0,P|122:259|148:296,1,99.9999999999999
216,359,139466,2,0,L|363:334,1,150
449,273,140320,6,0,P|461:236|430:175,1,99.9999999999999
392,162,140827,1,0,0:0:0:0:
345,73,141166,5,0,0:0:0:0:
319,30,141335,2,0,P|294:21|264:27,1,50
188,81,141843,5,0,0:0:0:0:
138,72,142012,2,0,P|108:80|91:103,1,50
33,172,142520,6,0,L|9:122,2,50
52,217,143028,2,0,P|55:263|19:313,1,99.9999999999999
57,346,143537,2,0,L|155:327,1,99.9999999999999
196,296,144047,2,0,P|274:300|343:323,1,150
373,363,144727,6,0,P|434:368|483:287,1,150
455,260,145407,1,0,0:0:0:0:
478,159,145747,2,0,L|366:179,1,99.9999999999999
215,62,146737,2,0,P|298:20|402:39,1,200
438,69,147562,2,0,L|500:59,4,50
413,112,148388,6,0,P|367:145|304:147,1,99.9999999999999
278,131,148889,2,0,P|229:118|173:130,1,99.9999999999999
151,166,149390,1,0,0:0:0:0:
151,166,149557,2,0,L|175:295,1,125
119,340,150226,5,0,0:0:0:0:
119,340,150393,2,0,P|71:373|11:368,1,99.9999999999999
7,329,150894,2,0,L|24:223,1,99.9999999999999
56,194,151393,2,0,B|60:116|9:132|17:53,1,150
109,9,152222,5,0,0:0:0:0:
109,9,152387,2,0,L|224:26,1,99.9999999999999
277,95,153050,2,0,L|335:81,1,50
373,69,153382,1,0,0:0:0:0:
398,26,153548,6,0,P|468:77|467:190,1,200
447,227,154384,1,0,0:0:0:0:
400,245,154552,2,0,B|352:228|352:228|293:257,1,99.9999999999999
300,299,155055,2,0,L|205:356,1,99.9999999999999
164,344,155559,6,0,P|141:318|136:250,1,99.9999999999999
40,220,156230,2,0,B|68:107|185:127|178:145|287:159|324:67,1,350
358,34,157573,2,0,P|400:35|451:128,1,150
429,162,158244,1,0,0:0:0:0:
429,162,158412,2,0,L|359:156,4,50
66,356,161890,6,0,B|18:333|4:283|4:283|17:211|17:211|22:210|22:210|46:78,1,300
41,39,163058,1,0,0:0:0:0:
41,39,163225,2,0,L|103:17,1,50
133,42,163558,2,0,L|244:57,2,99.9999999999999
128,140,164560,6,0,P|130:179|100:229,2,74.9999999999999
206,11,165575,2,0,P|321:65|398:330,1,400
323,374,167268,6,0,P|302:355|290:303,3,74.9999999999999
213,308,168257,2,0,P|170:346|96:149,1,400
129,62,169905,6,0,B|175:41|175:41|219:63|219:63|265:41|265:41|308:63|308:63|352:39|352:39|402:66,1,300
442,151,171245,2,0,B|397:175|397:175|353:151|353:151|310:173|310:173|264:151|264:151|220:173|220:173|174:152,1,300
81,184,172586,6,0,B|48:221|48:221|59:270|59:270|33:313|33:313|55:358|55:358|110:356|110:356|155:383,1,300
229,320,173951,2,0,B|276:305|276:305|319:330|319:330|367:316|367:316|411:341|411:341|459:322|459:322|471:270,1,300
489,173,175321,6,0,B|446:151|446:151|395:158|395:158|352:135|352:135|301:144|301:144|251:120|251:120|200:131,1,300
112,98,176667,2,0,B|83:138|83:138|100:185|100:185|70:225|70:225|87:273|87:273|135:286|135:286|152:332,1,300
248,363,178013,6,0,B|296:375|296:375|342:356|342:356|363:310|363:310|410:293|410:293|456:311|456:311|510:295,1,300
508,196,179351,2,0,B|467:168|467:168|417:172|417:172|373:144|373:144|325:148|325:148|289:180|289:180|235:187,1,300
160,131,180669,6,0,B|182:87|182:87|216:124|216:124|237:79|237:79|274:115|274:115|296:72|296:72|330:110,1,300
342,209,182000,2,0,B|320:253|320:253|286:216|286:216|265:261|265:261|228:225|228:225|206:268|206:268|172:230,1,300
73,200,183331,6,0,B|25:213|25:213|11:262|11:262|59:251|59:251|47:301|47:301|94:291|94:291|86:342,1,300
182,369,184623,2,0,B|212:330|212:330|260:346|260:346|289:306|289:306|337:322|337:322|309:364|309:364|356:380,1,300
439,307,185924,6,0,B|470:261|470:261|441:216|441:216|474:171|474:171|445:125|445:125|478:81|478:81|444:24,1,330.000010070801
346,72,187251,2,0,B|315:118|315:118|344:163|344:163|311:208|311:208|340:254|340:254|307:298|307:298|341:355,1,330.000010070801
228,353,188569,6,0,B|171:363|171:363|201:321|201:321|147:331|147:331|181:288|181:288|126:296|126:296|164:248,1,330.000010070801
101,166,189898,2,0,B|134:119|134:119|84:127|84:127|116:83|116:83|63:95|63:95|94:49|94:49|34:58,1,330.000010070801
140,31,191306,6,0,P|179:32|216:62,2,74.9999999999999
62,159,192336,2,0,P|82:224|320:156,1,400
393,86,194052,6,0,L|472:100,2,74.9999999999999
256,23,195063,2,0,B|208:148|332:213|331:158|457:241|404:362,1,400
313,366,196748,6,0,P|281:356|230:361,2,74.9999999999999
187,284,197789,2,0,P|190:195|438:26,1,400
445,126,199526,6,0,P|453:163|492:194,2,74.9999999999999
401,269,200516,2,0,B|304:328|200:247|242:234|126:154|31:214,1,400
422,28,204781,6,0,L|446:144,1,99.9999999999999
416,168,205252,1,0,0:0:0:0:
366,170,205409,2,0,P|341:165|306:172,1,50
170,159,206037,6,0,L|186:275,1,99.9999999999999
167,305,206508,1,0,0:0:0:0:
187,350,206665,2,0,P|206:356|242:378,1,50
407,367,207294,6,0,L|422:247,1,99.9999999999999
435,220,207765,1,0,0:0:0:0:
473,188,207922,2,0,L|484:123,1,50
393,16,208550,6,0,P|319:18|288:51,1,99.9999999999999
293,81,209021,1,0,0:0:0:0:
252,110,209178,2,0,P|224:117|195:114,1,50
40,89,209807,6,0,L|21:191,1,99.9999999999999
35,235,210272,1,0,0:0:0:0:
84,239,210427,2,0,P|113:244|145:271,1,50
230,356,211047,6,0,P|270:356|319:320,1,99.9999999999999
323,272,211512,1,0,0:0:0:0:
346,227,211667,2,0,L|396:214,1,50
462,141,212132,5,0,0:0:0:0:
481,94,212287,2,0,P|459:50|401:27,1,99.9999999999999
369,7,212752,1,0,0:0:0:0:
328,36,212907,2,0,L|261:48,1,50
133,31,213527,6,0,P|103:77|113:137,1,99.9999999999999
137,159,213993,1,0,0:0:0:0:
157,204,214148,2,0,L|136:273,3,50
150,301,214768,6,0,P|201:300|255:329,1,99.9999999999999
265,365,215227,1,0,0:0:0:0:
312,380,215381,2,0,P|339:378|367:366,1,50
486,288,215994,6,0,L|450:176,1,99.9999999999999
454,142,216453,1,0,0:0:0:0:
415,109,216607,2,0,L|352:112,1,50
250,209,217220,6,0,P|190:227|145:210,1,99.9999999999999
126,176,217682,1,0,0:0:0:0:
79,157,217836,2,0,L|13:171,1,50
10,315,218452,6,0,L|109:333,1,99.9999999999999
145,366,218914,1,0,0:0:0:0:
193,379,219068,2,0,P|235:372|252:362,1,50
388,366,219684,6,0,L|358:249,1,99.9999999999999
321,241,220153,1,0,0:0:0:0:
299,195,220310,2,0,L|313:128,1,50
210,32,220937,6,0,P|161:11|109:12,1,99.9999999999999
71,36,221407,1,0,0:0:0:0:
51,81,221563,2,0,L|62:153,1,50
19,277,222190,6,0,P|54:269|125:308,1,99.9999999999999
130,338,222653,1,0,0:0:0:0:
174,360,222808,2,0,P|208:360|228:353,1,50
333,253,223427,6,0,L|354:373,1,99.9999999999999
399,357,223891,1,0,0:0:0:0:
443,335,224045,2,0,L|433:273,1,50
508,159,224664,6,0,B|500:98|453:82|453:82|454:152|412:164|412:164|406:99|356:85,1,300
270,41,225944,6,0,B|226:14|174:33|174:33|219:48|248:98|248:98|181:83|143:123,1,300
89,188,227237,6,0,B|89:233|57:277|57:277|112:282|150:238|150:238|156:292|118:334,1,300
217,365,228544,6,0,B|266:350|315:372|315:372|294:309|258:293|258:293|306:268|356:282,1,300
394,252,229666,1,0,0:0:0:0:
390,201,229827,1,0,0:0:0:0:
