osu file format v14

[General]
AudioFilename: audio.mp3
AudioLeadIn: 0
PreviewTime: 59094
Countdown: 0
SampleSet: Soft
StackLeniency: 0.7
Mode: 0
LetterboxInBreaks: 0
WidescreenStoryboard: 0

[Editor]
Bookmarks: 117623,126289
DistanceSpacing: 1.7
BeatDivisor: 4
GridSize: 32
TimelineZoom: 1.8

[Metadata]
Title:Sugar/Tzu
TitleUnicode:Sugar/Tzu
Artist:black midi
ArtistUnicode:black midi
Creator:-Gavin
Version:Art of War
Source:
Tags:black midi sun tzu sugar avant garde avant-garde avant-jazz jazz fusion jazz-fusion math rock hellfire -gavin
BeatmapID:4573302
BeatmapSetID:2167655

[Difficulty]
HPDrainRate:4.3
CircleSize:4.3
OverallDifficulty:9.2
ApproachRate:9.7
SliderMultiplier:2.4
SliderTickRate:1

[Events]
//Background and Video events
0,0,"6.jpg",0,0
//Break Periods
2,117823,123306
//Storyboard Layer 0 (Background)
//Storyboard Layer 1 (Fail)
//Storyboard Layer 2 (Pass)
//Storyboard Layer 3 (Foreground)
//Storyboard Layer 4 (Overlay)
//Storyboard Sound Samples

[TimingPoints]
14376,356.083086053412,4,2,0,100,1,0
17224,361.44578313253,4,2,0,55,1,0
17224,-142.857142857143,4,2,0,55,0,0
20115,364.741641337386,4,2,0,55,1,0
20115,-133.333333333333,4,2,0,55,0,0
23059,349.854227405248,4,2,0,55,1,0
23059,-142.857142857143,4,2,0,55,0,0
27279,355.555555555556,4,2,0,55,1,0
27279,-142.857142857143,4,2,0,55,0,0
28705,358.208955223881,4,2,0,70,1,0
28705,-133.333333333333,4,2,0,55,0,0
31212,-125,4,2,0,55,0,0
31570,-142.857142857143,4,2,0,55,0,0
34436,353.982300884956,4,2,0,55,1,0
34436,-142.857142857143,4,2,0,55,0,0
35320,-166.666666666667,4,2,0,55,0,0
37806,355.450236966825,4,2,0,55,1,0
37806,-166.666666666667,4,2,0,55,0,0
40099,348.33091436865,4,2,0,55,1,0
40099,-133.333333333333,4,2,0,55,0,0
42885,-133.333333333333,4,2,0,65,0,0
43582,-100,4,2,0,67,0,0
44278,-80,4,2,0,75,0,0
44627,-80,4,2,0,80,0,0
44975,-66.6666666666667,4,2,0,100,0,0
45323,-133.333333333333,4,2,0,70,0,0
45672,342.368045649073,4,2,0,75,1,0
48410,342.563516985441,4,2,0,75,1,0
51149,345.821325648414,4,2,0,75,1,0
53915,342.368045649073,4,2,0,75,1,0
56642,350.364963503649,4,2,0,75,1,0
56642,-250,4,2,0,80,0,0
56817,-250,4,2,0,5,0,0
56904,-100,4,2,0,80,0,0
57079,-100,4,2,0,5,0,0
57167,-66.6666666666667,4,2,0,80,0,0
57342,-66.6666666666667,4,2,0,5,0,0
57693,-100,4,2,0,90,0,0
58919,-66.6666666666667,4,2,0,80,0,0
59444,352.941176470588,4,2,0,100,1,0
59444,-66.6666666666667,4,2,0,85,0,1
65091,350.36496350365,4,2,0,85,1,1
65091,-66.6666666666667,4,2,0,85,0,1
69295,350.877192982456,4,2,0,85,1,1
69295,-66.6666666666667,4,2,0,85,0,1
70708,350.364963503649,4,2,0,85,1,1
70708,-66.6666666666667,4,2,0,85,0,1
71233,-62.5,4,2,0,85,0,1
72810,-62.5,4,2,0,70,0,0
73015,285.374554102259,4,2,0,70,1,0
73244,427.807486631015,4,2,0,70,1,0
73485,336.605890603085,4,2,0,85,1,0
73485,-166.666666666667,4,2,0,85,0,0
73825,343.347639484978,4,2,0,85,1,0
73825,-66.6666666666667,4,2,0,85,0,1
76228,343.347639484978,4,2,0,85,1,1
76228,-66.6666666666667,4,2,0,85,0,1
78974,344.530577088717,4,2,0,85,1,1
78974,-66.6666666666667,4,2,0,85,0,1
81738,344.827586206896,4,2,0,85,1,1
81738,-66.6666666666667,4,2,0,85,0,1
84496,339.462517680339,4,2,0,85,1,1
84496,-66.6666666666667,4,2,0,85,0,1
87235,344.332855093256,4,2,0,85,1,0
92756,344.827586206896,4,2,0,85,1,0
95514,344.827586206896,4,2,0,85,1,0
96893,350.877192982456,4,2,0,85,1,0
98297,338.504936530324,4,2,0,85,1,0
98297,-80,4,2,0,85,0,0
98635,-100,4,2,0,85,0,0
98974,-133.333333333333,4,2,0,85,0,0
99312,-66.6666666666667,4,2,0,85,0,0
101005,341.880341880341,4,2,0,85,1,0
101688,-66.6666666666667,4,2,0,85,0,0
103743,338.983050847457,4,2,0,85,1,0
103743,-66.6666666666667,4,2,0,85,0,0
109186,353.982300884955,4,2,0,85,1,0
109186,-100,4,2,0,85,0,0
109451,-66.6666666666667,4,2,0,85,0,0
109716,-50,4,2,0,85,0,0
110247,-100,4,2,0,85,0,0
111132,-66.6666666666667,4,2,0,85,0,0
112003,348.837209302325,4,2,0,85,1,0
112003,-100,4,2,0,85,0,0
112264,-66.6666666666667,4,2,0,85,0,0
112526,-50,4,2,0,85,0,0
113049,-100,4,2,0,85,0,0
114096,-133.333333333333,4,2,0,85,0,0
114787,354.50516986706,4,2,0,85,1,0
114964,-133.333333333333,4,2,0,85,0,0
117268,-133.333333333333,4,2,0,60,0,0
117623,369.230769230769,4,2,0,60,1,0
120576,364.741641337385,4,2,0,70,1,0
123441,360.36036036036,4,2,0,70,1,0
126289,360.902255639098,4,2,0,70,1,0
126289,-142.857142857143,4,2,0,70,0,0
126830,-200,4,2,0,70,0,0
128995,-200,4,2,0,5,0,0
129085,-200,4,2,0,70,0,0
129176,356.612184249628,4,2,0,70,1,0
129443,-200,4,2,0,70,0,0
132028,348.33091436865,4,2,0,70,1,0
132028,-200,4,2,0,70,0,0
134782,350.36496350365,4,2,0,70,1,0
134782,-200,4,2,0,70,0,0
137421,337.078651685393,4,2,0,70,1,0
137589,341.394025604551,4,2,0,70,1,0
137589,-133.333333333333,4,2,0,70,0,0
140320,338.504936530324,4,2,0,70,1,0
140320,-133.333333333333,4,2,0,70,0,0
143028,339.943342776203,4,2,0,70,1,0
143028,-133.333333333333,4,2,0,70,0,0
145747,330.123796423658,4,2,0,70,1,0
146737,-100,4,2,0,80,0,0
147067,-100,4,2,0,70,0,0
148388,334.261838440111,4,2,0,70,1,0
148388,-133.333333333333,4,2,0,70,0,0
151062,331.491712707182,4,2,0,70,1,0
151062,-133.333333333333,4,2,0,70,0,0
153713,335.664335664335,4,2,0,70,1,0
153713,-125,4,2,0,70,0,0
159083,350.877192982455,4,2,0,70,1,0
161890,333.796940194714,4,2,0,70,1,0
161890,-166.666666666667,4,2,0,70,0,0
162223,-125,4,2,0,70,0,0
162557,-100,4,2,0,70,0,0
162891,-83.3333333333333,4,2,0,70,0,0
163225,-71.4285714285714,4,2,0,70,0,0
163558,-62.5,4,2,0,70,0,0
163892,-55.5555555555556,4,2,0,70,0,0
164226,-50,4,2,0,70,0,0
164560,338.504936530324,4,2,0,90,1,0
164813,-66.6666666666667,4,2,0,90,0,0
165067,-50,4,2,0,90,0,0
165575,-100,4,2,0,90,0,0
167268,329.670329670329,4,2,0,90,1,0
167515,-66.6666666666667,4,2,0,90,0,0
167762,-50,4,2,0,90,0,0
168257,-100,4,2,0,90,0,0
168586,-66.6666666666667,4,2,0,90,0,0
169905,335.195530726257,4,2,0,90,1,0
169905,-66.6666666666667,4,2,0,90,0,0
172586,341.394025604552,4,2,0,90,1,0
172586,-66.6666666666667,4,2,0,90,0,0
175321,336.605890603085,4,2,0,90,1,0
175321,-66.6666666666667,4,2,0,90,0,0
178013,334.728033472803,4,2,0,90,1,0
178013,-66.6666666666667,4,2,0,90,0,0
180669,332.871012482662,4,2,0,95,1,0
180669,-66.6666666666667,4,2,0,95,0,1
181001,-50,4,2,0,95,0,1
181334,-66.6666666666667,4,2,0,95,0,1
181667,-50,4,2,0,95,0,1
182000,-66.6666666666667,4,2,0,95,0,1
182333,-50,4,2,0,95,0,1
182666,-66.6666666666667,4,2,0,95,0,1
182999,-50,4,2,0,95,0,1
183331,323.014804845221,4,2,0,95,1,1
183331,-66.6666666666667,4,2,0,95,0,1
185269,-66.6666666666667,4,2,0,95,0,1
185924,331.950207468879,4,2,0,95,1,1
185924,-66.6666666666667,4,2,0,100,0,1
188569,332.409972299168,4,2,0,100,1,1
188901,-66.6666666666667,4,2,0,100,0,1
189898,350.364963503649,4,2,0,100,1,1
190248,-66.6666666666667,4,2,0,100,0,1
191306,343.347639484978,4,2,0,90,1,0
191306,-100,4,2,0,90,0,0
191563,-66.6666666666667,4,2,0,90,0,0
191821,-50,4,2,0,90,0,0
192336,-100,4,2,0,90,0,0
193709,-133.333333333333,4,2,0,90,0,0
194052,337.078651685393,4,2,0,90,1,0
194052,-100,4,2,0,95,0,0
194304,-66.6666666666667,4,2,0,95,0,0
194557,-50,4,2,0,95,0,0
195063,-100,4,2,0,95,0,0
196158,-66.6666666666667,4,2,0,95,0,0
196748,347.322720694645,4,2,0,95,1,0
196748,-100,4,2,0,95,0,0
197008,-66.6666666666667,4,2,0,95,0,0
197268,-50,4,2,0,95,0,0
197789,-100,4,2,0,95,0,0
198224,-66.6666666666667,4,2,0,95,0,0
199526,330.123796423658,4,2,0,95,1,0
199526,-100,4,2,0,95,0,0
199773,-66.6666666666667,4,2,0,95,0,0
200021,-50,4,2,0,95,0,0
200516,-100,4,2,0,95,0,0
202166,326.975476839236,4,2,0,60,1,0
204781,314.13612565445,4,2,0,100,1,1
204781,-66.6666666666667,4,2,0,100,0,1
209807,310.077519379844,4,2,0,100,1,1
209807,-66.6666666666667,4,2,0,100,0,1
214768,306.513409961685,4,2,0,100,1,1
214768,-66.6666666666667,4,2,0,100,0,1
217220,308.087291399229,4,2,0,100,1,1
217220,-66.6666666666667,4,2,0,100,0,1
219684,313.315926892949,4,2,0,100,1,1
219684,-66.6666666666667,4,2,0,100,0,1
222190,309.278350515463,4,2,0,100,1,1
222190,-66.6666666666667,4,2,0,100,0,1
224664,319.999999999999,4,2,0,100,1,0
224664,-66.6666666666667,4,2,0,100,0,0
225944,323.450134770889,4,2,0,100,1,0
225944,-66.6666666666667,4,2,0,100,0,0
227237,326.975476839236,4,2,0,100,1,0
227237,-58.8235294117647,4,2,0,100,0,0
228544,320.855614973261,4,2,0,100,1,0
228544,-50,4,2,0,100,0,0
229827,320.855614973261,4,2,0,80,1,0

[Colours]
Combo1 : 130,120,255
Combo2 : 164,100,240
Combo3 : 230,110,150
Combo4 : 100,200,200

[HitObjects]
182,127,14376,6,0,P|195:126|219:131,62,30,0|0|0|0|0|0|0|0|0|0|0|0|0|0|0|0|0|0|0|0|0|0|0|0|0|0|0|0|0|0|0|0|0|0|0|0|0|0|0|0|0|0|0|0|0|0|0|0|0|0|0|0|0|0|0|0|0|0|0|0|0|0|0,0:0|0:0|0:0|0:0|0:0|0:0|0:0|0:0|0:0|0:0|0:0|0:0|0:0|0:0|0:0|0:0|0:0|0:0|0:0|0:0|0:0|0:0|0:0|0:0|0:0|0:0|0:0|0:0|0:0|0:0|0:0|0:0|0:0|0:0|0:0|0:0|0:0|0:0|0:0|0:0|0:0|0:0|0:0|0:0|0:0|0:0|0:0|0:0|0:0|0:0|0:0|0:0|0:0|0:0|0:0|0:0|0:0|0:0|0:0|0:0|0:0|0:0|0:0,0:0:0:0:
182,127,17224,6,0,B|95:142|136:195|45:214,1,167.999994873047,0|0,0:0|0:0,0:0:0:0:
175,364,17766,2,0,B|190:241|190:241|177:258|153:274,1,167.999994873047,0|0,0:0|0:0,0:0:0:0:
74,305,18308,1,0,0:0:0:0:
185,371,18489,2,0,L|197:275,1,83.9999974365235,0|0,0:0|0:0,0:0:0:0:
309,342,18850,1,0,0:0:0:0:
309,342,19031,2,0,B|352:348|389:322|389:322|415:358|459:365,1,167.999994873047,0|0,0:0|0:0,0:0:0:0:
500,270,19573,1,0,0:0:0:0:
399,191,19754,2,0,L|488:171,1,83.9999974365235,0|0,0:0|0:0,0:0:0:0:
300,8,20115,6,0,B|247:24|248:77|255:64|257:126|197:140,1,180.000006866455,0|0,0:0|0:0,0:0:0:0:
0,97,20662,1,0,0:0:0:0:
58,195,20844,2,0,B|71:381,1,180.000006866455,0|0,0:0|0:0,0:0:0:0:
277,300,21391,2,0,B|306:304|306:304|286:250|210:233|167:278,1,180.000006866455
225,384,21938,1,0,0:0:0:0:
437,334,22121,6,0,B|449:364|416:377|416:377|368:278|461:227|456:243|547:199|510:107,1,360.000013732911,0|0,0:0|0:0,0:0:0:0:
371,15,23059,2,0,P|317:45|350:144,1,167.999994873047,0|0,0:0|0:0,0:0:0:0:
251,229,23583,2,0,B|158:237|175:183|72:197,1,167.999994873047,0|0,0:0|0:0,0:0:0:0:
65,212,24108,5,0,0:0:0:0:
78,105,24283,1,0,0:0:0:0:
178,72,24458,1,0,0:0:0:0:
245,146,24633,2,0,B|130:226|200:264|89:336,1,251.999992309571,0|0,0:0|0:0,0:0:0:0:
99,364,25333,1,0,0:0:0:0:
251,326,25507,2,0,B|232:333|216:334|216:334|294:381|361:298|340:299|355:212|476:219|526:245|524:298|523:335|513:388|432:406|364:394|316:255|478:108,1,755.999976928712,0|0,0:0|0:0,0:0:0:0:
289,109,27279,6,0,B|192:98|133:172,1,167.999994873047,0|0,0:0|0:0,0:0:0:0:
7,215,27812,2,0,B|33:47,1,167.999994873047,0|0,0:0|0:0,0:0:0:0:
97,268,28345,2,0,P|67:319|39:342,1,83.9999974365235,0|0,0:0|0:0,0:0:0:0:
23,350,28612,5,0,0:0:0:0:
23,350,28705,2,0,B|125:333|98:393|202:378,1,180.000006866455,0|0,0:0|0:0,0:0:0:0:
263,307,29242,1,0,0:0:0:0:
354,361,29421,5,0,0:0:0:0:
354,361,29510,1,0,0:0:0:0:
354,361,29600,2,0,P|392:339|449:343,2,90.0000034332277,0|0|0,0:0|0:0|0:0,0:0:0:0:
484,249,30137,2,0,L|451:140,1,90.0000034332277,0|0,0:0|0:0,0:0:0:0:
482,3,30496,5,0,0:0:0:0:
482,3,30585,1,0,0:0:0:0:
482,3,30675,2,0,P|427:23|400:58,1,90.0000034332277,0|0,0:0|0:0,0:0:0:0:
288,130,30973,5,0,0:0:0:0:
203,139,31093,5,0,0:0:0:0:
143,79,31212,6,0,B|88:28|67:73|11:30,1,144,0|0,0:0|0:0,0:0:0:0:
3,2,31570,6,0,P|44:53|30:160,1,167.999994873047,0|0,0:0|0:0,0:0:0:0:
83,258,32107,2,0,L|0:265,2,83.9999974365235,0|0|0,0:0|0:0|0:0,0:0:0:0:
6,384,32645,2,0,L|90:378,1,83.9999974365235,0|0,0:0|0:0,0:0:0:0:
196,210,33003,6,0,B|250:218|263:265|250:262|262:307|312:321,1,167.999994873047,0|0,0:0|0:0,0:0:0:0:
435,370,33540,1,0,0:0:0:0:
447,341,33719,1,0,0:0:0:0:
457,311,33899,1,0,0:0:0:0:
512,124,34078,6,0,P|492:181|394:171,1,167.999994873047,0|0,0:0|0:0,0:0:0:0:
508,94,34612,2,0,L|429:66,2,83.9999974365235,0|0|0,0:0|0:0|0:0,0:0:0:0:
328,2,35320,6,0,B|253:20|290:63|213:80,1,143.999995605469,0|0,0:0|0:0,0:0:0:0:
71,0,35910,5,0,0:0:0:0:
71,0,36028,5,0,0:0:0:0:
71,0,36146,6,0,P|95:38|97:72,1,71.9999978027344,0|0,0:0|0:0,0:0:0:0:
91,156,36382,6,0,L|73:160,6,17.9999994506836,0|0|0|0|0|0|0,0:0|0:0|0:0|0:0|0:0|0:0|0:0,0:0:0:0:
167,237,36736,6,0,L|241:251,1,71.9999978027344,0|0,0:0|0:0,0:0:0:0:
33,300,37179,2,0,B|21:289|18:269|18:269|3:328|61:378|121:361,1,179.999994506836
161,246,37806,1,0,0:0:0:0:
269,264,38028,1,0,0:0:0:0:
319,359,38250,2,0,B|372:377|412:333|391:334|428:299|484:308,1,179.999994506836
512,323,38872,5,0,0:0:0:0:
468,232,39050,1,0,0:0:0:0:
369,210,39227,1,0,0:0:0:0:
512,159,39405,2,0,L|411:139,1,71.9999978027344
361,200,39760,1,0,0:0:0:0:
507,51,39938,5,0,0:0:0:0:
507,51,40099,2,0,B|328:1,1,180.000006866455,0|0,0:0|0:0,0:0:0:0:
214,79,40621,1,0,0:0:0:0:
214,79,40795,2,0,P|176:113|155:117,2,60.0000022888184
119,11,41143,1,0,0:0:0:0:
5,26,41318,6,0,B|28:217,1,180.000006866455,0|0,0:0|0:0,0:0:0:0:
151,242,41840,2,0,B|196:259|210:305|210:305|186:393,1,180.000006866455,0|0,0:0|0:0,0:0:0:0:
0,306,42363,1,0,0:0:0:0:
0,306,42537,2,0,P|49:315|98:351,1,90.0000034332277,0|0,0:0|0:0,0:0:0:0:
236,289,42885,6,0,L|285:282,1,45.0000017166138,0|0,0:0|0:0,0:0:0:0:
377,342,43059,2,0,L|429:352,3,45.0000017166138,0|0|0|0,0:0|0:0|0:0|0:0,0:0:0:0:
512,205,43408,6,0,L|467:211,1,45.0000017166138,0|0,0:0|0:0,0:0:0:0:
235,322,43582,2,0,L|290:273,4,60,0|0|0|0|0,0:0|0:0|0:0|0:0|0:0,0:0:0:0:
397,71,44017,6,0,L|383:131,2,60,0|0|0,0:0|0:0|0:0,0:0:0:0:
203,153,44278,6,0,L|112:158,1,75,0|0,0:0|0:0,0:0:0:0:
382,315,44453,2,0,L|469:310,1,75,0|0,0:0|0:0,0:0:0:0:
108,259,44627,6,0,L|93:347,1,75,0|0,0:0|0:0,0:0:0:0:
486,209,44801,2,0,L|501:121,1,75,0|0,0:0|0:0,0:0:0:0:
196,384,44975,5,0,0:0:0:0:
196,384,45323,5,0,0:0:0:0:
25,120,45672,5,0,0:0:0:0:
49,93,45757,1,0,0:0:0:0:
85,90,45843,1,0,0:0:0:0:
115,113,45928,1,0,0:0:0:0:
186,244,46014,5,0,0:0:0:0:
257,244,46099,1,0,0:0:0:0:
299,186,46185,1,0,0:0:0:0:
281,116,46271,1,0,0:0:0:0:
369,21,46356,6,0,L|435:8,3,60,0|0|0|0,0:0|0:0|0:0|0:0,0:0:0:0:
511,116,46699,5,0,0:0:0:0:
482,182,46784,1,0,0:0:0:0:
512,249,46870,1,0,0:0:0:0:
477,313,46955,1,0,0:0:0:0:
327,376,47041,6,0,L|246:362,3,60,0|0|0|0,0:0|0:0|0:0|0:0,0:0:0:0:
89,362,47383,5,0,0:0:0:0:
30,318,47469,1,0,0:0:0:0:
74,261,47555,1,0,0:0:0:0:
134,304,47640,1,0,0:0:0:0:
240,226,47726,6,0,L|310:210,1,60
381,104,47897,2,0,L|322:90,1,60
169,28,48068,5,0,0:0:0:0:
98,25,48154,1,0,0:0:0:0:
40,65,48239,1,0,0:0:0:0:
15,130,48325,1,0,0:0:0:0:
152,172,48410,5,0,0:0:0:0:
185,160,48495,1,0,0:0:0:0:
220,167,48581,1,0,0:0:0:0:
246,192,48666,1,0,0:0:0:0:
358,292,48752,5,0,0:0:0:0:
409,239,48838,1,0,0:0:0:0:
390,167,48923,1,0,0:0:0:0:
414,99,49009,1,0,0:0:0:0:
512,180,49095,6,0,B|518:216|518:216|502:277,3,60
448,365,49437,5,0,0:0:0:0:
379,336,49523,1,0,0:0:0:0:
311,365,49608,1,0,0:0:0:0:
239,373,49694,1,0,0:0:0:0:
98,295,49780,6,0,B|83:322|83:322|80:355,3,60,0|0|0|0,0:0|0:0|0:0|0:0,0:0:0:0:
36,129,50122,5,0,0:0:0:0:
107,114,50208,1,0,0:0:0:0:
162,161,50294,1,0,0:0:0:0:
91,176,50379,1,0,0:0:0:0:
24,9,50465,6,0,L|102:-3,1,60,0|0,0:0|0:0,0:0:0:0:
196,72,50636,2,0,L|255:81,1,60,0|0,0:0|0:0,0:0:0:0:
378,26,50807,5,0,0:0:0:0:
446,54,50893,1,0,0:0:0:0:
492,110,50979,1,0,0:0:0:0:
505,181,51064,1,0,0:0:0:0:
364,193,51149,5,0,0:0:0:0:
333,208,51235,1,0,0:0:0:0:
316,241,51321,1,0,0:0:0:0:
319,277,51408,1,0,0:0:0:0:
512,366,51494,5,0,0:0:0:0:
450,325,51581,1,0,0:0:0:0:
379,345,51667,1,0,0:0:0:0:
312,315,51754,1,0,0:0:0:0:
232,200,51840,6,0,B|214:227|214:227|213:265,3,60
75,328,52186,5,0,0:0:0:0:
23,277,52272,1,0,0:0:0:0:
15,204,52359,1,0,0:0:0:0:
46,137,52445,1,0,0:0:0:0:
114,19,52532,5,0,0:0:0:0:
142,41,52618,1,0,0:0:0:0:
173,53,52705,1,0,0:0:0:0:
208,54,52791,1,0,0:0:0:0:
403,111,52878,5,0,0:0:0:0:
384,41,52964,1,0,0:0:0:0:
317,68,53051,1,0,0:0:0:0:
333,138,53137,1,0,0:0:0:0:
449,226,53223,5,0,0:0:0:0:
449,226,53310,2,0,L|508:208,1,60,0|0,0:0|0:0,0:0:0:0:
428,367,53483,5,0,0:0:0:0:
428,367,53569,2,0,L|347:342,1,60,0|0,0:0|0:0,0:0:0:0:
259,283,53742,2,0,L|201:299,1,60,0|0,0:0|0:0,0:0:0:0:
57,376,53915,5,0,0:0:0:0:
40,344,54000,1,0,0:0:0:0:
43,306,54086,1,0,0:0:0:0:
13,280,54171,1,0,0:0:0:0:
64,141,54257,5,0,0:0:0:0:
90,72,54342,1,0,0:0:0:0:
159,47,54428,1,0,0:0:0:0:
227,75,54514,1,0,0:0:0:0:
374,122,54599,6,0,B|405:127|405:127|440:120,3,60,0|0|0|0,0:0|0:0|0:0|0:0,0:0:0:0:
250,189,54942,5,0,0:0:0:0:
258,263,55027,1,0,0:0:0:0:
294,327,55113,1,0,0:0:0:0:
355,367,55198,1,0,0:0:0:0:
478,281,55284,6,0,B|497:251|497:251|500:217,3,60,0|0|0|0,0:0|0:0|0:0|0:0,0:0:0:0:
497,70,55626,5,0,0:0:0:0:
433,36,55712,1,0,0:0:0:0:
401,101,55798,1,0,0:0:0:0:
465,135,55883,1,0,0:0:0:0:
283,66,55969,5,0,0:0:0:0:
273,99,56054,1,0,0:0:0:0:
279,133,56140,1,0,0:0:0:0:
304,157,56225,1,0,0:0:0:0:
415,271,56311,5,0,0:0:0:0:
368,352,56397,1,0,0:0:0:0:
368,352,56482,1,0,0:0:0:0:
76,366,56642,6,0,P|91:354|127:342,1,48,0|0,0:0|0:0,0:0:0:0:
225,269,56904,6,0,P|174:230|119:216,1,120,0|0,0:0|0:0,0:0:0:0:
0,110,57167,6,0,P|82:69|180:63,1,180.000006866455,0|0,0:0|0:0,0:0:0:0:
438,27,57693,6,0,B|423:86|371:99|371:99|378:129|378:129|324:124|294:164|294:164|294:204|319:230|319:230|346:195|387:206|387:206|385:227|403:259,1,420,0|0,0:0|0:0,0:0:0:0:
512,384,58393,5,0,0:0:0:0:
512,384,58481,1,0,0:0:0:0:
512,384,58569,1,0,0:0:0:0:
512,384,58656,1,0,0:0:0:0:
512,384,58744,1,0,0:0:0:0:
316,317,58919,6,0,P|265:332|227:371,1,90.0000034332277,0|0,0:0|0:0,0:0:0:0:
115,384,59094,1,0,0:0:0:0:
36,195,59269,1,0,0:0:0:0:
331,23,59444,6,0,B|294:54|294:54|248:63,1,90.0000034332277,0|0,0:0|0:0,0:0:0:0:
34,91,59620,2,0,B|78:99|78:99|121:136,1,90.0000034332277,0|0,0:0|0:0,0:0:0:0:
288,200,59796,1,0,0:0:0:0:
485,25,59973,2,0,B|434:68|434:68|435:142|435:142|477:184|477:184|506:320,1,315.000012016297,0|0,0:0|0:0,0:0:0:0:
506,323,60326,1,0,0:0:0:0:
185,246,60502,2,0,L|275:206,1,90.0000034332277,0|0,0:0|0:0,0:0:0:0:
15,381,60679,2,0,B|23:317|23:317|19:305|19:305|27:238,1,135.000005149841,0|0,0:0|0:0,0:0:0:0:
29,217,60855,1,0,0:0:0:0:
175,25,61032,2,0,L|161:123,1,90.0000034332277,0|0,0:0|0:0,0:0:0:0:
365,145,61208,6,0,B|395:173|395:173|440:178|440:178|469:162|469:162|490:242|490:242|445:298,1,270.000010299683,0|0,0:0|0:0,0:0:0:0:
428,315,61561,1,0,0:0:0:0:
430,61,61738,1,0,0:0:0:0:
319,348,61914,1,0,0:0:0:0:
41,366,62091,1,0,0:0:0:0:
242,152,62267,6,0,B|199:157|199:157|161:185,2,90.0000034332277,0|0|0,0:0|0:0|0:0,0:0:0:0:
20,257,62532,1,0,0:0:0:0:
20,257,62620,2,0,B|-9:134,1,90.0000034332277,0|0,0:0|0:0,0:0:0:0:
358,87,62796,2,0,B|288:29|288:29|200:18,1,180.000006866455,0|0,0:0|0:0,0:0:0:0:
499,279,63149,5,0,0:0:0:0:
511,295,63208,6,0,L|375:275,1,120.000004577637,0|0,0:0|0:0,0:0:0:0:
107,381,63444,2,0,B|152:361|152:361|232:374|232:374|286:359,1,180.000006866455,0|0,0:0|0:0,0:0:0:0:
305,351,63679,1,0,0:0:0:0:
51,219,63855,1,0,0:0:0:0:
413,104,64032,1,0,0:0:0:0:
202,268,64208,1,0,0:0:0:0:
64,23,64385,2,0,B|33:57|33:57|22:102,1,90.0000034332277,0|0,0:0|0:0,0:0:0:0:
228,254,64561,2,0,B|220:195|220:195|221:181|221:181|209:83,1,135.000005149841,0|0,0:0|0:0,0:0:0:0:
210,88,64738,1,0,0:0:0:0:
512,221,64914,1,0,0:0:0:0:
336,28,65091,6,0,B|392:4|392:4|450:18|450:18|484:67|484:67|435:79|435:79|398:127,1,270.000010299683,0|0,0:0|0:0,0:0:0:0:
409,137,65441,1,0,0:0:0:0:
298,354,65616,2,0,B|378:332|378:332|456:346,1,135.000005149841,0|0,0:0|0:0,0:0:0:0:
457,348,65791,1,0,0:0:0:0:
118,205,65966,1,0,0:0:0:0:
26,375,66142,1,0,0:0:0:0:
323,221,66317,1,0,0:0:0:0:
189,66,66492,6,0,B|146:38|146:38|96:29,1,90.0000034332277,0|0,0:0|0:0,0:0:0:0:
8,243,66667,2,0,B|58:235|58:235|101:209,1,90.0000034332277,0|0,0:0|0:0,0:0:0:0:
0,22,66842,1,0,0:0:0:0:
211,190,67018,1,0,0:0:0:0:
419,17,67193,1,0,0:0:0:0:
231,179,67368,6,0,B|279:181|279:181|330:207,1,90.0000034332277,0|0,0:0|0:0,0:0:0:0:
466,284,67543,1,0,0:0:0:0:
140,379,67718,5,0,0:0:0:0:
140,379,67806,1,0,0:0:0:0:
140,379,67893,2,0,B|117:274,1,90.0000034332277,0|0,0:0|0:0,0:0:0:0:
30,74,68069,2,0,B|16:137|16:137|17:152|17:152|0:235,1,135.000005149841,0|0,0:0|0:0,0:0:0:0:
0,233,68244,1,0,0:0:0:0:
222,111,68419,2,0,L|195:-8,1,90.0000034332277,0|0,0:0|0:0,0:0:0:0:
128,182,68594,1,0,0:0:0:0:
387,235,68769,1,0,0:0:0:0:
497,18,68945,1,0,0:0:0:0:
246,114,69120,6,0,B|223:131|223:131|220:165|220:165|234:189|234:189|237:261,1,135.000005149841,0|0,0:0|0:0,0:0:0:0:
237,268,69295,1,0,0:0:0:0:
503,171,69470,6,0,B|506:124|506:124|483:97|483:97|459:43,1,135.000005149841,0|0,0:0|0:0,0:0:0:0:
450,22,69645,1,0,0:0:0:0:
345,239,69821,6,0,B|413:250|413:250|484:305,1,135.000005149841,0|0,0:0|0:0,0:0:0:0:
484,310,69996,1,0,0:0:0:0:
201,376,70172,1,0,0:0:0:0:
49,262,70347,2,0,B|32:308|32:308|41:362,1,90.0000034332277,0|0,0:0|0:0,0:0:0:0:
331,263,70523,2,0,B|345:308|345:308|331:353,1,90.0000034332277,0|0,0:0|0:0,0:0:0:0:
40,102,70708,5,0,0:0:0:0:
126,56,70795,1,0,0:0:0:0:
29,111,70883,2,0,B|96:138|96:138|165:206,1,135.000005149841,0|0,0:0|0:0,0:0:0:0:
158,207,71058,1,0,0:0:0:0:
476,0,71233,6,0,B|404:22|404:22|375:53|375:53|301:74,1,192,0|0,0:0|0:0,0:0:0:0:
193,115,71496,1,0,0:0:0:0:
317,178,71583,2,0,B|337:218|337:218|330:270,1,96,0|0,0:0|0:0,0:0:0:0:
512,218,71759,2,0,B|492:178|492:178|499:126,1,96,0|0,0:0|0:0,0:0:0:0:
365,384,71934,2,0,B|295:371|295:371|283:364|283:364|203:349,1,144,0|0,0:0|0:0,0:0:0:0:
198,348,72109,1,0,0:0:0:0:
512,328,72284,1,0,0:0:0:0:
81,363,72459,6,0,B|59:313|59:313|102:284|102:284|99:229|99:229|67:216|67:216|50:176|50:176|72:161|72:161|79:126|79:126|104:85,1,336,0|0,0:0|0:0,0:0:0:0:
114,72,72810,5,0,0:0:0:0:
486,48,73015,5,0,0:0:0:0:
309,359,73244,5,0,0:0:0:0:
296,180,73485,6,0,B|289:167|289:167|282:170|279:180|283:187|283:187|286:194|296:197|303:193|303:193|310:190|313:180|309:173|309:173|306:166|296:163|289:167|289:167,1,107.999996704102,0|0,0:0|0:0,0:0:0:0:
296,180,73825,6,0,B|245:182|245:182|176:152|176:152|108:154,1,180.000006866455,0|0,0:0|0:0,0:0:0:0:
192,361,74168,1,0,0:0:0:0:
42,51,74340,6,0,B|3:87|3:87|-15:159|-15:159|2:215,1,180.000006866455,0|0,0:0|0:0,0:0:0:0:
245,16,74683,1,0,0:0:0:0:
117,280,74855,6,0,B|186:259|186:259|262:277,1,135.000005149841,0|0,0:0|0:0,0:0:0:0:
261,298,75026,1,0,0:0:0:0:
465,298,75198,5,0,0:0:0:0:
399,364,75284,1,0,0:0:0:0:
479,297,75370,2,0,B|480:234|480:234|439:152,1,135.000005149841,0|0,0:0|0:0,0:0:0:0:
433,143,75541,1,0,0:0:0:0:
166,9,75713,5,0,0:0:0:0:
97,90,75799,1,0,0:0:0:0:
155,183,75885,1,0,0:0:0:0:
262,153,75970,1,0,0:0:0:0:
267,45,76056,1,0,0:0:0:0:
51,222,76228,5,0,0:0:0:0:
4,377,76399,1,0,0:0:0:0:
191,278,76571,2,0,B|248:243|248:243|289:252|289:252|303:279|303:279|409:306,1,225.000008583069,0|0,0:0|0:0,0:0:0:0:
414,308,76828,1,0,0:0:0:0:
414,308,76914,1,0,0:0:0:0:
458,61,77086,2,0,L|527:34,2,45.0000017166138,0|0|0,0:0|0:0|0:0,0:0:0:0:
174,16,77258,5,0,0:0:0:0:
484,181,77429,1,0,0:0:0:0:
145,192,77601,5,0,0:0:0:0:
99,332,77773,1,0,0:0:0:0:
438,72,77944,1,0,0:0:0:0:
191,88,78116,2,0,B|136:94|136:94|107:68|107:68|70:53|70:53,1,135.000005149841,0|0,0:0|0:0,0:0:0:0:
39,57,78288,1,0,0:0:0:0:
309,26,78459,1,0,0:0:0:0:
77,154,78631,1,0,0:0:0:0:
112,382,78803,1,0,0:0:0:0:
352,147,78974,6,0,B|309:145|309:145|280:177|280:177|221:190,1,135.000005149841,0|0,0:0|0:0,0:0:0:0:
209,194,79146,1,0,0:0:0:0:
363,354,79318,1,0,0:0:0:0:
499,67,79490,6,0,B|438:38|438:38|438:30|438:30|360:7,1,135.000005149841,0|0,0:0|0:0,0:0:0:0:
358,3,79663,1,0,0:0:0:0:
69,98,79835,1,0,0:0:0:0:
11,311,80007,6,0,B|-7:266|-7:266|2:209,1,90.0000034332277,0|0,0:0|0:0,0:0:0:0:
258,159,80179,2,0,B|276:204|276:204|267:261,1,90.0000034332277,0|0,0:0|0:0,0:0:0:0:
98,381,80352,6,0,B|147:352|147:352|184:367|184:367|206:361|206:361|250:363,1,135.000005149841,0|0,0:0|0:0,0:0:0:0:
250,358,80524,1,0,0:0:0:0:
403,149,80696,6,0,B|408:188|408:188|387:203|387:203|371:238|371:238|380:283,1,135.000005149841,0|0,0:0|0:0,0:0:0:0:
387,298,80868,1,0,0:0:0:0:
512,377,81041,1,0,0:0:0:0:
408,53,81213,1,0,0:0:0:0:
161,223,81385,6,0,B|115:244|115:244|94:288|94:288|66:218|66:218|81:152|81:152|52:61,1,315.000012016297,0|0,0:0|0:0,0:0:0:0:
50,52,81730,1,0,0:0:0:0:
0,328,81910,1,0,0:0:0:0:
266,249,82082,1,0,0:0:0:0:
479,357,82255,6,0,B|439:322|439:322|393:331|393:331|349:370,1,135.000005149841,0|0,0:0|0:0,0:0:0:0:
348,382,82427,1,0,0:0:0:0:
174,121,82600,1,0,0:0:0:0:
473,179,82772,1,0,0:0:0:0:
91,374,82944,5,0,0:0:0:0:
197,331,83031,1,0,0:0:0:0:
76,373,83117,2,0,B|60:331|60:331|74:262|74:262,1,90.0000034332277,0|0,0:0|0:0,0:0:0:0:
322,364,83289,1,0,0:0:0:0:
314,120,83462,6,0,B|266:111|266:111|221:127|221:127|162:101|162:101|149:56|149:56|98:37|98:37|94:31|94:31|46:12,1,315.000012016297,0|0,0:0|0:0,0:0:0:0:
27,1,83806,1,0,0:0:0:0:
405,17,83979,1,0,0:0:0:0:
270,222,84151,1,0,0:0:0:0:
463,382,84324,1,0,0:0:0:0:
11,199,84496,5,0,0:0:0:0:
90,171,84580,2,0,B|133:192|133:192|140:190|140:190|192:217,1,90.0000034332277,0|0,0:0|0:0,0:0:0:0:
275,310,84750,5,0,0:0:0:0:
358,324,84835,1,0,0:0:0:0:
428,279,84920,1,0,0:0:0:0:
511,280,85005,2,0,B|463:265|463:265|414:216,1,90.0000034332277,0|0,0:0|0:0,0:0:0:0:
357,69,85174,5,0,0:0:0:0:
401,0,85259,1,0,0:0:0:0:
484,0,85344,2,0,B|511:40|511:40|507:93,1,90.0000034332277,0|0,0:0|0:0,0:0:0:0:
284,214,85514,2,0,B|257:174|257:174|261:121,1,90.0000034332277,0|0,0:0|0:0,0:0:0:0:
172,31,85684,5,0,0:0:0:0:
67,8,85768,1,0,0:0:0:0:
0,85,85853,2,0,B|46:99|46:99|49:104|49:104|97:118,1,90.0000034332277,0|0,0:0|0:0,0:0:0:0:
201,200,86023,5,0,0:0:0:0:
228,293,86108,2,0,B|183:308|183:308|143:345,1,90.0000034332277,0|0,0:0|0:0,0:0:0:0:
10,379,86278,5,0,0:0:0:0:
1,269,86363,1,0,0:0:0:0:
92,205,86447,1,0,0:0:0:0:
152,337,86532,5,0,0:3:0:0:
182,367,86617,1,0,0:3:0:0:
222,375,86702,1,0,0:3:0:0:
260,363,86787,1,0,0:3:0:0:
260,363,86872,1,0,0:3:0:0:
444,230,87169,5,0,0:0:0:0:
459,210,87235,2,0,B|460:182|460:182|448:152,3,60
331,61,87579,5,0,0:0:0:0:
269,112,87665,1,0,0:0:0:0:
259,188,87751,1,0,0:0:0:0:
301,257,87837,1,0,0:0:0:0:
194,359,87923,5,0,0:0:0:0:
153,367,88009,1,0,0:0:0:0:
112,376,88095,1,0,0:0:0:0:
71,384,88181,1,0,0:0:0:0:
16,191,88267,5,0,0:0:0:0:
96,190,88353,1,0,0:0:0:0:
144,255,88439,1,0,0:0:0:0:
64,258,88525,1,0,0:0:0:0:
9,86,88612,5,0,0:0:0:0:
49,75,88698,1,0,0:0:0:0:
79,44,88784,1,0,0:0:0:0:
88,1,88870,1,0,0:0:0:0:
225,8,88956,5,0,0:0:0:0:
293,50,89042,1,0,0:0:0:0:
326,123,89128,1,0,0:0:0:0:
312,202,89214,1,0,0:0:0:0:
447,296,89300,6,0,L|513:287,1,60,0|0,0:0|0:0,0:0:0:0:
336,383,89473,2,0,L|270:374,1,60,0|0,0:0|0:0,0:0:0:0:
209,272,89645,5,0,0:0:0:0:
133,298,89731,1,0,0:0:0:0:
80,359,89817,1,0,0:0:0:0:
0,367,89903,1,0,0:0:0:0:
21,191,89989,5,0,0:0:0:0:
59,204,90075,1,0,0:0:0:0:
82,243,90161,1,0,0:0:0:0:
120,256,90247,1,0,0:0:0:0:
165,121,90333,5,0,0:0:0:0:
245,111,90420,1,0,0:0:0:0:
293,46,90506,1,0,0:0:0:0:
359,0,90592,1,0,0:0:0:0:
500,69,90678,6,0,B|471:80|471:80|437:120,3,60,0|0|0|0,0:0|0:0|0:0|0:0,0:0:0:0:
512,218,91022,5,0,0:0:0:0:
509,298,91108,1,0,0:0:0:0:
451,354,91194,1,0,0:0:0:0:
371,355,91281,1,0,0:0:0:0:
326,224,91366,5,0,0:0:0:0:
311,185,91452,1,0,0:0:0:0:
279,160,91538,1,0,0:0:0:0:
240,152,91625,1,0,0:0:0:0:
98,20,91711,5,0,0:0:0:0:
143,86,91797,1,0,0:0:0:0:
122,164,91883,1,0,0:0:0:0:
54,207,91969,1,0,0:0:0:0:
0,336,92055,5,0,0:0:0:0:
65,384,92141,2,0,L|137:372,1,60,0|0,0:0|0:0,0:0:0:0:
193,237,92313,5,0,0:0:0:0:
264,199,92399,2,0,L|336:223,1,60,0|0,0:0|0:0,0:0:0:0:
397,342,92572,2,0,L|469:326,1,60,0|0,0:0|0:0,0:0:0:0:
508,224,92756,5,0,0:0:0:0:
482,189,92842,1,0,0:0:0:0:
473,146,92928,1,0,0:0:0:0:
485,103,93014,1,0,0:0:0:0:
362,20,93100,5,0,0:0:0:0:
284,32,93187,1,0,0:0:0:0:
337,92,93273,1,0,0:0:0:0:
259,103,93359,1,0,0:0:0:0:
157,162,93445,5,0,0:0:0:0:
121,139,93531,1,0,0:0:0:0:
80,132,93618,1,0,0:0:0:0:
38,139,93704,1,0,0:0:0:0:
3,289,93790,5,0,0:0:0:0:
66,339,93876,1,0,0:0:0:0:
145,330,93962,1,0,0:0:0:0:
194,266,94049,1,0,0:0:0:0:
323,312,94135,6,0,L|335:380,3,60,0|0|0|0,0:0|0:0|0:0|0:0,0:0:0:0:
412,215,94480,5,0,0:0:0:0:
464,154,94566,1,0,0:0:0:0:
512,219,94652,1,0,0:0:0:0:
459,279,94738,1,0,0:0:0:0:
304,200,94824,5,0,0:0:0:0:
274,167,94911,1,0,0:0:0:0:
301,131,94997,1,0,0:0:0:0:
332,164,95083,1,0,0:0:0:0:
193,246,95169,5,0,0:0:0:0:
114,230,95256,1,0,0:0:0:0:
44,190,95342,1,0,0:0:0:0:
2,121,95428,1,0,0:0:0:0:
171,93,95514,5,0,0:0:0:0:
208,76,95600,1,0,0:0:0:0:
229,41,95686,1,0,0:0:0:0:
227,0,95772,1,0,0:0:0:0:
65,61,95858,5,0,0:0:0:0:
3,111,95945,1,0,0:0:0:0:
1,191,96031,1,0,0:0:0:0:
61,245,96117,1,0,0:0:0:0:
70,373,96203,6,0,L|2:386,1,60,0|0,0:0|0:0,0:0:0:0:
210,278,96376,2,0,L|268:289,1,60,0|0,0:0|0:0,0:0:0:0:
389,368,96548,5,0,0:0:0:0:
402,289,96634,1,0,0:0:0:0:
465,239,96720,1,0,0:0:0:0:
456,159,96807,1,0,0:0:0:0:
352,63,96893,6,0,L|315:75,7,30,0|0|0|0|0|0|0|0,0:0|0:0|0:0|0:0|0:0|0:0|0:0|0:0,0:0:0:0:
484,5,97243,2,0,L|512:14,7,30,0|0|0|0|0|0|0|0,0:0|0:0|0:0|0:0|0:0|0:0|0:0|0:0,0:0:0:0:
352,66,97594,6,0,L|315:78,7,30,0|0|0|0|0|0|0|0,0:0|0:0|0:0|0:0|0:0|0:0|0:0|0:0,0:0:0:0:
484,2,97945,2,0,L|512:11,7,30,0|0|0|0|0|0|0|0,0:0|0:0|0:0|0:0|0:0|0:0|0:0|0:0,0:0:0:0:
355,70,98297,5,0,0:0:0:0:
358,74,98353,5,0,0:0:0:0:
361,78,98409,6,0,L|418:98,3,50,0|0|0|0,0:0|0:0|0:0|0:0,0:0:0:0:
491,171,98635,5,0,0:0:0:0:
488,175,98692,5,0,0:0:0:0:
485,179,98748,6,0,L|428:195,3,40,0|0|0|0,0:0|0:0|0:0|0:0,0:0:0:0:
347,229,98973,5,0,0:0:0:0:
350,233,99029,5,0,0:0:0:0:
353,237,99086,6,0,L|381:250,3,30.0000011444092,0|0|0|0,0:0|0:0|0:0|0:0,0:0:0:0:
509,354,99312,6,0,B|448:342|448:342|373:370,1,120.000004577637,0|0,0:0|0:0,0:0:0:0:
282,384,99481,2,0,B|216:378|216:378|162:338,1,120.000004577637,0|0,0:0|0:0,0:0:0:0:
13,171,99651,6,0,B|94:159|94:159|110:150|110:150|211:136,1,180.000006866455,0|0,0:0|0:0,0:0:0:0:
302,13,99904,5,0,0:0:0:0:
407,37,99989,2,0,B|432:76|432:76|427:119,1,90.0000034332277,0|0,0:0|0:0,0:0:0:0:
270,275,100158,5,0,0:0:0:0:
325,361,100243,1,0,0:0:0:0:
429,370,100328,2,0,B|474:355|474:355|477:351|477:351|539:331,1,90.0000034332277,0|0,0:0|0:0,0:0:0:0:
512,156,100497,5,0,0:0:0:0:
342,152,100581,2,0,L|227:184,1,90.0000034332277,0|0,0:0|0:0,0:0:0:0:
174,317,100751,2,0,B|91:297|91:297|80:287|80:287|-4:267,1,180.000006866455,0|0,0:0|0:0,0:0:0:0:
59,156,101005,5,0,0:0:0:0:
81,99,101090,1,0,0:0:0:0:
126,141,101175,1,0,0:0:0:0:
105,197,101262,1,0,0:0:0:0:
317,101,101347,5,0,0:0:0:0:
287,21,101432,1,0,0:0:0:0:
223,80,101517,1,0,0:0:0:0:
253,160,101602,1,0,0:0:0:0:
396,250,101688,6,0,B|438:224|438:224|495:222,1,90.0000034332277,0|0,0:0|0:0,0:0:0:0:
512,357,101859,2,0,B|470:383|470:383|413:385,1,90.0000034332277,0|0,0:0|0:0,0:0:0:0:
258,366,102030,5,0,0:0:0:0:
177,344,102116,1,0,0:0:0:0:
98,323,102201,1,0,0:0:0:0:
19,302,102287,1,0,0:0:0:0:
147,198,102372,5,0,0:0:0:0:
199,167,102457,1,0,0:0:0:0:
181,109,102543,1,0,0:0:0:0:
238,84,102628,1,0,0:0:0:0:
75,1,102714,5,0,0:0:0:0:
24,64,102799,1,0,0:0:0:0:
52,141,102885,1,0,0:0:0:0:
13,212,102970,1,0,0:0:0:0:
252,292,103056,5,0,0:0:0:0:
252,292,103141,1,0,0:0:0:0:
252,292,103227,2,0,L|378:260,1,90.0000034332277,0|0,0:0|0:0,0:0:0:0:
506,97,103398,5,0,0:0:0:0:
502,101,103483,1,0,0:0:0:0:
499,106,103569,2,0,L|373:74,1,90.0000034332277,0|0,0:0|0:0,0:0:0:0:
259,1,103743,6,0,B|220:8|220:8|225:13|225:13|177:13,3,90.0000034332277,0|0|0|0,0:0|0:0|0:0|0:0,0:0:0:0:
30,124,104081,5,0,0:0:0:0:
112,114,104166,1,0,0:0:0:0:
168,173,104251,1,0,0:0:0:0:
88,186,104336,1,0,0:0:0:0:
10,292,104420,5,0,0:0:0:0:
1,353,104505,1,0,0:0:0:0:
53,384,104590,1,0,0:0:0:0:
63,323,104675,1,0,0:0:0:0:
225,263,104759,5,0,0:0:0:0:
307,274,104844,1,0,0:0:0:0:
373,322,104929,1,0,0:0:0:0:
428,383,105014,1,0,0:0:0:0:
437,233,105098,6,0,B|399:202|399:202|378:138,1,90.0000034332277,0|0,0:0|0:0,0:0:0:0:
501,0,105268,2,0,B|492:46|492:46|446:96,1,90.0000034332277,0|0,0:0|0:0,0:0:0:0:
314,57,105437,5,0,0:0:0:0:
268,124,105522,1,0,0:0:0:0:
190,146,105607,1,0,0:0:0:0:
113,119,105692,1,0,0:0:0:0:
2,228,105776,5,0,0:0:0:0:
63,213,105861,1,0,0:0:0:0:
117,244,105946,1,0,0:0:0:0:
140,301,106031,1,0,0:0:0:0:
275,384,106115,5,0,0:0:0:0:
355,367,106200,1,0,0:0:0:0:
434,347,106285,1,0,0:0:0:0:
512,322,106370,1,0,0:0:0:0:
426,115,106454,5,0,0:0:0:0:
484,95,106539,1,0,0:0:0:0:
472,156,106624,1,0,0:0:0:0:
414,176,106709,1,0,0:0:0:0:
283,194,106793,5,0,0:0:0:0:
217,241,106878,1,0,0:0:0:0:
292,273,106963,1,0,0:0:0:0:
208,162,107048,1,0,0:0:0:0:
74,301,107132,6,0,B|63:278|63:278|61:246,7,45.0000017166138,0|0|0|0|0|0|0|0,0:0|0:0|0:0|0:0|0:0|0:0|0:0|0:0,0:0:0:0:
14,135,107471,6,0,L|-5:190,7,45.0000017166138,0|0|0|0|0|0|0|0,0:0|0:0|0:0|0:0|0:0|0:0|0:0|0:0,0:0:0:0:
96,57,107810,6,0,B|140:37|140:37|194:46,1,90.0000034332277,0|0,0:0|0:0,0:0:0:0:
422,251,107980,2,0,B|471:246|471:246|516:210,1,90.0000034332277,0|0,0:0|0:0,0:0:0:0:
375,99,108149,6,0,B|373:50|373:50|329:-5,1,90.0000034332277,0|0,0:0|0:0,0:0:0:0:
170,234,108319,2,0,B|172:283|172:283|216:338,1,90.0000034332277,0|0,0:0|0:0,0:0:0:0:
260,152,108488,6,0,L|281:212,7,45.0000017166138,0|0|0|0|0|0|0|0,0:0|0:0|0:0|0:0|0:0|0:0|0:0|0:0,0:0:0:0:
330,269,108827,6,0,L|319:315,3,45.0000017166138,0|0|0|0,0:0|0:0|0:0|0:0,0:0:0:0:
308,341,108997,6,0,L|319:387,3,45.0000017166138,0|0|0|0,0:0|0:0|0:0|0:0,0:0:0:0:
58,351,109186,6,0,P|110:323|191:337,1,120,0|0,0:0|0:0,0:0:0:0:
276,212,109451,6,0,P|195:165|91:173,1,180.000006866455,0|0,0:0|0:0,0:0:0:0:
22,22,109716,6,0,P|131:5|500:97,1,480,0|0,0:0|0:0,0:0:0:0:
464,362,110247,6,0,B|466:358|466:358|467:354|467:354|470:354|470:354|472:350|472:350|471:348|474:346|474:346|475:342|475:342|480:340|480:340|486:335|486:335|486:329|486:329|491:325|491:325|490:319|490:319|491:312|491:312|493:313|493:313|491:302|491:302|487:294|487:294|489:293|489:293|486:290|486:290|484:283|484:283|484:278|484:278|480:279|480:279|480:274|480:274|474:273|474:273|473:270|471:272|470:268|470:268|464:265|464:265|462:265|461:263|461:263|461:258|461:258|456:260|456:260|455:255|455:255|451:255|451:255|450:257|445:250|445:250|435:251|435:251|439:246|439:246|437:251|433:245|433:245|426:250|426:250|420:247|420:247|413:245|413:245|409:248|409:248|403:248|403:248|402:252|402:252|394:254|394:254|389:254|389:254|389:259|389:259|386:259|386:259|385:264|385:264|383:263|385:266|378:268|378:268|376:271|376:271|374:281|374:281|366:285|366:285|371:290|371:290|370:288|365:296|365:296|372:307|372:307|370:311|370:311|374:319|374:319|375:327|375:327|371:327|368:328|368:328|366:333|366:333|361:340|361:340|353:345|353:345|345:347|345:347|342:343|342:343|336:343|334:346|334:346|323:342|323:342|318:337|318:337|312:339|307:344|307:344,1,420,0|0,0:0|0:0,0:0:0:0:
182,367,110955,5,0,0:0:0:0:
113,384,111044,1,0,0:0:0:0:
54,345,111132,2,0,B|49:298|49:298|76:244,1,90.0000034332277,0|0,0:0|0:0,0:0:0:0:
197,104,111309,5,0,0:0:0:0:
107,46,111398,2,0,L|1:74,1,90.0000034332277,0|0,0:0|0:0,0:0:0:0:
203,230,111575,5,0,0:0:0:0:
270,279,111663,2,0,B|310:259|310:259|369:264,1,90.0000034332277,0|0,0:0|0:0,0:0:0:0:
454,359,111840,5,0,0:0:0:0:
493,274,111929,1,0,0:0:0:0:
460,371,112003,6,0,P|388:346|322:364,1,120,0|0,0:0|0:0,0:0:0:0:
217,227,112264,6,0,P|300:179|407:181,1,180.000006866455,0|0,0:0|0:0,0:0:0:0:
512,7,112526,6,0,P|387:-14|52:79,1,480,0|0,0:0|0:0,0:0:0:0:
2,330,113049,6,0,B|8:334|8:334|12:335|12:335|16:332|16:332|22:333|22:333|37:333|37:333|39:321|39:321|36:326|36:326|36:314|36:314|39:309|44:312|44:312|47:308|57:303|56:298|56:298|68:298|68:298|61:302|61:302|71:299|74:300|76:292|76:292|83:286|83:286|80:280|82:274|82:274|79:264|79:264|83:263|83:263|88:260|88:260|91:254|91:254|91:251|94:250|94:250|100:243|100:243|101:248|101:248|106:250|110:253|110:253|116:258|116:258|110:263|108:269|108:269|112:272|112:272|116:276|111:281|111:281|117:279|124:276|124:276|124:280|124:280|130:279|130:279|134:285|134:285|141:286|141:286|140:289|143:301|143:301|137:299|132:299|132:299|130:305|130:305|129:311|129:311|123:312|119:317|114:318|114:318|120:320|120:320|122:325|122:325|129:324|136:328|136:328|141:323|141:323|143:324|143:324|147:321|153:321|153:321|157:325|159:331|162:327|162:327|169:328|169:328|167:335|175:335|175:330|175:330|180:328|181:328,1,420,0|0,0:0|0:0,0:0:0:0:
305,368,113747,6,0,L|315:321,5,40,0|0|0|0|0|0,0:0|0:0|0:0|0:0|0:0|0:0,0:0:0:0:
410,276,114096,6,0,L|395:242,5,30.0000011444092,0|0|0|0|0|0,0:0|0:0|0:0|0:0|0:0|0:0,0:0:0:0:
314,214,114444,6,0,B|322:193|322:193|319:193|319:193|329:161,3,45.0000017166138,0|0|0|0,0:0|0:0|0:0|0:0,0:0:0:0:
391,147,114787,1,0,0:0:0:0:
273,7,114964,6,0,P|248:76|209:102,1,90.0000034332277,0|0,0:0|0:0,0:0:0:0:
54,51,115318,2,0,B|114:25|148:69|132:67|164:112|217:96,1,180.000006866455,0|0,0:0|0:0,0:0:0:0:
143,193,115850,1,0,0:0:0:0:
14,156,116027,6,0,L|30:262,1,90.0000034332277,0|0,0:0|0:0,0:0:0:0:
133,304,116382,1,0,0:0:0:0:
272,203,116559,2,0,L|242:369,1,157.500006008148,0|0,0:0|0:0,0:0:0:0:
239,384,116914,1,0,0:0:0:0:
362,159,117268,5,0,0:0:0:0:
365,167,117445,1,0,0:0:0:0:
369,174,117623,1,0,0:0:0:0:
256,192,123801,12,0,125603,0:0:0:0:
56,157,126289,6,0,P|136:138|217:189,1,167.999994873047,0|0,0:0|0:0,0:0:0:0:
321,130,126830,2,0,B|325:175|299:216|299:216|325:175|373:161,1,180,0|0,0:0|0:0,0:0:0:0:
490,122,127552,2,0,P|492:151|484:181,1,60
427,251,127913,2,0,P|425:280|434:309,1,60,0|0,0:0|0:0,0:0:0:0:
512,374,128273,5,0,0:0:0:0:
340,338,128454,2,0,L|276:351,1,60,0|0,0:0|0:0,0:0:0:0:
252,357,128725,2,0,L|137:378,1,90,0|0,0:0|0:0,0:0:0:0:
46,384,129085,6,0,L|57:312,1,60,0|0,0:0|0:0,0:0:0:0:
3,239,129532,1,0,0:0:0:0:
3,239,129770,2,0,B|-15:221|-15:221|-22:163|38:86|111:106|111:106|92:143|115:175,1,280
421,0,131806,5,0,0:0:0:0:
326,50,132028,2,0,L|342:179,1,120,0|0,0:0|0:0,0:0:0:0:
456,241,132724,2,0,B|486:247|486:247|503:298|453:362|381:353|381:353|389:299|346:271,1,300,0|0,0:0|0:0,0:0:0:0:
131,336,133943,2,0,B|142:364|142:364|57:396|0:342,1,180
130,153,134782,2,0,P|65:15|55:173,1,420,0|0,0:0|0:0,0:0:0:0:
486,321,137421,5,0,0:0:0:0:
486,321,137477,5,0,0:0:0:0:
486,321,137533,5,0,0:0:0:0:
486,321,137589,6,0,P|445:326|396:342,1,90.0000034332277,0|0,0:0|0:0,0:0:0:0:
309,271,137930,1,0,0:0:0:0:
348,162,138101,1,0,0:0:0:0:
456,205,138271,1,0,0:0:0:0:
417,314,138442,1,0,0:0:0:0:
355,159,138613,1,0,0:0:0:0:
306,264,138783,1,0,0:0:0:0:
459,211,138954,1,0,0:0:0:0:
410,316,139125,1,0,0:0:0:0:
305,258,139295,1,0,0:0:0:0:
404,319,139466,1,0,0:0:0:0:
362,157,139637,1,0,0:0:0:0:
461,218,139808,1,0,0:0:0:0:
397,320,139978,1,0,0:0:0:0:
303,251,140149,1,0,0:0:0:0:
154,352,140320,5,0,0:0:0:0:
73,367,140489,1,0,0:0:0:0:
170,216,140658,1,0,0:0:0:0:
0,244,140827,1,0,0:0:0:0:
78,368,140997,1,0,0:0:0:0:
157,347,141166,1,0,0:0:0:0:
0,252,141335,1,0,0:0:0:0:
162,209,141504,1,0,0:0:0:0:
162,340,141674,1,0,0:3:0:0:
85,370,141843,1,0,0:3:0:0:
154,204,142012,1,0,0:3:0:0:
0,261,142181,1,0,0:3:0:0:
166,335,142351,1,0,0:3:0:0:
92,371,142520,1,0,0:3:0:0:
0,270,142689,1,0,0:3:0:0:
146,199,142858,1,0,0:3:0:0:
4,47,143028,5,0,0:0:0:0:
98,0,143197,1,0,0:0:0:0:
188,56,143367,1,0,0:0:0:0:
178,168,143537,1,0,0:0:0:0:
6,37,143707,1,0,0:0:0:0:
188,61,143877,1,0,0:0:0:0:
168,172,144047,1,0,0:0:0:0:
103,0,144217,1,0,0:0:0:0:
8,27,144387,1,0,3:0:0:0:
188,68,144557,1,0,3:0:0:0:
109,0,144727,1,0,3:0:0:0:
159,176,144897,1,0,3:0:0:0:
187,74,145067,1,0,3:0:0:0:
115,0,145237,1,0,3:0:0:0:
12,17,145407,1,0,3:0:0:0:
149,180,145577,1,0,3:0:0:0:
306,117,145747,5,0,0:0:0:0:
399,83,145912,1,0,0:0:0:0:
480,139,146077,1,0,0:0:0:0:
390,168,146242,1,0,0:0:0:0:
399,83,146407,1,0,0:0:0:0:
305,123,146572,1,0,0:0:0:0:
393,166,146737,1,0,0:0:0:0:
350,145,146819,1,0,0:0:0:0:
305,123,146902,1,0,0:0:0:0:
480,132,147067,1,0,0:0:0:0:
393,81,147232,1,0,0:0:0:0:
305,124,147397,1,0,0:0:0:0:
393,168,147562,1,0,0:0:0:0:
479,134,147727,1,0,0:0:0:0:
384,79,147892,1,0,0:0:0:0:
264,124,148057,1,0,0:0:0:0:
239,249,148222,1,0,0:0:0:0:
498,366,148388,5,0,0:0:0:0:
473,348,148471,2,0,L|386:366,1,45.0000017166138,0|0,0:0|0:0,0:0:0:0:
300,384,148722,1,0,0:0:0:0:
263,211,148889,2,0,L|380:186,1,90.0000034332277,0|0,0:0|0:0,0:0:0:0:
441,178,149223,1,0,0:0:0:0:
267,206,149390,1,0,0:0:0:0:
441,178,149557,2,0,L|457:280,1,90.0000034332277,0|0,0:0|0:0,0:0:0:0:
289,375,149892,2,0,L|278:271,1,90.0000034332277,0|0,0:0|0:0,0:0:0:0:
270,201,150226,1,0,0:0:0:0:
460,363,150393,2,0,L|455:273,1,90.0000034332277,0|0,0:0|0:0,0:0:0:0:
450,187,150727,1,0,0:0:0:0:
456,367,150894,2,0,L|455:263,1,90.0000034332277,0|0,0:0|0:0,0:0:0:0:
284,186,151227,1,0,0:0:0:0:
275,362,151393,1,0,0:0:0:0:
284,186,151559,2,0,L|387:191,1,90.0000034332277,0|0,0:0|0:0,0:0:0:0:
450,371,151890,2,0,L|354:365,1,90.0000034332277,0|0,0:0|0:0,0:0:0:0:
460,196,152222,1,0,0:0:0:0:
174,36,152387,5,0,0:0:0:0:
161,53,152470,1,0,0:0:0:0:
154,74,152553,1,0,0:0:0:0:
155,96,152636,1,0,0:0:0:0:
163,117,152719,1,0,0:0:0:0:
43,182,152885,1,0,0:0:0:0:
207,220,153050,5,0,0:0:0:0:
220,237,153133,1,0,0:0:0:0:
227,258,153216,1,0,0:0:0:0:
226,280,153299,1,0,0:0:0:0:
218,301,153382,1,0,0:0:0:0:
353,357,153548,1,0,0:0:0:0:
508,137,153713,5,0,0:3:0:0:
319,100,153880,2,0,L|193:75,1,96,0|0,0:3|0:3,0:3:0:0:
415,112,154216,1,0,0:3:0:0:
224,85,154384,2,0,L|97:67,1,96,0|0,0:3|0:3,0:3:0:0:
332,0,154719,1,0,0:3:0:0:
131,79,154887,1,0,0:3:0:0:
321,95,155055,2,0,L|417:104,1,96,0|0,0:3|0:3,0:3:0:0:
322,0,155391,1,0,0:3:0:0:
130,84,155559,2,0,L|226:87,1,96,0|0,0:3|0:3,0:3:0:0:
55,231,155894,5,0,0:0:0:0:
55,231,156062,1,0,0:0:0:0:
257,372,156230,2,0,B|294:344|349:355|349:355|326:313|270:308|270:308|341:247|450:268|450:268|394:251|368:218|368:218|415:221|452:182|452:182|408:148|416:85,1,672
209,31,157573,2,0,B|263:15|303:31|303:31|330:70|308:122|308:122|203:108|120:158|120:158|118:217|170:253|170:253,1,480
132,367,158580,5,0,0:0:0:0:
111,373,158747,1,0,0:0:0:0:
87,379,158915,1,0,0:0:0:0:
66,384,159083,1,0,0:0:0:0:
493,72,161890,6,0,L|441:51,3,35.9999989013672,0|0|0|0,0:0|0:0|0:0|0:0,0:0:0:0:
262,84,162223,6,0,L|205:98,1,48,0|0,0:0|0:0,0:0:0:0:
383,194,162390,2,0,L|441:218,1,48,0|0,0:0|0:0,0:0:0:0:
251,281,162557,6,0,L|232:352,3,60,0|0|0|0,0:0|0:0|0:0|0:0,0:0:0:0:
16,201,162891,6,0,L|32:270,1,71.9999978027344,0|0,0:0|0:0,0:0:0:0:
119,20,163058,1,0,0:0:0:0:
221,57,163141,1,0,0:0:0:0:
104,35,163225,6,0,L|7:7,3,83.9999974365235,0|0|0|0,0:0|0:0|0:0|0:0,0:0:0:0:
194,243,163558,6,0,L|290:231,1,96,0|0,0:0|0:0,0:0:0:0:
485,27,163725,2,0,L|389:39,1,96,0|0,0:0|0:0,0:0:0:0:
480,259,163892,6,0,B|495:204|495:204|484:132,1,107.999996704102,0|0,0:0|0:0,0:0:0:0:
225,1,164059,2,0,B|210:56|210:56|221:128,1,107.999996704102,0|0,0:0|0:0,0:0:0:0:
259,274,164226,5,0,0:0:0:0:
199,341,164310,1,0,0:0:0:0:
114,372,164393,1,0,0:0:0:0:
26,384,164476,1,0,0:0:0:0:
31,209,164560,6,0,P|97:233|126:288,1,120,0|0,0:0|0:0,0:0:0:0:
196,0,164813,6,0,P|248:82|224:172,1,180.000006866455,0|0,0:0|0:0,0:0:0:0:
483,13,165067,6,0,P|473:160|233:389,1,480,0|0,0:0|0:0,0:0:0:0:
96,124,165575,2,0,B|139:138|139:138|115:94|115:94|140:59|140:59|96:69|96:69|65:35|65:35|61:81|61:81|17:97|17:97|61:113|61:113|61:166|61:166,1,420
18,294,166252,5,0,0:0:0:0:
15,298,166337,1,0,0:0:0:0:
12,302,166421,1,0,0:0:0:0:
9,306,166506,1,0,0:0:0:0:
0,341,166591,5,0,0:0:0:0:
98,320,166675,1,0,0:0:0:0:
184,365,166760,1,0,0:0:0:0:
310,147,166929,5,0,0:0:0:0:
386,170,167014,1,0,0:0:0:0:
447,117,167098,1,0,0:0:0:0:
447,117,167183,1,0,0:0:0:0:
381,20,167268,6,0,P|331:36|269:-10,1,120,0|0,0:0|0:0,0:0:0:0:
36,140,167515,6,0,P|122:153|213:62,1,180.000006866455,0|0,0:0|0:0,0:0:0:0:
508,225,167762,6,0,P|379:261|287:171,1,240,0|0,0:0|0:0,0:0:0:0:
0,342,168009,6,0,P|113:374|220:327,1,240,0|0,0:0|0:0,0:0:0:0:
448,53,168257,2,0,B|468:67|471:92|471:92|463:112|442:129|442:129|411:130|395:119|395:119|379:94|386:73,1,180
257,99,168586,1,0,0:0:0:0:
204,43,168669,2,0,L|88:51,2,90.0000034332277,0|0|0,0:0|0:0|0:0,0:0:0:0:
206,243,168916,5,0,0:0:0:0:
140,193,168998,1,0,0:0:0:0:
62,218,169081,1,0,0:0:0:0:
33,294,169163,1,0,0:0:0:0:
193,280,169246,5,0,0:0:0:0:
237,264,169328,1,0,0:0:0:0:
280,280,169410,1,0,0:0:0:0:
303,322,169493,1,0,0:0:0:0:
118,333,169575,5,0,0:0:0:0:
94,332,169658,1,0,0:0:0:0:
71,346,169740,1,0,0:0:0:0:
60,370,169822,1,0,0:0:0:0:
0,210,169905,6,0,B|15:168|15:168|22:162|22:162|37:115,3,90.0000034332277,0|0|0|0,0:0|0:0|0:0|0:0,0:0:0:0:
67,4,170240,5,0,0:0:0:0:
158,12,170323,1,0,0:0:0:0:
222,78,170407,1,0,0:0:0:0:
216,168,170491,1,0,0:0:0:0:
318,275,170575,6,0,B|360:266|360:266|371:271|371:271|448:253,3,90.0000034332277,0|0|0|0,0:0|0:0|0:0|0:0,0:0:0:0:
511,139,170910,5,0,0:0:0:0:
508,45,170994,1,0,0:0:0:0:
423,3,171078,1,0,0:0:0:0:
340,42,171161,1,0,0:0:0:0:
234,181,171245,6,0,B|190:175|190:175|181:170|181:170|135:160,1,90.0000034332277,0|0,0:0|0:0,0:0:0:0:
12,43,171413,2,0,B|58:40|58:40|69:48|69:48|115:55,1,90.0000034332277,0|0,0:0|0:0,0:0:0:0:
91,263,171580,5,0,0:0:0:0:
0,296,171664,1,0,0:0:0:0:
62,371,171748,1,0,0:0:0:0:
157,344,171832,1,0,0:0:0:0:
357,347,171916,6,0,B|396:353|396:353|407:347|407:347|446:342,3,90.0000034332277,0|0|0|0,0:0|0:0|0:0|0:0,0:0:0:0:
439,215,172251,5,0,0:0:0:0:
480,129,172335,1,0,0:0:0:0:
457,40,172418,1,0,0:0:0:0:
369,0,172502,1,0,0:0:0:0:
257,125,172586,6,0,B|248:88|248:88|247:75|247:75|241:63|241:63|235:21,3,90.0000034332277,0|0|0|0,0:0|0:0|0:0|0:0,0:0:0:0:
176,225,172927,5,0,0:0:0:0:
76,236,173012,1,0,0:0:0:0:
16,154,173098,1,0,0:0:0:0:
116,138,173183,1,0,0:0:0:0:
106,345,173268,6,0,B|63:350|63:350|63:355|63:355|15:381,1,90.0000034332277,0|0,0:0|0:0,0:0:0:0:
264,345,173439,2,0,B|304:315|304:315|305:308|305:308|338:247,1,90.0000034332277,0|0,0:0|0:0,0:0:0:0:
287,136,173610,5,0,0:0:0:0:
336,58,173695,1,0,0:0:0:0:
430,39,173780,1,0,0:0:0:0:
512,90,173866,1,0,0:0:0:0:
499,228,173951,6,0,B|456:221|456:221|448:224|448:224|401:214,3,90.0000034332277,0|0|0|0,0:0|0:0|0:0|0:0,0:0:0:0:
240,257,174292,5,0,0:0:0:0:
154,216,174378,1,0,0:0:0:0:
91,144,174463,1,0,0:0:0:0:
0,111,174549,1,0,0:0:0:0:
183,45,174634,6,0,B|224:22|224:22|223:21|223:21|281:14,3,90.0000034332277,0|0|0|0,0:0|0:0|0:0|0:0,0:0:0:0:
391,190,174975,5,0,0:0:0:0:
466,116,175061,1,0,0:0:0:0:
388,42,175146,1,0,0:0:0:0:
313,116,175232,1,0,0:0:0:0:
492,234,175321,6,0,B|502:278|502:278|501:287|501:287|510:321,1,90.0000034332277,0|0,0:0|0:0,0:0:0:0:
347,384,175489,2,0,B|357:340|357:340|356:331|356:331|365:297,1,90.0000034332277,0|0,0:0|0:0,0:0:0:0:
239,212,175657,5,0,0:0:0:0:
253,310,175741,1,0,0:0:0:0:
145,378,175825,1,0,0:0:0:0:
159,280,175909,1,0,0:0:0:0:
17,209,175994,6,0,B|16:259|16:259|38:309,3,90.0000034332277,0|0|0|0,0:0|0:0|0:0|0:0,0:0:0:0:
68,55,176330,5,0,0:0:0:0:
153,97,176415,1,0,0:0:0:0:
247,79,176499,1,0,0:0:0:0:
302,0,176583,1,0,0:0:0:0:
424,120,176667,6,0,B|449:123|449:123|462:129|462:129|482:130|482:130|514:139,3,90.0000034332277,0|0|0|0,0:0|0:0|0:0|0:0,0:0:0:0:
278,190,177004,5,0,0:0:0:0:
241,287,177088,1,0,0:0:0:0:
341,326,177172,1,0,0:0:0:0:
378,229,177256,1,0,0:0:0:0:
242,93,177340,6,0,B|196:105|196:105|152:154,1,90.0000034332277,0|0,0:0|0:0,0:0:0:0:
13,266,177508,2,0,B|58:276|58:276|109:264,1,90.0000034332277,0|0,0:0|0:0,0:0:0:0:
0,56,177677,5,0,0:0:0:0:
89,92,177761,1,0,0:0:0:0:
163,27,177845,1,0,0:0:0:0:
259,10,177929,1,0,0:0:0:0:
398,98,178013,6,0,B|436:82|436:82|447:81|447:81|495:68,1,90.0000034332277,0|0,0:0|0:0,0:0:0:0:
495,245,178180,5,0,0:0:0:0:
468,311,178264,1,0,0:0:0:0:
438,375,178347,2,0,B|394:363|394:363|389:364|389:364|325:348,1,90.0000034332277
227,215,178515,2,0,B|180:221|180:221|126:253,1,90.0000034332277,0|0,0:0|0:0,0:0:0:0:
18,384,178682,6,0,B|10:343|10:343|13:337|13:337|1:291,3,90.0000034332277,0|0|0|0,0:0|0:0|0:0|0:0,0:0:0:0:
106,136,179017,5,0,0:0:0:0:
133,44,179100,1,0,0:0:0:0:
49,0,179184,1,0,0:0:0:0:
22,92,179267,1,0,0:0:0:0:
201,229,179351,6,0,B|244:217|244:217|288:224,3,90.0000034332277,0|0|0|0,0:0|0:0|0:0|0:0,0:0:0:0:
265,31,179686,5,0,0:0:0:0:
361,11,179770,1,0,0:0:0:0:
445,55,179854,1,0,0:0:0:0:
478,146,179937,1,0,0:0:0:0:
512,302,180021,6,0,B|469:311|469:311|466:319|466:319|418:327,1,90.0000034332277,0|0,0:0|0:0,0:0:0:0:
249,381,180188,2,0,B|213:360|213:360|212:352|212:352|168:329,1,90.0000034332277,0|0,0:0|0:0,0:0:0:0:
3,185,180356,5,0,0:0:0:0:
96,207,180439,1,0,0:0:0:0:
172,151,180523,1,0,0:0:0:0:
166,56,180607,1,0,0:0:0:0:
42,35,180669,6,0,B|65:78|65:78|61:159,1,90.0000034332277,0|0,0:0|0:0,0:0:0:0:
261,0,180835,2,0,B|258:41|258:41|281:84,1,90.0000034332277,0|0,0:0|0:0,0:0:0:0:
458,161,181001,5,0,0:3:0:0:
490,68,181085,1,0,0:3:0:0:
400,34,181168,1,0,0:3:0:0:
367,126,181252,1,0,0:3:0:0:
382,267,181334,5,0,0:0:0:0:
410,334,181417,1,0,0:0:0:0:
344,365,181501,1,0,0:0:0:0:
316,298,181584,1,0,0:0:0:0:
214,188,181667,5,0,0:0:0:0:
123,152,181750,1,0,0:0:0:0:
47,209,181834,1,0,0:0:0:0:
134,235,181917,1,0,0:0:0:0:
216,384,182000,6,0,B|232:339|232:339|224:277,1,90.0000034332277,0|0,0:0|0:0,0:0:0:0:
10,284,182166,2,0,B|-6:329|-6:329|2:391,1,90.0000034332277,0|0,0:0|0:0,0:0:0:0:
136,138,182333,5,0,0:0:0:0:
227,90,182416,1,0,0:0:0:0:
322,130,182499,1,0,0:0:0:0:
343,229,182583,1,0,0:0:0:0:
512,145,182666,5,0,0:0:0:0:
512,74,182749,1,0,0:0:0:0:
433,29,182832,1,0,0:0:0:0:
433,100,182915,1,0,0:0:0:0:
484,272,182999,5,0,0:0:0:0:
387,232,183082,1,0,0:0:0:0:
292,278,183165,1,0,0:0:0:0:
259,375,183248,1,0,0:0:0:0:
97,383,183331,6,0,B|51:365|51:365|-18:363,1,90.0000034332277,0|0,0:0|0:0,0:0:0:0:
50,172,183492,2,0,B|96:190|96:190|165:192,1,90.0000034332277,0|0,0:0|0:0,0:0:0:0:
299,71,183654,5,0,0:0:0:0:
199,47,183734,1,0,0:0:0:0:
99,24,183815,1,0,0:0:0:0:
0,0,183896,1,0,0:0:0:0:
12,244,183977,6,0,B|21:206|21:206|24:200|24:200|33:157,1,90.0000034332277
236,201,184138,2,0,B|228:238|228:238|228:243|228:243|217:289,1,90.0000034332277
366,90,184300,5,0,0:0:0:0:
463,62,184380,1,0,0:0:0:0:
492,166,184461,1,0,0:0:0:0:
395,194,184541,1,0,0:0:0:0:
282,271,184623,5,0,0:3:0:0:
230,320,184703,1,0,0:3:0:0:
283,374,184784,1,0,0:3:0:0:
334,325,184864,1,0,0:3:0:0:
170,166,184946,5,0,0:0:0:0:
73,200,185026,1,0,0:0:0:0:
47,294,185107,1,0,0:0:0:0:
100,384,185188,1,0,0:0:0:0:
240,360,185269,6,0,B|208:326|208:326|162:308,1,90.0000034332277,0|0,0:0|0:0,0:0:0:0:
0,132,185430,2,0,B|42:113|42:113|92:114,1,90.0000034332277,0|0,0:0|0:0,0:0:0:0:
236,7,185592,5,0,0:0:0:0:
240,23,185672,1,0,0:0:0:0:
244,37,185753,1,0,0:0:0:0:
248,52,185834,1,0,0:0:0:0:
304,137,185924,5,0,0:0:0:0:
381,106,186006,1,0,0:0:0:0:
462,126,186089,2,0,P|491:157|511:210,1,90.0000034332277,0|0,0:0|0:0,0:0:0:0:
361,325,186255,5,0,0:0:0:0:
265,366,186338,1,0,0:0:0:0:
181,311,186421,1,0,0:0:0:0:
164,231,186504,1,0,0:0:0:0:
93,192,186587,2,0,P|35:194|-14:227,1,90.0000034332277,0|0,0:0|0:0,0:0:0:0:
32,384,186753,2,0,P|90:382|139:349,1,90.0000034332277,0|0,0:0|0:0,0:0:0:0:
244,83,186919,5,0,0:0:0:0:
312,28,187002,1,0,0:0:0:0:
399,46,187085,2,0,P|430:83|439:144,1,90.0000034332277,0|0,0:0|0:0,0:0:0:0:
214,268,187251,2,0,P|183:231|174:170,1,90.0000034332277,0|0,0:0|0:0,0:0:0:0:
506,197,187417,5,0,0:0:0:0:
512,247,187500,1,0,0:0:0:0:
488,292,187583,2,0,P|443:279|377:309,1,90.0000034332277,0|0,0:0|0:0,0:0:0:0:
227,361,187749,5,0,0:0:0:0:
148,384,187832,1,0,0:0:0:0:
67,364,187915,1,0,0:0:0:0:
11,302,187998,2,0,L|46:194,1,90.0000034332277,0|0,0:0|0:0,0:0:0:0:
287,0,188164,5,0,0:0:0:0:
378,109,188247,2,0,L|332:230,1,90.0000034332277,0|0,0:0|0:0,0:0:0:0:
49,116,188413,5,0,0:0:0:0:
155,84,188496,1,0,0:0:0:0:
232,152,188569,1,0,0:0:0:0:
252,242,188652,1,0,0:0:0:0:
306,305,188735,1,0,0:0:0:0:
381,313,188818,1,0,0:0:0:0:
445,273,188901,6,0,L|429:171,1,90.0000034332277,0|0,0:0|0:0,0:0:0:0:
188,13,189067,2,0,L|172:115,1,90.0000034332277,0|0,0:0|0:0,0:0:0:0:
32,278,189233,6,0,B|77:277|77:277|140:309,1,90.0000034332277,0|0,0:0|0:0,0:0:0:0:
394,72,189400,2,0,B|355:96|355:96|285:101,1,90.0000034332277,0|0,0:3|0:0,0:0:0:0:
331,373,189566,5,0,0:0:0:0:
320,257,189649,1,0,0:0:0:0:
222,210,189732,1,0,0:0:0:0:
138,252,189815,1,0,0:0:0:0:
58,225,189898,1,0,0:0:0:0:
30,156,189985,1,0,0:0:0:0:
60,90,190073,1,0,0:0:0:0:
126,61,190160,1,0,0:0:0:0:
195,89,190248,6,0,L|292:76,1,90.0000034332277,0|0,0:0|0:0,0:0:0:0:
457,290,190423,2,0,L|367:278,1,90.0000034332277,0|0,0:0|0:0,0:0:0:0:
175,317,190598,6,0,B|172:344|172:344|181:372,7,45.0000017166138,0|0|0|0|0|0|0|0,0:0|0:0|0:0|0:0|0:0|0:0|0:0|0:0,0:0:0:0:
235,251,190949,2,0,B|238:224|238:224|229:196,5,45.0000017166138,0|0|0|0|0|0,0:0|0:0|0:0|0:0|0:0|0:0,0:0:0:0:
83,355,191255,5,0,0:0:0:0:
63,369,191306,2,0,P|29:315|37:248,1,120,0|0,0:0|0:0,0:0:0:0:
335,377,191563,6,0,P|265:347|201:239,1,180.000006866455,0|0,0:0|0:0,0:0:0:0:
512,191,191821,6,0,P|274:149|56:-12,1,480,0|0,0:0|0:0,0:0:0:0:
32,364,192336,6,0,B|150:391|187:314|187:314|176:293|168:255|168:255|131:308|67:298|67:298|66:253|30:230,1,420,0|0,0:0|0:0,0:0:0:0:
123,48,193022,5,0,0:0:0:0:
150,54,193108,1,0,0:0:0:0:
181,63,193194,1,0,0:0:0:0:
208,70,193280,1,0,0:0:0:0:
324,186,193366,5,0,0:0:0:0:
337,182,193452,1,0,0:0:0:0:
353,178,193538,1,0,0:0:0:0:
366,175,193623,1,0,0:0:0:0:
443,252,193709,6,0,L|490:268,3,45.0000017166138,0|0|0|0,0:0|0:0|0:0|0:0,0:0:0:0:
464,16,194052,6,0,P|432:85|468:161,1,120,0|0,0:0|0:0,0:0:0:0:
194,10,194304,6,0,P|228:108|323:166,1,180.000006866455,0|0,0:0|0:0,0:0:0:0:
0,235,194557,6,0,P|103:322|315:329,1,300,0|0,0:0|0:0,0:0:0:0:
282,335,194810,5,0,0:0:0:0:
282,335,194894,1,0,0:0:0:0:
322,13,195063,6,0,B|321:42|331:60|331:60|295:51|264:75|264:75|275:111|249:152,1,180,0|0,0:0|0:0,0:0:0:0:
148,97,195400,5,0,0:0:0:0:
145,211,195568,6,0,B|202:217|202:217|232:237|237:284,1,120,0|0,0:0|0:0,0:0:0:0:
370,364,195821,5,0,0:0:0:0:
479,184,195905,2,0,B|428:179|391:220|391:220|389:249,1,120,0|0,0:0|0:0,0:0:0:0:
502,384,196158,6,0,L|466:266,1,90.0000034332277
237,273,196327,2,0,L|256:178,1,90.0000034332277
446,0,196495,2,0,B|516:175,1,180.000006866455
234,40,196748,6,0,P|184:7|125:0,1,120
171,163,197008,6,0,P|81:163|0:198,1,180.000006866455
163,351,197268,6,0,B|109:352|54:389|54:389|131:294|255:250|404:275,1,480
481,322,197703,1,0,0:0:0:0:
437,28,197789,6,0,B|386:18|386:18|347:43|339:89|339:89|285:103,1,180,0|0,0:0|0:0,0:0:0:0:
230,27,198137,5,0,0:0:0:0:
133,46,198224,6,0,B|126:84|146:115|146:115|168:124|181:151|181:151|175:219,1,180.000006866455,0|0,0:0|0:0,0:0:0:0:
293,340,198484,5,0,0:0:0:0:
389,360,198571,1,0,0:0:0:0:
438,279,198658,1,0,0:0:0:0:
374,206,198745,1,0,0:0:0:0:
288,244,198831,6,0,L|266:345,1,90.0000034332277,0|0,0:0|0:0,0:0:0:0:
89,384,199005,2,0,L|67:283,1,90.0000034332277,0|0,0:0|0:0,0:0:0:0:
0,194,199179,5,0,0:0:0:0:
6,164,199266,1,0,0:0:0:0:
14,134,199352,1,0,0:0:0:0:
21,104,199439,1,0,0:0:0:0:
195,36,199526,6,0,P|153:40|87:-3,1,120,0|0,0:0|0:0,0:0:0:0:
340,132,199773,6,0,P|396:104|452:-13,1,180.000006866455,0|0,0:0|0:0,0:0:0:0:
288,338,200021,6,0,P|231:362|12:103,1,480,0|0,0:0|0:0,0:0:0:0:
409,381,200516,6,0,B|415:385|415:385|420:378|420:378|425:379|425:379|428:376|433:377|433:377|439:377|443:373|443:373|445:368|445:368|452:371|459:369|459:369|462:364|462:364|462:362|462:362|466:361|466:361|469:356|473:351|473:351|470:348|470:348|474:346|474:346|478:345|478:345|483:340|483:340|487:333|487:333|489:331|490:325|490:325|488:325|488:325|487:320|487:320|489:317|494:317|494:317|497:313|497:313|496:308|499:304|499:304|498:300|496:297|496:297|500:293|500:293|498:288|498:288|499:284|499:284|497:273,1,180,0|0,0:0|0:0,0:0:0:0:
478,253,200846,2,0,L|467:192,1,60,0|0,0:0|0:0,0:0:0:0:
506,38,201011,5,0,0:0:0:0:
428,105,201094,1,0,0:0:0:0:
337,85,201176,1,0,0:0:0:0:
296,23,201259,1,0,0:0:0:0:
226,23,201341,1,0,0:0:0:0:
183,67,201423,1,0,0:0:0:0:
127,79,201506,1,0,0:0:0:0:
85,55,201589,1,0,0:0:0:0:
48,65,201671,1,0,0:0:0:0:
31,88,201754,1,0,0:0:0:0:
91,192,201836,6,0,P|93:230|83:269,1,60,0|0,0:0|0:0,0:0:0:0:
241,160,202001,1,0,0:0:0:0:
2,380,202166,5,0,0:0:0:0:
13,376,202247,1,0,0:0:0:0:
36,368,202411,5,0,0:0:0:0:
47,365,202492,1,0,0:0:0:0:
70,357,202656,5,0,0:0:0:0:
93,350,202819,5,0,0:0:0:0:
116,342,202983,5,0,0:0:0:0:
492,256,203473,5,0,0:0:0:0:
480,252,203554,1,0,0:0:0:0:
457,244,203718,5,0,0:0:0:0:
446,241,203799,1,0,0:0:0:0:
423,233,203963,5,0,0:0:0:0:
400,226,204126,5,0,0:0:0:0:
377,218,204290,5,0,0:0:0:0:
0,325,204781,5,0,0:0:0:0:
86,378,204859,2,0,L|223:340,1,90.0000034332277,0|0,0:0|0:0,0:0:0:0:
166,130,205017,5,0,0:0:0:0:
252,77,205095,2,0,L|389:115,1,90.0000034332277,0|0,0:0|0:0,0:0:0:0:
105,231,205252,2,0,L|18:207,1,90.0000034332277,0|0,0:0|0:0,0:0:0:0:
73,86,205409,6,0,B|69:41|69:41|93:-1,1,90.0000034332277,0|0,0:0|0:0,0:0:0:0:
279,223,205566,2,0,B|285:269|285:269|264:315,2,90.0000034332277,0|0|0,0:0|0:0|0:0,0:0:0:0:
432,349,205801,5,0,0:0:0:0:
398,374,205880,1,0,0:0:0:0:
358,384,205959,1,0,0:0:0:0:
121,384,206037,5,0,0:0:0:0:
48,295,206116,2,0,L|78:187,1,90.0000034332277,0|0,0:0|0:0,0:0:0:0:
233,175,206273,5,0,0:0:0:0:
306,86,206352,2,0,L|276:-22,1,90.0000034332277,0|0,0:0|0:0,0:0:0:0:
164,242,206508,2,0,L|197:361,1,90.0000034332277,0|0,0:0|0:0,0:0:0:0:
148,62,206665,6,0,B|101:43|101:43|47:48,1,90.0000034332277,0|0,0:0|0:0,0:0:0:0:
325,255,206822,2,0,B|372:274|372:274|426:269,1,90.0000034332277,0|0,0:0|0:0,0:0:0:0:
478,16,206979,5,0,0:0:0:0:
474,26,207058,1,0,0:0:0:0:
470,35,207137,1,0,0:0:0:0:
466,44,207215,1,0,0:0:0:0:
361,147,207294,5,0,0:0:0:0:
261,73,207372,2,0,L|241:183,1,90.0000034332277,0|0,0:0|0:0,0:0:0:0:
62,229,207529,5,0,0:0:0:0:
167,282,207607,2,0,L|187:392,1,90.0000034332277,0|0,0:0|0:0,0:0:0:0:
441,333,207765,2,0,L|424:244,1,90.0000034332277,0|0,0:0|0:0,0:0:0:0:
142,142,207922,6,0,L|75:243,1,90.0000034332277,0|0,0:0|0:0,0:0:0:0:
292,384,208079,2,0,L|341:309,2,90.0000034332277,0|0|0,0:0|0:0|0:0,0:0:0:0:
329,98,208314,5,0,0:3:0:0:
284,107,208393,1,0,0:3:0:0:
250,137,208471,1,0,0:3:0:0:
103,16,208550,5,0,0:0:0:0:
10,87,208629,2,0,L|30:177,1,90.0000034332277,0|0,0:0|0:0,0:0:0:0:
174,225,208786,5,0,0:0:0:0:
267,296,208865,2,0,L|247:386,1,90.0000034332277,0|0,0:0|0:0,0:0:0:0:
492,337,209021,2,0,L|517:228,1,90.0000034332277,0|0,0:0|0:0,0:0:0:0:
388,19,209178,6,0,B|338:17|338:17|281:41,1,90.0000034332277,0|0,0:0|0:0,0:0:0:0:
331,219,209335,2,0,B|381:221|381:221|438:197,1,90.0000034332277,0|0,0:0|0:0,0:0:0:0:
189,3,209493,5,0,0:0:0:0:
191,13,209572,1,0,0:0:0:0:
192,23,209651,1,0,0:0:0:0:
194,32,209729,1,0,0:0:0:0:
208,148,209807,5,0,0:0:0:0:
150,238,209884,2,0,L|182:344,1,90.0000034332277,0|0,0:0|0:0,0:0:0:0:
442,368,210039,5,0,0:0:0:0:
505,268,210117,2,0,L|478:181,1,90.0000034332277,0|0,0:0|0:0,0:0:0:0:
321,36,210272,2,0,L|294:146,1,90.0000034332277,0|0,0:0|0:0,0:0:0:0:
264,256,210427,6,0,B|219:236|219:236|160:233,1,90.0000034332277,0|0,0:0|0:0,0:0:0:0:
427,44,210582,2,0,B|472:64|472:64|512:66,2,90.0000034332277,0|0|0,0:0|0:0|0:0,0:0:0:0:
394,303,210814,5,0,0:0:0:0:
420,338,210892,1,0,0:0:0:0:
459,358,210969,1,0,0:0:0:0:
410,201,211047,5,0,0:0:0:0:
323,140,211124,2,0,L|217:165,1,90.0000034332277,0|0,0:0|0:0,0:0:0:0:
174,310,211279,5,0,0:0:0:0:
87,371,211356,2,0,L|-19:346,1,90.0000034332277,0|0,0:0|0:0,0:0:0:0:
35,119,211512,2,0,L|122:139,1,90.0000034332277,0|0,0:0|0:0,0:0:0:0:
272,301,211667,6,0,B|231:320|231:320|168:321,1,90.0000034332277,0|0,0:0|0:0,0:0:0:0:
121,35,211822,2,0,B|162:16|162:16|225:15,1,90.0000034332277,0|0,0:0|0:0,0:0:0:0:
393,81,211977,5,0,0:0:0:0:
405,87,212055,1,0,0:0:0:0:
416,92,212132,1,0,0:0:0:0:
427,98,212210,1,0,0:0:0:0:
491,211,212287,5,0,0:0:0:0:
401,280,212365,2,0,L|299:251,1,90.0000034332277,0|0,0:0|0:0,0:0:0:0:
254,69,212520,5,0,0:0:0:0:
164,0,212598,2,0,L|62:29,1,90.0000034332277,0|0,0:0|0:0,0:0:0:0:
127,214,212752,2,0,L|213:189,1,90.0000034332277,0|0,0:0|0:0,0:0:0:0:
0,136,212907,6,0,B|1:184|1:184|26:234,1,90.0000034332277,0|0,0:0|0:0,0:0:0:0:
233,299,213062,2,0,B|251:336|251:336|252:384,2,90.0000034332277,0|0|0,0:0|0:0|0:0,0:0:0:0:
14,352,213295,5,0,0:0:0:0:
52,366,213373,1,0,0:0:0:0:
93,366,213450,1,0,0:0:0:0:
241,282,213527,5,0,0:0:0:0:
325,217,213605,2,0,L|416:244,1,90.0000034332277,0|0,0:0|0:0,0:0:0:0:
512,83,213760,5,0,0:0:0:0:
428,18,213838,2,0,L|337:45,1,90.0000034332277,0|0,0:0|0:0,0:0:0:0:
150,92,213993,6,0,B|150:136|150:136|187:199,1,90.0000034332277,0|0,0:0|0:0,0:0:0:0:
454,105,214148,2,0,B|454:61|454:61|430:21,1,90.0000034332277,0|0,0:0|0:0,0:0:0:0:
127,279,214303,5,0,0:0:0:0:
133,294,214380,5,0,0:0:0:0:
133,267,214458,5,0,0:0:0:0:
117,288,214535,5,0,0:0:0:0:
142,280,214613,5,0,0:0:0:0:
117,272,214690,5,0,0:0:0:0:
215,361,214768,5,0,0:0:0:0:
327,384,214844,2,0,L|429:366,1,90.0000034332277,0|0,0:0|0:0,0:0:0:0:
443,145,214997,5,0,0:0:0:0:
331,122,215073,2,0,L|229:140,1,90.0000034332277,0|0,0:0|0:0,0:0:0:0:
464,308,215227,6,0,B|477:270|477:270|470:201,1,90.0000034332277,0|0,0:0|0:0,0:0:0:0:
178,190,215381,2,0,B|164:227|164:227|171:296,1,90.0000034332277,0|0,0:0|0:0,0:0:0:0:
471,310,215534,2,0,B|484:272|484:272|477:203,1,90.0000034332277,0|0,0:0|0:0,0:0:0:0:
295,26,215687,6,0,B|215:38|215:38|206:45|206:45|107:59,1,180.000006866455,0|0,0:0|0:0,0:0:0:0:
9,261,215994,5,0,0:0:0:0:
108,204,216070,2,0,L|213:226,1,90.0000034332277,0|0,0:0|0:0,0:0:0:0:
297,327,216223,5,0,0:0:0:0:
396,384,216300,2,0,L|501:362,1,90.0000034332277,0|0,0:0|0:0,0:0:0:0:
424,134,216453,2,0,L|335:152,1,90.0000034332277,0|0,0:0|0:0,0:0:0:0:
393,268,216607,6,0,L|499:279,1,90.0000034332277,0|0,0:0|0:0,0:0:0:0:
496,38,216760,2,0,L|406:28,1,90.0000034332277,0|0,0:0|0:0,0:0:0:0:
167,79,216913,5,0,0:0:0:0:
152,83,216990,1,0,0:0:0:0:
136,88,217066,1,0,0:0:0:0:
121,92,217143,1,0,0:0:0:0:
6,274,217220,5,0,0:0:0:0:
111,322,217297,2,0,L|228:282,1,90.0000034332277,0|0,0:0|0:0,0:0:0:0:
271,139,217451,5,0,0:0:0:0:
376,91,217528,2,0,L|493:131,1,90.0000034332277,0|0,0:0|0:0,0:0:0:0:
402,348,217682,2,0,L|316:318,1,90.0000034332277,0|0,0:0|0:0,0:0:0:0:
204,45,217836,6,0,L|87:85,1,90.0000034332277,0|0,0:0|0:0,0:0:0:0:
254,241,217990,2,0,L|169:271,2,90.0000034332277,0|0|0,0:0|0:0|0:0,0:0:0:0:
0,95,218221,5,0,0:0:0:0:
4,52,218298,1,0,0:0:0:0:
25,16,218375,1,0,0:0:0:0:
101,191,218452,5,0,0:0:0:0:
151,289,218529,2,0,L|128:387,1,90.0000034332277,0|0,0:0|0:0,0:0:0:0:
312,65,218683,5,0,0:0:0:0:
262,163,218760,2,0,L|285:261,1,90.0000034332277,0|0,0:0|0:0,0:0:0:0:
512,192,218914,2,0,L|489:94,1,90.0000034332277,0|0,0:0|0:0,0:0:0:0:
386,334,219068,6,0,B|431:335|431:335|474:312,1,90.0000034332277,0|0,0:0|0:0,0:0:0:0:
401,45,219222,2,0,B|356:44|356:44|313:67,1,90.0000034332277,0|0,0:0|0:0,0:0:0:0:
165,223,219376,5,0,0:0:0:0:
170,238,219453,1,0,0:0:0:0:
173,254,219530,1,0,0:0:0:0:
177,271,219607,1,0,0:0:0:0:
62,370,219684,5,0,0:0:0:0:
0,272,219762,2,0,L|36:175,1,90.0000034332277,0|0,0:0|0:0,0:0:0:0:
230,0,219918,5,0,0:0:0:0:
292,95,219997,2,0,L|257:192,1,90.0000034332277,0|0,0:0|0:0,0:0:0:0:
9,84,220153,2,0,L|43:-13,1,90.0000034332277,0|0,0:0|0:0,0:0:0:0:
413,57,220310,6,0,B|426:98|426:98|415:160,1,90.0000034332277,0|0,0:0|0:0,0:0:0:0:
144,148,220466,2,0,B|130:105|130:105|141:44,2,90.0000034332277,0|0|0,0:0|0:0|0:0,0:0:0:0:
340,246,220702,5,0,0:0:0:0:
353,288,220780,1,0,0:0:0:0:
342,332,220858,1,0,0:0:0:0:
211,374,220937,5,0,0:0:0:0:
112,313,221015,2,0,L|19:342,1,90.0000034332277,0|0,0:0|0:0,0:0:0:0:
1,132,221172,5,0,0:0:0:0:
100,71,221250,2,0,L|193:100,1,90.0000034332277,0|0,0:0|0:0,0:0:0:0:
277,235,221407,2,0,L|362:208,1,90.0000034332277,0|0,0:0|0:0,0:0:0:0:
347,0,221563,6,0,B|303:2|303:2|261:26,1,90.0000034332277,0|0,0:0|0:0,0:0:0:0:
103,250,221720,2,0,B|141:273|141:273|188:276,1,90.0000034332277,0|0,0:0|0:0,0:0:0:0:
388,103,221877,5,0,0:0:0:0:
404,108,221955,1,0,0:0:0:0:
421,113,222033,1,0,0:0:0:0:
436,118,222112,1,0,0:0:0:0:
493,300,222190,5,0,0:0:0:0:
416,372,222267,2,0,L|390:269,1,90.0000034332277,0|0,0:0|0:0,0:0:0:0:
267,152,222421,5,0,0:0:0:0:
190,79,222499,2,0,L|167:166,1,90.0000034332277,0|0,0:0|0:0,0:0:0:0:
54,339,222653,2,0,L|31:251,1,90.0000034332277,0|0,0:0|0:0,0:0:0:0:
3,51,222808,6,0,B|45:57|45:57|103:95,1,90.0000034332277,0|0,0:0|0:0,0:0:0:0:
155,289,222963,2,0,B|195:316|195:316|237:322,2,90.0000034332277,0|0|0,0:0|0:0|0:0,0:0:0:0:
407,218,223195,5,0,0:0:0:0:
449,213,223272,1,0,0:0:0:0:
487,232,223349,1,0,0:0:0:0:
448,384,223427,5,0,0:0:0:0:
353,326,223504,2,0,L|375:226,1,90.0000034332277,0|0,0:0|0:0,0:0:0:0:
311,37,223659,5,0,0:0:0:0:
216,95,223736,2,0,L|238:195,1,90.0000034332277,0|0,0:0|0:0,0:0:0:0:
481,120,223891,2,0,L|461:32,1,90.0000034332277,0|0,0:0|0:0,0:0:0:0:
121,51,224045,6,0,L|88:148,1,90.0000034332277,0|0,0:3|0:3,0:3:0:0:
336,207,224200,2,0,L|364:121,1,90.0000034332277,0|0,0:3|0:3,0:3:0:0:
47,273,224354,6,0,B|107:305|174:267|174:267|204:335|278:347,1,270.000010299683,0|0,0:0|0:0,0:0:0:0:
432,361,224664,5,0,0:0:0:0:
475,317,224744,1,0,0:0:0:0:
454,259,224824,2,0,B|423:225|423:225|364:197,1,90.0000034332277,0|0,0:0|0:0,0:0:0:0:
218,194,224984,5,0,0:0:0:0:
171,133,225064,1,0,0:0:0:0:
186,59,225144,2,0,B|221:28|221:28|283:11,1,90.0000034332277,0|0,0:0|0:0,0:0:0:0:
489,71,225304,5,0,0:0:0:0:
484,101,225384,1,0,0:0:0:0:
478,132,225464,1,0,0:0:0:0:
472,163,225544,1,0,0:0:0:0:
345,225,225624,5,0,0:0:0:0:
355,278,225704,1,0,0:0:0:0:
365,331,225784,1,0,0:0:0:0:
375,384,225864,1,0,0:0:0:0:
182,333,225944,5,0,0:0:0:0:
126,311,226024,1,0,0:0:0:0:
70,324,226105,2,0,B|28:345|28:345|-11:392,1,90.0000034332277,0|0,0:0|0:0,0:0:0:0:
38,115,226267,5,0,0:0:0:0:
117,99,226348,1,0,0:0:0:0:
183,145,226429,2,0,B|222:162|222:162|291:153,1,90.0000034332277,0|0,0:0|0:0,0:0:0:0:
405,8,226590,5,0,0:0:0:0:
475,42,226670,1,0,0:0:0:0:
502,117,226751,1,0,0:0:0:0:
468,188,226832,1,0,0:0:0:0:
340,245,226914,5,0,0:0:0:0:
316,292,226994,1,0,0:0:0:0:
324,345,227075,1,0,0:0:0:0:
359,384,227156,1,0,0:0:0:0:
221,244,227237,5,0,0:0:0:0:
142,256,227318,1,0,0:0:0:0:
98,324,227400,2,0,B|53:345|53:345|0:345,1,102.000001945496,0|0,0:0|0:0,0:0:0:0:
0,90,227563,5,0,0:0:0:0:
73,35,227645,1,0,0:0:0:0:
165,52,227727,2,0,B|208:66|208:66|255:115,1,102.000001945496,0|0,0:0|0:0,0:0:0:0:
315,264,227890,5,0,0:0:0:0:
375,256,227971,1,0,0:0:0:0:
436,249,228053,1,0,0:0:0:0:
497,241,228135,1,0,0:0:0:0:
481,56,228217,5,0,0:0:0:0:
404,33,228298,1,0,0:0:0:0:
325,42,228380,1,0,0:0:0:0:
259,88,228462,1,0,0:0:0:0:
151,287,228544,5,0,0:0:0:0:
74,263,228624,1,0,0:0:0:0:
40,190,228704,2,0,B|38:129|38:129|85:66,1,120,0|0,0:0|0:0,0:0:0:0:
338,195,228864,5,0,0:0:0:0:
368,283,228945,1,0,0:0:0:0:
316,355,229025,2,0,B|253:353|253:353|181:384,1,120,0|0,0:0|0:0,0:0:0:0:
154,80,229185,5,0,0:0:0:0:
243,50,229265,1,0,0:0:0:0:
272,143,229346,1,0,0:0:0:0:
182,172,229426,1,0,0:0:0:0:
167,72,229506,5,0,0:0:0:0:
251,63,229586,1,0,0:0:0:0:
258,150,229667,1,0,0:0:0:0:
173,158,229747,1,0,0:0:0:0:
441,4,229827,5,0,0:0:0:0:
