osu file format v14

[General]
AudioFilename: audio.mp3
AudioLeadIn: 0
PreviewTime: 37122
Countdown: 0
SampleSet: Soft
StackLeniency: 0.7
Mode: 2
LetterboxInBreaks: 0
WidescreenStoryboard: 1

[Editor]
Bookmarks: 2213,10941,19668,28395,37122,45850,54577,62213
DistanceSpacing: 0.1
BeatDivisor: 4
GridSize: 16
TimelineZoom: 1.8

[Metadata]
Title:Kyu-kulagtrain
TitleUnicode:きゅうくラグトレイン
Artist:binmode
ArtistUnicode:빈모드
Creator:Mniam
Version:Platter
Source:제14회 소리MAD 게시 이벤트
Tags:kaai yuki 歌愛ユキ vocaloid ボーカロイド inabakumori 稲葉曇 ビンモード らりん 소리매드 音mad oto-mad otomad #14 japanese pop jpop j-pop iyowa いよわ -hex- -Rustyy Quix Stardust Prism kukkai [_-Kukkai-_] kyukulagtrain mashup novelty kyu-kurarin きゅうくらりん lagtrain ラグトレイン kyukurarin
BeatmapID:4127934
BeatmapSetID:1896678

[Difficulty]
HPDrainRate:4
CircleSize:3.5
OverallDifficulty:8
ApproachRate:8
SliderMultiplier:1.3
SliderTickRate:1

[Events]
//Background and Video events
0,0,"esz.PNG",0,0
//Break Periods
//Storyboard Layer 0 (Background)
//Storyboard Layer 1 (Fail)
//Storyboard Layer 2 (Pass)
//Storyboard Layer 3 (Foreground)
//Storyboard Layer 4 (Overlay)
//Storyboard Sound Samples

[TimingPoints]
32,272.727272727273,4,2,1,60,1,0
2213,-66.6666666666667,4,2,1,70,0,0
2486,-100,4,2,1,70,0,0
2895,-100,4,2,2,70,0,0
2963,-100,4,2,1,70,0,0
3304,-66.6666666666667,4,2,1,70,0,0
3577,-100,4,2,1,70,0,0
4395,-66.6666666666667,4,2,1,70,0,0
4668,-100,4,2,1,70,0,0
5759,-100,4,2,3,70,0,0
5827,-100,4,2,1,70,0,0
7259,-100,4,2,2,70,0,0
7327,-100,4,2,1,70,0,0
8350,-100,4,2,2,70,0,0
8418,-100,4,2,1,70,0,0
9441,-100,4,2,2,70,0,0
9509,-100,4,2,1,70,0,0
10941,-66.6666666666667,4,2,1,70,0,0
11214,-100,4,2,1,70,0,0
11622,-100,4,2,2,70,0,0
11690,-100,4,2,1,70,0,0
12032,-66.6666666666667,4,2,1,70,0,0
12305,-100,4,2,1,70,0,0
13122,-66.6666666666667,4,2,1,70,0,0
13395,-100,4,2,1,70,0,0
14350,-66.6666666666667,4,2,1,70,0,0
14486,-66.6666666666667,4,2,3,70,0,0
14554,-66.6666666666667,4,2,1,70,0,0
14623,-100,4,2,1,70,0,0
15986,-100,4,2,2,70,0,0
16054,-100,4,2,1,70,0,0
17077,-100,4,2,2,70,0,0
17145,-100,4,2,1,70,0,0
18168,-100,4,2,2,70,0,0
18236,-100,4,2,1,70,0,0
19668,-66.6666666666667,4,2,1,60,0,0
19941,-100,4,2,1,60,0,0
20350,-100,4,2,2,60,0,0
20418,-100,4,2,1,60,0,0
21441,-100,4,2,2,60,0,0
21509,-100,4,2,1,60,0,0
24713,-100,4,2,2,60,0,0
24781,-100,4,2,1,60,0,0
28395,-66.6666666666667,4,2,1,60,0,0
28668,-100,4,2,1,60,0,0
29077,-100,4,2,2,60,0,0
29145,-100,4,2,1,60,0,0
30168,-100,4,2,2,60,0,0
30236,-100,4,2,1,60,0,0
31259,-100,4,2,2,60,0,0
31327,-100,4,2,1,60,0,0
33441,-100,4,2,2,60,0,0
33509,-100,4,2,1,60,0,0
37122,-100,4,2,1,50,0,0
44759,-100,4,2,1,40,0,0
45850,-50,4,2,1,80,0,1
46395,-100,4,2,1,80,0,0
48032,-100,4,2,1,80,0,1
49804,-100,4,2,2,80,0,1
49872,-100,4,2,1,80,0,1
50213,-55.5555555555556,4,2,1,80,0,1
50486,-100,4,2,1,80,0,1
54850,-100,4,2,3,80,0,1
54918,-100,4,2,1,80,0,1
55259,-100,4,2,2,80,0,1
55327,-100,4,2,1,80,0,1
55668,-55.5555555555556,4,2,1,80,0,1
55941,-100,4,2,1,80,0,1
56759,-66.6666666666667,4,2,1,80,0,1
57032,-100,4,2,1,80,0,1
57850,-66.6666666666667,4,2,1,80,0,1
58123,-100,4,2,1,80,0,1
58259,-66.6666666666667,4,2,1,80,0,1
58532,-100,4,2,1,80,0,1
58941,-100,4,2,1,60,0,1
59213,-100,4,2,2,70,0,1
59486,-100,4,2,1,80,0,1
60441,-66.6666666666667,4,2,1,80,0,1
61122,-100,4,2,1,60,0,0
62350,-100,4,2,1,50,0,0
62486,-100,4,2,1,40,0,0
62622,-100,4,2,1,30,0,0

[Colours]
Combo1 : 192,192,192
Combo2 : 128,128,128

[HitObjects]
118,125,32,5,10,1:2:0:0:
78,128,100,1,2,1:2:0:0:
47,141,168,1,2,1:2:0:0:
29,166,236,1,2,1:2:0:0:
22,192,304,1,10,1:2:0:0:
29,166,372,1,2,1:2:0:0:
47,141,441,1,2,1:2:0:0:
78,128,509,1,2,1:2:0:0:
118,125,577,1,10,1:2:0:0:
190,127,713,1,0,1:2:0:0:
118,125,850,1,10,1:2:0:0:
190,127,986,1,0,1:2:0:0:
334,131,1122,5,10,1:2:0:0:
344,157,1259,1,2,1:2:0:0:
200,198,1395,1,10,1:2:0:0:
190,218,1532,1,2,1:2:0:0:
334,131,1668,2,0,L|463:126,1,130,10|2,1:2|0:2,0:0:0:0:
106,307,2213,6,0,B|32:306|32:306|34:237|107:225,1,195.00000743866,12|2,0:2|1:2,0:0:0:0:
172,222,2622,1,10,0:2:0:0:
317,128,2759,2,0,L|188:117,1,130,2|2,0:2|1:2,0:0:0:0:
122,114,3168,1,2,0:2:0:0:
266,226,3304,6,0,B|352:209|352:209|369:154|338:95,1,195.00000743866,10|2,0:2|1:2,0:0:0:0:
277,79,3713,1,10,0:2:0:0:
132,172,3850,1,2,0:2:0:0:
122,140,3986,1,10,0:2:0:0:
187,127,4123,1,2,1:2:0:0:
122,140,4259,1,2,0:2:0:0:
338,219,4395,6,0,P|301:337|224:353,1,195.00000743866,10|2,0:2|1:2,0:0:0:0:
177,317,4804,1,8,0:2:0:0:
322,306,4941,2,0,L|405:301,1,65,2|2,0:2|0:2,0:0:0:0:
257,308,5350,1,2,0:2:0:0:
113,299,5486,5,10,0:2:0:0:
178,303,5622,2,0,B|226:303|226:303|176:221,1,130,2|10,0:2|0:2,0:0:0:0:
37,113,6032,2,0,L|128:107,2,86.6666666666667,2|2|2,0:2|0:2|0:2,0:0:0:0:
326,222,6577,6,0,L|460:219,1,130,10|0,0:2|1:2,0:0:0:0:
390,193,6986,1,10,0:2:0:0:
246,188,7122,2,0,L|380:185,1,130,2|0,0:2|1:2,0:0:0:0:
310,159,7531,1,2,0:2:0:0:
165,161,7668,5,10,0:2:0:0:
155,129,7804,1,2,0:2:0:0:
220,104,7941,1,2,1:2:0:0:
155,129,8077,1,10,0:2:0:0:
299,60,8213,2,0,L|436:64,1,130,2|0,0:2|1:2,0:0:0:0:
494,208,8622,1,0,0:2:0:0:
277,200,8759,6,0,L|143:197,1,130,10|0,0:2|1:2,0:0:0:0:
82,189,9168,1,10,0:2:0:0:
226,120,9304,2,0,L|92:117,1,130,2|0,0:2|1:2,0:0:0:0:
31,109,9713,1,2,0:2:0:0:
175,76,9850,6,0,L|244:74,1,65,14|2,1:2|0:2,0:0:0:0:
83,87,10122,2,0,L|14:85,1,65,14|2,1:2|0:2,0:0:0:0:
163,231,10395,1,14,1:2:0:0:
235,231,10532,1,0,1:2:0:0:
252,234,10600,1,0,1:2:0:0:
235,231,10668,1,12,1:2:0:0:
163,231,10804,1,0,1:2:0:0:
406,306,10941,6,0,B|479:303|479:303|424:251|398:190,1,195.00000743866,14|2,0:2|1:2,0:0:0:0:
340,222,11350,1,10,0:2:0:0:
195,128,11487,2,0,L|324:117,1,130,2|2,0:2|1:2,0:0:0:0:
390,114,11896,1,2,0:2:0:0:
246,226,12032,6,0,B|160:209|160:209|135:157|170:107,1,195.00000743866,10|2,0:2|1:2,0:0:0:0:
235,79,12441,1,10,0:2:0:0:
380,172,12578,1,2,0:2:0:0:
390,140,12714,1,10,0:2:0:0:
325,127,12851,1,2,1:2:0:0:
390,140,12987,1,2,0:2:0:0:
174,219,13122,6,0,B|167:260|167:260|215:281|215:281|240:264|240:264|271:268|271:268|269:317,1,195.00000743866,10|2,0:2|1:2,0:0:0:0:
335,317,13531,1,8,0:2:0:0:
190,306,13668,2,0,L|107:301,1,65,2|10,0:2|0:2,0:0:0:0:
255,308,14077,1,2,0:2:0:0:
399,299,14214,5,10,0:2:0:0:
334,303,14350,2,0,P|266:265|339:201,1,195.00000743866,2|10,0:2|0:2,0:0:0:0:
475,113,14760,2,0,L|384:107,2,86.6666666666667,2|2|2,0:2|0:2|0:2,0:0:0:0:
186,222,15305,6,0,L|52:219,1,130,10|0,0:2|1:2,0:0:0:0:
122,193,15714,1,10,0:2:0:0:
266,188,15850,2,0,L|132:185,1,130,2|0,0:2|1:2,0:0:0:0:
202,159,16259,1,2,0:2:0:0:
347,161,16396,5,10,0:2:0:0:
357,129,16532,1,2,0:2:0:0:
292,104,16669,1,2,1:2:0:0:
357,129,16805,1,10,0:2:0:0:
213,60,16941,2,0,L|76:64,1,130,2|0,0:2|1:2,0:0:0:0:
18,208,17350,1,0,0:2:0:0:
235,200,17487,6,0,L|369:197,1,130,10|0,0:2|1:2,0:0:0:0:
430,189,17896,1,10,0:2:0:0:
286,120,18032,2,0,L|420:117,1,130,2|0,0:2|1:2,0:0:0:0:
481,109,18441,1,2,0:2:0:0:
337,76,18577,6,0,L|268:74,1,65,14|2,1:2|0:2,0:0:0:0:
429,87,18849,2,0,L|498:85,1,65,14|2,1:2|0:2,0:0:0:0:
349,231,19122,1,14,1:2:0:0:
277,231,19259,1,8,1:2:0:0:
260,234,19327,1,0,1:2:0:0:
277,231,19395,1,12,1:2:0:0:
349,231,19531,1,8,1:2:0:0:
131,298,19668,6,0,B|57:297|57:297|87:286|87:286|57:278|57:278|101:239,1,195.00000743866,14|2,0:2|1:2,0:0:0:0:
166,209,20077,1,10,0:2:0:0:
230,209,20213,1,2,0:2:0:0:
140,86,20486,1,2,1:2:0:0:
205,85,20622,1,2,0:2:0:0:
350,77,20759,5,10,0:2:0:0:
260,188,21032,1,2,1:2:0:0:
325,187,21168,1,10,0:2:0:0:
260,188,21304,1,2,0:2:0:0:
350,300,21577,1,2,1:2:0:0:
285,299,21713,1,2,0:2:0:0:
140,309,21850,6,0,L|270:307,1,130,10|2,0:2|1:2,0:0:0:0:
140,214,22395,1,2,0:2:0:0:
75,215,22532,1,10,0:2:0:0:
140,214,22668,1,2,1:2:0:0:
284,209,22804,5,2,0:2:0:0:
284,209,23077,1,2,0:2:0:0:
212,209,23213,1,2,1:2:0:0:
284,209,23349,1,10,0:2:0:0:
284,209,23622,1,10,0:2:0:0:
429,213,23759,1,2,1:2:0:0:
71,206,24032,6,0,P|25:160|72:138,1,130,10|2,0:2|1:2,0:0:0:0:
129,170,24441,1,10,0:2:0:0:
63,135,24577,1,2,0:2:0:0:
193,42,24850,1,2,1:2:0:0:
258,33,24986,1,2,0:2:0:0:
114,38,25122,5,10,0:2:0:0:
104,66,25259,1,2,0:2:0:0:
169,153,25395,1,2,1:2:0:0:
234,162,25531,1,10,0:2:0:0:
169,153,25668,1,2,0:2:0:0:
410,257,25941,5,2,1:2:0:0:
345,264,26077,1,2,0:2:0:0:
215,267,26350,1,2,0:2:0:0:
205,239,26487,1,2,1:2:0:0:
335,175,26759,1,2,0:2:0:0:
399,174,26896,1,10,0:2:0:0:
269,87,27168,1,2,0:2:0:0:
125,47,27304,6,0,L|56:45,1,65,14|0,1:2|0:2,0:0:0:0:
217,58,27576,2,0,L|286:56,1,65,14|0,1:2|0:2,0:0:0:0:
137,202,27849,1,14,1:2:0:0:
65,202,27986,1,2,1:2:0:0:
48,205,28054,1,0,1:2:0:0:
65,202,28122,1,14,1:2:0:0:
137,202,28258,1,0,1:2:0:0:
380,299,28395,6,0,B|450:297|450:297|475:248|404:179,1,195.00000743866,14|2,0:2|1:2,0:0:0:0:
346,209,28804,1,10,0:2:0:0:
282,209,28940,1,2,0:2:0:0:
372,86,29213,1,2,1:2:0:0:
307,85,29349,1,2,0:2:0:0:
162,77,29486,5,10,0:2:0:0:
252,188,29759,1,2,1:2:0:0:
187,187,29895,1,10,0:2:0:0:
252,188,30031,1,2,0:2:0:0:
162,300,30304,1,2,1:2:0:0:
227,299,30440,1,2,0:2:0:0:
372,309,30577,6,0,L|242:307,1,130,10|2,0:2|1:2,0:0:0:0:
372,214,31122,1,2,0:2:0:0:
372,214,31395,1,2,1:2:0:0:
228,209,31531,5,2,0:2:0:0:
228,209,31804,1,2,0:2:0:0:
300,209,31940,1,2,1:2:0:0:
228,209,32076,1,10,0:2:0:0:
228,209,32349,1,10,0:2:0:0:
83,213,32486,1,2,1:2:0:0:
441,206,32759,6,0,B|503:206|503:206|437:158,1,130,10|2,0:2|1:2,0:0:0:0:
383,170,33168,1,10,0:2:0:0:
449,135,33304,1,2,0:2:0:0:
319,42,33577,1,2,1:2:0:0:
254,33,33713,1,2,0:2:0:0:
398,38,33849,5,10,0:2:0:0:
408,66,33986,1,2,0:2:0:0:
343,153,34122,1,2,1:2:0:0:
278,162,34258,1,10,0:2:0:0:
343,153,34395,1,2,0:2:0:0:
102,257,34668,5,2,1:2:0:0:
167,264,34804,1,2,0:2:0:0:
297,267,35077,1,2,0:2:0:0:
307,239,35214,1,2,1:2:0:0:
177,175,35486,1,2,0:2:0:0:
113,174,35623,1,10,0:2:0:0:
243,87,35895,1,2,0:2:0:0:
387,47,36031,6,0,L|456:45,1,65,14|2,1:2|0:2,0:0:0:0:
295,58,36303,2,0,L|226:56,1,65,14|2,1:2|0:2,0:0:0:0:
375,202,36576,1,14,1:2:0:0:
447,202,36713,1,0,1:2:0:0:
464,205,36781,1,0,1:2:0:0:
447,202,36849,1,14,1:2:0:0:
375,202,36985,1,0,1:2:0:0:
158,197,37122,6,0,L|16:196,1,130,14|2,0:2|1:2,0:0:0:0:
94,166,37532,1,10,0:2:0:0:
158,197,37668,2,0,L|16:196,1,130,2|2,0:2|1:2,0:0:0:0:
94,166,38077,1,2,0:2:0:0:
28,196,38213,6,0,L|158:197,1,130,10|2,0:2|1:2,0:0:0:0:
94,166,38622,1,10,0:2:0:0:
28,196,38758,2,0,L|158:197,1,130,2|2,0:2|1:2,0:0:0:0:
94,166,39168,1,2,0:2:0:0:
238,161,39304,5,10,0:2:0:0:
238,161,39577,1,2,1:2:0:0:
173,160,39713,1,8,0:2:0:0:
238,161,39850,1,2,0:2:0:0:
368,166,40122,1,2,1:2:0:0:
303,168,40259,1,2,0:2:0:0:
175,184,40532,5,2,0:2:0:0:
240,183,40668,1,2,1:2:0:0:
175,184,40804,1,10,0:2:0:0:
48,200,41077,1,10,0:2:0:0:
113,201,41213,1,2,1:2:0:0:
354,197,41486,6,0,L|496:196,1,130,10|2,0:2|1:2,0:0:0:0:
418,166,41896,1,10,0:2:0:0:
354,197,42032,2,0,L|496:196,1,130,2|2,0:2|1:2,0:0:0:0:
418,166,42441,1,2,0:2:0:0:
484,196,42577,6,0,L|354:197,1,130,10|2,0:2|1:2,0:0:0:0:
418,166,42986,1,10,0:2:0:0:
484,196,43122,2,0,L|354:197,1,130,2|2,0:2|1:2,0:0:0:0:
418,166,43532,1,2,0:2:0:0:
274,177,43668,5,8,0:2:0:0:
274,177,43804,1,2,0:2:0:0:
339,178,43941,1,2,1:2:0:0:
209,108,44213,1,2,0:2:0:0:
274,106,44350,1,10,0:2:0:0:
144,180,44622,5,2,0:2:0:0:
144,180,44759,1,2,0:2:0:0:
160,216,44895,1,2,0:2:0:0:
193,241,45032,1,2,0:2:0:0:
242,261,45168,1,2,0:2:0:0:
307,262,45304,1,2,0:2:0:0:
437,258,45577,1,2,0:0:0:0:
79,304,45850,6,0,B|330:230|330:230|452:-4,1,520,14|10,1:2|1:2,0:0:0:0:
384,58,46532,1,2,0:2:0:0:
352,87,46668,1,2,0:2:0:0:
384,58,46804,1,2,0:2:0:0:
239,49,46941,5,14,1:2:0:0:
479,38,47213,1,14,1:2:0:0:
239,49,47486,1,14,1:2:0:0:
311,136,47622,1,0,1:2:0:0:
275,137,47691,1,0,1:2:0:0:
239,136,47759,1,14,1:2:0:0:
311,136,47895,1,0,1:2:0:0:
93,285,48032,6,0,B|21:285|21:285|37:284|37:284|58:219,1,130,14|0,0:2|1:2,0:0:0:0:
115,188,48441,1,8,0:2:0:0:
259,188,48577,1,2,0:2:0:0:
324,185,48713,1,10,0:2:0:0:
259,188,48850,1,2,1:2:0:0:
194,191,48986,1,2,0:2:0:0:
410,285,49122,6,0,P|433:263|372:219,1,130,10|2,0:2|1:2,0:0:0:0:
135,314,49668,2,0,L|274:312,1,130,2|2,0:2|1:2,0:0:0:0:
330,313,50077,1,0,0:0:0:0:
114,253,50213,6,0,B|15:246|15:246|-1:169|53:114,1,233.999992858887,10|0,0:2|1:2,0:0:0:0:
112,126,50622,1,10,0:2:0:0:
257,123,50759,1,2,0:2:0:0:
328,119,50895,1,10,0:2:0:0:
257,123,51032,1,2,1:2:0:0:
41,172,51168,5,2,0:2:0:0:
41,172,51441,1,2,0:2:0:0:
281,169,51713,2,0,L|423:165,1,130,10|8,0:2|0:2,0:0:0:0:
444,124,52122,1,0,1:2:0:0:
410,165,52259,1,0,0:2:0:0:
194,267,52395,6,0,L|52:263,1,130,10|2,0:2|1:2,0:0:0:0:
129,224,52804,1,10,0:2:0:0:
274,189,52941,1,2,0:2:0:0:
284,157,53077,1,10,0:2:0:0:
212,117,53213,1,2,1:2:0:0:
202,85,53349,1,2,0:2:0:0:
419,59,53486,6,0,L|488:57,1,65,14|0,1:2|0:2,0:0:0:0:
327,70,53758,2,0,L|258:68,1,65,12|2,1:2|0:2,0:0:0:0:
407,214,54031,1,14,1:2:0:0:
479,214,54168,1,0,1:2:0:0:
496,217,54236,1,0,1:2:0:0:
479,214,54304,1,12,1:2:0:0:
407,214,54440,1,0,1:2:0:0:
189,260,54577,5,14,0:2:0:0:
124,293,54713,2,0,L|262:288,1,130,2|10,0:2|0:2,0:0:0:0:
109,178,55122,2,0,P|82:127|134:78,1,130,2|2,0:2|1:2,0:0:0:0:
191,74,55532,1,2,0:2:0:0:
407,163,55668,6,0,B|494:125|494:125|502:64|420:75|448:0,1,233.999992858887,10|2,0:2|1:2,0:0:0:0:
300,82,56077,2,0,L|158:86,1,130,10|8,0:2|0:2,0:0:0:0:
137,127,56486,1,0,1:2:0:0:
171,86,56623,1,0,0:2:0:0:
387,286,56759,6,0,P|464:239|397:194,1,195.00000743866,10|2,0:2|1:2,0:0:0:0:
340,204,57168,1,10,0:2:0:0:
196,243,57304,2,0,L|260:241,1,65,2|10,0:2|0:2,0:0:0:0:
325,239,57577,2,0,L|260:240,1,65,2|2,1:2|0:2,0:0:0:0:
43,250,57850,6,0,P|14:196|108:104,1,195.00000743866,10|2,0:2|1:2,0:0:0:0:
236,94,58259,2,0,B|302:102|302:102|276:114|276:114|328:132|328:132|281:136,1,195.00000743866,10|8,0:2|0:2,0:0:0:0:
218,206,58668,1,2,1:2:0:0:
459,159,58941,2,0,L|313:155,1,130,10|0,0:2|0:0,0:0:0:0:
111,152,59350,5,6,1:2:0:0:
111,152,59622,1,10,0:2:0:0:
177,146,59759,1,2,1:2:0:0:
111,152,59895,1,2,0:2:0:0:
256,286,60032,1,10,0:2:0:0:
295,284,60100,1,8,0:2:0:0:
317,278,60168,1,10,0:2:0:0:
330,243,60236,1,8,0:2:0:0:
324,201,60304,1,10,0:2:0:0:
111,152,60441,6,0,B|14:168|14:168|49:228|49:228|32:246|32:246|138:255,1,292.50001115799,14|2,1:2|1:2,0:0:0:0:
365,305,61122,6,0,B|461:259|461:259|366:202,1,195,2|2,0:0|0:0,0:0:0:0:
320,226,61668,1,2,0:2:0:0:
230,155,61941,1,2,0:2:0:0:
295,151,62077,1,2,0:2:0:0:
439,149,62213,1,2,0:2:0:0:
