osu file format v14

[General]
AudioFilename: audio.mp3
AudioLeadIn: 0
PreviewTime: 37122
Countdown: 0
SampleSet: Soft
StackLeniency: 0.7
Mode: 2
LetterboxInBreaks: 0
WidescreenStoryboard: 1

[Editor]
Bookmarks: 2213,10941,19668,28395,37122,45850,54577,62213
DistanceSpacing: 0.8
BeatDivisor: 8
GridSize: 16
TimelineZoom: 1.7

[Metadata]
Title:Kyu-kulagtrain
TitleUnicode:きゅうくラグトレイン
Artist:binmode
ArtistUnicode:빈모드
Creator:Mniam
Version:Collab Rain
Source:제14회 소리MAD 게시 이벤트
Tags:kaai yuki 歌愛ユキ vocaloid ボーカロイド inabakumori 稲葉曇 ビンモード らりん 소리매드 音mad oto-mad otomad #14 japanese pop jpop j-pop iyowa いよわ -hex- -Rustyy Quix Stardust Prism kukkai [_-Kukkai-_] kyukulagtrain mashup novelty kyu-kurarin きゅうくらりん lagtrain ラグトレイン kyukurarin
BeatmapID:4129069
BeatmapSetID:1896678

[Difficulty]
HPDrainRate:5
CircleSize:3.9
OverallDifficulty:9
ApproachRate:9
SliderMultiplier:1.4
SliderTickRate:1

[Events]
//Background and Video events
0,0,"esz.PNG",0,0
//Break Periods
//Storyboard Layer 0 (Background)
//Storyboard Layer 1 (Fail)
//Storyboard Layer 2 (Pass)
//Storyboard Layer 3 (Foreground)
//Storyboard Layer 4 (Overlay)
//Storyboard Sound Samples

[TimingPoints]
32,272.727272727273,4,2,1,60,1,0
2213,-100,4,2,1,70,0,0
19668,-100,4,2,1,60,0,0
28395,-83.3333333333333,4,2,1,60,0,0
37122,-100,4,2,1,50,0,0
44759,-100,4,2,1,40,0,0
45850,-50,4,2,1,80,0,1
46395,-100,4,2,1,80,0,0
48032,-50,4,2,1,80,0,1
48304,-100,4,2,1,80,0,1
54577,-50,4,2,1,80,0,1
54850,-100,4,2,1,80,0,1
58941,-100,4,2,1,60,0,1
59350,-50,4,2,2,70,0,1
59622,-100,4,2,1,80,0,1
61122,-100,4,2,1,60,0,0
62350,-100,4,2,1,50,0,0
62486,-100,4,2,1,40,0,0
62622,-100,4,2,1,30,0,0

[Colours]
Combo1 : 192,192,192
Combo2 : 128,128,128

[HitObjects]
197,118,32,6,0,L|149:118,1,35,10|2,1:2|1:2,0:0:0:0:
127,118,168,2,0,L|63:118,1,35,2|2,1:2|1:2,0:0:0:0:
232,118,304,2,0,L|296:118,1,35,10|2,1:2|1:2,0:0:0:0:
92,118,441,2,0,L|28:118,1,35,2|2,1:2|1:2,0:0:0:0:
267,118,577,2,0,L|351:118,1,70,10|0,1:2|1:2,0:0:0:0:
196,193,850,2,0,L|112:193,1,70,10|0,1:2|1:2,0:0:0:0:
353,262,1122,5,10,1:2:0:0:
483,259,1259,1,2,1:2:0:0:
256,168,1395,1,10,1:2:0:0:
386,165,1532,1,2,1:2:0:0:
159,274,1668,2,0,L|112:276,1,35,10|2,1:2|0:2,0:0:0:0:
107,236,1804,1,2,0:2:0:0:
124,275,1872,1,2,0:2:0:0:
216,341,1941,1,2,0:2:0:0:
233,302,2009,1,2,0:2:0:0:
215,341,2077,2,0,L|180:339,1,35,2|2,0:2|0:2,0:0:0:0:
355,240,2213,6,0,L|494:237,1,140,12|2,0:2|1:2,0:0:0:0:
354,197,2622,1,10,0:2:0:0:
494,237,2759,2,0,L|355:240,1,140,2|2,0:2|1:2,0:0:0:0:
494,191,3168,1,2,0:2:0:0:
267,275,3304,6,0,P|218:249|271:213,1,140,10|2,0:2|1:2,0:0:0:0:
338,252,3713,1,10,0:2:0:0:
197,322,3850,2,0,L|121:325,1,70,2|10,0:2|0:2,0:0:0:0:
268,254,4122,2,0,L|344:251,1,70,2|2,1:2|0:2,0:0:0:0:
113,204,4395,6,0,P|64:178|117:142,1,140,10|2,0:2|1:2,0:0:0:0:
183,203,4804,1,8,0:2:0:0:
42,279,4941,2,0,L|127:271,1,70,2|10,0:2|0:2,0:0:0:0:
252,209,5213,2,0,L|167:201,1,70,0|0,1:2|0:2,0:0:0:0:
411,113,5486,5,10,0:2:0:0:
481,116,5622,2,0,P|468:188|401:204,1,140,2|10,0:2|0:2,0:0:0:0:
269,293,6032,2,0,L|374:287,1,93.3333333333333,2|2,0:2|0:2,0:0:0:0:
175,257,6395,1,2,0:2:0:0:
455,220,6577,6,0,P|442:148|374:127,1,140,10|0,0:2|1:2,0:0:0:0:
245,136,6986,1,10,0:2:0:0:
385,125,7122,2,0,P|372:197|304:218,1,140,2|0,0:2|1:2,0:0:0:0:
174,218,7532,1,2,0:2:0:0:
401,299,7668,6,0,L|482:296,1,70,10|2,0:2|0:2,0:0:0:0:
331,301,7941,2,0,L|412:298,1,70,2|10,1:2|0:2,0:0:0:0:
174,305,8213,2,0,L|24:299,1,140,2|0,0:2|1:2,0:0:0:0:
34,299,8622,1,0,0:2:0:0:
259,147,8759,6,0,L|109:141,1,140,10|0,0:2|1:2,0:0:0:0:
260,182,9168,1,10,0:2:0:0:
33,100,9304,2,0,L|183:94,1,140,2|0,0:2|1:2,0:0:0:0:
32,135,9713,1,2,0:2:0:0:
257,258,9850,5,14,1:2:0:0:
387,255,9987,1,2,0:2:0:0:
160,179,10123,1,14,1:2:0:0:
30,176,10260,1,2,0:2:0:0:
257,258,10395,1,14,1:2:0:0:
335,187,10532,1,0,1:2:0:0:
300,184,10600,1,0,1:2:0:0:
139,193,10668,1,12,1:2:0:0:
61,196,10804,1,0,1:2:0:0:
96,194,10872,1,0,1:2:0:0:
258,207,10941,6,0,P|298:159|246:125,1,140,14|2,0:2|1:2,0:0:0:0:
108,120,11350,1,10,0:2:0:0:
246,124,11486,2,0,P|286:76|234:42,1,140,2|2,0:2|1:2,0:0:0:0:
93,55,11896,1,2,0:2:0:0:
320,59,12032,6,0,L|157:59,1,140,10|2,0:2|1:2,0:0:0:0:
250,58,12441,1,10,0:2:0:0:
391,132,12578,2,0,L|321:129,1,70,2|10,0:2|0:2,0:0:0:0:
181,59,12850,2,0,L|250:61,1,70,2|2,1:2|0:2,0:0:0:0:
40,193,13123,6,0,L|188:193,1,140,10|2,0:2|1:2,0:0:0:0:
110,191,13532,1,8,0:2:0:0:
251,264,13669,2,0,L|324:264,1,70,2|10,0:2|0:2,0:0:0:0:
180,193,13941,2,0,L|104:193,1,70,0|0,1:2|0:2,0:0:0:0:
338,129,14214,5,10,0:2:0:0:
408,125,14350,2,0,L|254:124,1,140,2|10,0:2|0:2,0:0:0:0:
126,197,14760,2,0,L|231:191,1,93.3333333333333,2|2,0:2|0:2,0:0:0:0:
32,161,15123,1,2,0:2:0:0:
334,183,15304,6,0,L|190:183,1,140,10|0,0:2|1:2,0:0:0:0:
335,183,15713,1,10,0:2:0:0:
195,183,15849,2,0,P|145:222|196:247,1,140,2|0,0:2|1:2,0:0:0:0:
335,183,16259,1,2,0:2:0:0:
107,325,16395,6,0,L|107:245,1,70,10|2,0:2|0:2,0:0:0:0:
248,262,16668,2,0,L|248:182,1,70,2|10,1:2|0:2,0:0:0:0:
21,199,16940,2,0,L|164:199,1,140,2|0,0:2|1:2,0:0:0:0:
92,198,17349,1,0,0:2:0:0:
320,212,17486,6,0,P|328:176|240:134,1,140,10|0,0:2|1:2,0:0:0:0:
112,151,17895,1,10,0:2:0:0:
341,137,18032,2,0,P|349:101|261:59,1,140,2|0,0:2|1:2,0:0:0:0:
133,76,18441,1,2,0:2:0:0:
360,250,18577,5,14,1:2:0:0:
490,253,18714,1,2,0:2:0:0:
263,201,18850,1,14,1:2:0:0:
133,198,18987,1,2,0:2:0:0:
358,169,19122,1,14,1:2:0:0:
228,172,19259,1,8,1:2:0:0:
193,168,19327,1,0,1:2:0:0:
333,97,19395,1,12,1:2:0:0:
424,83,19531,1,8,1:2:0:0:
385,78,19599,1,0,0:2:0:0:
223,216,19668,6,0,L|66:211,1,140,14|2,0:2|1:2,0:0:0:0:
224,190,20077,1,10,0:2:0:0:
295,187,20213,2,0,L|296:102,1,70,2|8,0:2|0:0,0:0:0:0:
155,222,20486,2,0,L|63:221,1,70,2|2,1:2|0:2,0:0:0:0:
318,291,20759,6,0,P|371:246|319:213,1,140,10|2,0:2|1:2,0:0:0:0:
191,123,21168,1,10,0:2:0:0:
260,123,21304,1,2,0:2:0:0:
330,123,21440,1,8,0:0:0:0:
190,256,21577,2,0,L|93:258,1,70,2|2,1:2|0:2,0:0:0:0:
349,191,21850,6,0,L|495:198,1,140,10|2,0:2|1:2,0:0:0:0:
339,261,22259,1,8,0:2:0:0:
271,236,22395,1,2,0:2:0:0:
257,206,22532,2,0,L|296:205,1,35,10|0,0:2|0:2,0:0:0:0:
377,133,22668,2,0,L|288:129,1,70,2|2,1:2|0:2,0:0:0:0:
103,240,22941,6,0,L|96:149,1,70,8|2,0:2|0:2,0:0:0:0:
159,157,23213,1,2,1:2:0:0:
288,86,23350,2,0,L|138:77,1,140,10|10,0:2|0:2,0:0:0:0:
298,175,23759,2,0,L|387:175,1,70,2|0,1:2|0:0,0:0:0:0:
172,215,24032,6,0,L|23:215,1,140,10|2,0:2|1:2,0:0:0:0:
173,171,24441,1,10,0:2:0:0:
245,117,24577,2,0,L|153:114,1,70,2|8,0:2|0:0,0:0:0:0:
34,215,24850,2,0,L|116:215,1,70,2|2,1:2|0:2,0:0:0:0:
322,228,25122,6,0,P|368:190|302:144,1,140,10|2,0:2|1:2,0:0:0:0:
183,85,25532,1,10,0:2:0:0:
260,87,25668,1,2,0:2:0:0:
338,87,25804,1,8,0:2:0:0:
196,240,25941,2,0,L|105:239,1,70,2|2,1:2|0:2,0:0:0:0:
359,227,26213,6,0,L|365:146,1,70,8|2,0:2|0:2,0:0:0:0:
293,170,26486,1,2,1:2:0:0:
154,253,26622,1,8,0:0:0:0:
189,158,26758,1,0,0:0:0:0:
291,148,26895,1,10,0:0:0:0:
434,167,27032,2,0,L|342:161,1,70,0|2,1:0|0:2,0:0:0:0:
154,225,27304,6,0,L|63:218,1,70,14|0,1:2|0:2,0:0:0:0:
295,154,27577,2,0,L|203:144,1,70,14|0,1:2|0:2,0:0:0:0:
21,145,27850,1,14,1:2:0:0:
91,145,27986,2,0,L|154:148,1,35,2|0,1:2|1:2,0:0:0:0:
282,119,28122,2,0,L|364:120,1,70,14|0,1:2|1:2,0:0:0:0:
348,158,28327,1,0,0:0:0:0:
152,276,28395,6,0,L|152:176,1,83.9999974365235,14|0,0:2|0:0,0:0:0:0:
236,184,28668,2,0,L|136:184,1,83.9999974365235,2|10,1:2|0:2,0:0:0:0:
288,96,28941,2,0,L|380:96,2,83.9999974365235,2|8|2,0:2|0:0|1:2,0:0:0:0:
204,100,29350,1,2,0:2:0:0:
440,280,29486,6,0,P|488:240|424:176,1,167.999994873047,10|2,0:2|1:2,0:0:0:0:
348,176,29895,1,10,0:2:0:0:
216,108,30032,2,0,L|392:151,1,167.999994873047,2|2,0:2|1:2,0:0:0:0:
458,171,30441,1,2,0:2:0:0:
248,368,30577,6,0,P|196:320|264:260,1,167.999994873047,10|2,0:2|1:2,0:0:0:0:
380,184,30986,2,0,L|196:184,1,167.999994873047,10|8,0:2|0:0,0:0:0:0:
296,180,31395,2,0,L|296:92,1,83.9999974365235,2|2,1:2|0:2,0:0:0:0:
60,312,31668,6,0,L|168:312,2,83.9999974365235,8|2|2,0:2|0:2|1:2,0:0:0:0:
192,256,32077,2,0,P|244:212|172:152,1,167.999994873047,10|10,0:2|0:2,0:0:0:0:
64,144,32486,2,0,L|64:232,1,83.9999974365235,2|0,1:2|0:0,0:0:0:0:
328,332,32759,6,0,L|500:332,1,167.999994873047,10|2,0:2|1:2,0:0:0:0:
412,332,33168,1,10,0:2:0:0:
272,296,33304,2,0,P|232:260|292:184,1,167.999994873047,2|2,0:2|1:2,0:0:0:0:
372,184,33713,1,2,0:2:0:0:
144,128,33850,6,0,L|344:128,1,167.999994873047,10|2,0:2|1:2,0:0:0:0:
228,128,34259,1,10,0:2:0:0:
356,248,34395,2,0,P|404:224|340:152,1,167.999994873047,2|2,0:2|1:2,0:0:0:0:
272,148,34804,1,2,0:2:0:0:
56,340,34941,5,8,0:2:0:0:
140,344,35077,2,0,L|140:252,1,83.9999974365235,2|2,0:2|1:2,0:0:0:0:
56,256,35350,2,0,L|56:160,1,83.9999974365235,8|2,0:2|0:2,0:0:0:0:
184,120,35622,2,0,L|280:120,2,83.9999974365235,10|0|2,0:2|1:0|0:2,0:0:0:0:
424,352,36032,6,0,L|424:240,1,83.9999974365235,14|2,1:2|0:2,0:0:0:0:
212,264,36304,2,0,L|104:264,1,83.9999974365235,14|2,1:2|0:2,0:0:0:0:
336,196,36577,2,0,P|352:136|324:104,1,83.9999974365235,14|0,1:2|1:2,0:0:0:0:
300,116,36782,1,0,1:2:0:0:
136,152,36850,2,0,P|120:92|152:64,1,83.9999974365235,14|0,1:2|1:2,0:0:0:0:
172,72,37055,1,0,0:2:0:0:
332,234,37122,6,0,L|421:237,2,70,14|0|2,0:2|0:2|1:2,0:0:0:0:
260,234,37532,1,10,0:2:0:0:
401,205,37668,2,0,P|446:174|383:132,1,140,2|2,0:2|1:2,0:0:0:0:
323,131,38077,1,2,0:2:0:0:
120,175,38213,6,0,L|200:175,2,70,10|0|2,0:2|0:2|1:2,0:0:0:0:
48,181,38622,1,10,0:2:0:0:
184,273,38759,2,0,P|225:233|166:179,1,140,2|2,0:2|1:2,0:0:0:0:
106,182,39168,1,2,0:2:0:0:
321,184,39304,5,10,0:2:0:0:
181,170,39577,2,0,L|118:170,2,35,2|0|8,1:2|0:2|0:2,0:0:0:0:
327,238,39850,2,0,L|402:238,2,70,2|8|2,0:2|0:2|1:2,0:0:0:0:
186,308,40259,1,2,0:2:0:0:
398,231,40395,6,0,L|398:156,1,70,8|2,0:2|0:2,0:0:0:0:
252,145,40668,2,0,L|206:204,2,70,2|10|0,1:2|0:2|0:2,0:0:0:0:
322,150,41077,1,10,0:2:0:0:
179,284,41213,2,0,L|179:201,1,70,2|0,1:2|0:0,0:0:0:0:
393,184,41486,6,0,L|434:185,2,35,10|0|0,0:2|0:2|0:2,0:0:0:0:
253,205,41759,2,0,L|330:205,1,70,2|10,1:2|0:2,0:0:0:0:
182,305,42032,2,0,P|183:243|270:215,1,140,2|2,0:2|1:2,0:0:0:0:
319,198,42441,1,2,0:2:0:0:
107,246,42577,6,0,P|66:219|128:181,1,140,10|2,0:2|1:2,0:0:0:0:
194,170,42986,1,10,0:2:0:0:
335,163,43122,2,0,L|417:165,2,70,2|8|2,0:2|0:2|1:2,0:0:0:0:
200,260,43532,1,2,0:0:0:0:
406,243,43668,6,0,L|429:211,2,35,8|0|2,0:2|0:2|0:2,0:0:0:0:
264,201,43941,2,0,L|352:199,1,70,2|8,1:2|0:2,0:0:0:0:
403,194,44213,2,0,L|306:183,1,70,2|10,0:2|0:2,0:0:0:0:
192,235,44486,2,0,L|180:144,1,70,0|2,1:2|0:2,0:0:0:0:
300,219,44759,5,2,0:0:0:0:
357,182,44895,1,2,0:0:0:0:
372,116,45031,1,2,0:0:0:0:
334,58,45168,1,2,0:0:0:0:
268,45,45304,1,2,0:0:0:0:
74,260,45577,1,2,0:0:0:0:
427,262,45850,6,0,B|147:263|147:263|100:126,1,420,14|0,1:2|0:2,0:0:0:0:
241,91,46395,2,0,L|328:89,3,70,10|2|2|2,1:2|0:2|0:2|0:2,0:0:0:0:
65,178,46941,6,0,L|56:95,1,70,14|0,1:2|0:0,0:0:0:0:
267,165,47213,2,0,L|258:82,1,70,14|0,1:2|0:0,0:0:0:0:
470,156,47486,2,0,L|461:73,1,70,14|0,1:2|1:2,0:0:0:0:
417,84,47691,1,0,1:2:0:0:
267,165,47759,2,0,L|184:168,1,70,14|0,1:2|1:2,0:0:0:0:
417,84,48032,6,0,B|254:52|271:191|148:181,1,280,14|0,0:2|1:2,0:0:0:0:
133,90,48441,1,8,0:2:0:0:
168,181,48577,2,0,L|251:184,1,70,2|10,0:2|0:2,0:0:0:0:
97,186,48850,2,0,L|180:189,1,70,2|2,1:2|0:2,0:0:0:0:
394,192,49122,6,0,L|403:109,1,70,10|0,0:2|0:0,0:0:0:0:
259,70,49395,2,0,L|176:67,1,70,2|10,1:2|0:2,0:0:0:0:
330,148,49668,2,0,L|341:233,1,70,2|8,0:2|0:0,0:0:0:0:
192,241,49941,2,0,L|177:318,1,70,2|0,1:2|0:0,0:0:0:0:
405,328,50213,6,0,P|458:298|401:256,1,140,10|0,0:2|1:2,0:0:0:0:
346,249,50622,2,0,L|269:252,1,70,10|2,0:2|0:2,0:0:0:0:
416,224,50895,1,10,0:2:0:0:
275,220,51032,1,2,1:2:0:0:
48,225,51168,5,2,0:2:0:0:
48,225,51441,2,0,L|127:224,1,70,2|0,0:2|1:2,0:0:0:0:
257,224,51713,2,0,L|116:224,1,140,10|8,0:2|0:2,0:0:0:0:
83,152,52122,1,0,1:2:0:0:
118,224,52259,1,0,0:2:0:0:
345,124,52395,6,0,B|372:185|372:185|297:201,1,140,10|2,0:2|1:2,0:0:0:0:
370,206,52804,1,10,0:2:0:0:
229,259,52941,2,0,L|150:258,3,70,2|10|2|2,0:2|0:2|1:2|0:2,0:0:0:0:
438,203,53486,6,0,L|447:120,1,70,14|0,1:2|0:2,0:0:0:0:
236,190,53758,2,0,L|245:107,1,70,12|2,1:2|0:2,0:0:0:0:
33,181,54031,2,0,L|42:98,1,70,14|0,1:2|1:2,0:0:0:0:
86,109,54236,1,0,1:2:0:0:
236,190,54304,2,0,L|319:193,1,70,12|0,1:2|1:2,0:0:0:0:
88,98,54577,6,0,B|251:66|234:205|357:195,1,280,14|0,0:2|1:2,0:0:0:0:
379,161,54986,1,10,0:2:0:0:
297,104,55122,2,0,L|297:186,1,70,2|8,0:2|0:0,0:0:0:0:
438,175,55395,2,0,L|353:175,1,70,2|2,1:2|0:2,0:0:0:0:
151,303,55667,6,0,P|105:259|162:223,1,140,10|2,0:2|1:2,0:0:0:0:
222,220,56077,2,0,L|70:220,1,140,10|8,0:2|0:2,0:0:0:0:
222,220,56486,2,0,L|138:220,1,70,0|0,1:2|0:2,0:0:0:0:
370,301,56759,6,0,P|419:271|361:236,1,140,10|2,0:2|1:2,0:0:0:0:
299,222,57168,1,10,0:2:0:0:
229,222,57305,2,0,L|315:222,1,70,2|10,0:2|0:2,0:0:0:0:
159,285,57577,2,0,L|73:285,1,70,2|2,1:2|0:2,0:0:0:0:
308,328,57850,6,0,L|143:328,1,140,10|2,0:2|1:2,0:0:0:0:
98,327,58259,2,0,L|250:327,1,140,10|8,0:2|0:2,0:0:0:0:
379,328,58668,2,0,L|293:328,1,70,2|0,1:2|0:2,0:0:0:0:
91,224,58941,6,0,L|41:153,1,70,10|0,0:2|0:0,0:0:0:0:
62,108,59146,1,0,0:0:0:0:
103,87,59213,1,8,0:0:0:0:
314,138,59350,6,0,B|151:106|168:245|45:235,1,280,6|10,1:2|0:2,0:0:0:0:
89,284,59759,1,2,1:2:0:0:
172,290,59895,1,2,0:2:0:0:
313,292,60032,5,10,0:2:0:0:
355,291,60100,1,8,0:2:0:0:
278,239,60168,2,10,L|223:239,1,35,10|10,0:2|0:2,0:2:0:0:
390,138,60304,2,10,L|453:138,1,35,10|10,0:2|0:2,0:2:0:0:
251,75,60441,6,0,P|187:114|226:166,1,140,14|8,1:2|0:2,0:0:0:0:
294,161,60850,2,0,L|386:161,1,70,2|0,1:2|0:2,0:0:0:0:
120,144,61122,5,2,0:2:0:0:
42,140,61259,1,0,0:2:0:0:
120,144,61395,1,0,0:2:0:0:
197,147,61532,1,2,0:2:0:0:
337,153,61668,2,0,L|291:76,1,70,2|0,0:2|0:2,0:0:0:0:
160,145,61941,2,0,L|206:68,1,70,2|2,0:2|0:2,0:0:0:0:
405,80,62213,5,2,0:2:0:0:
