osu file format v14

[General]
AudioFilename: audio.mp3
AudioLeadIn: 0
PreviewTime: 37122
Countdown: 0
SampleSet: Soft
StackLeniency: 0.7
Mode: 2
LetterboxInBreaks: 0
WidescreenStoryboard: 0

[Editor]
Bookmarks: 2213,10941,19668,28395,37122,45850,54577,62213
DistanceSpacing: 0.5
BeatDivisor: 4
GridSize: 8
TimelineZoom: 2.1

[Metadata]
Title:Kyu-kulagtrain
TitleUnicode:きゅうくラグトレイン
Artist:binmode
ArtistUnicode:빈모드
Creator:Mniam
Version:Agitation
Source:제14회 소리MAD 게시 이벤트
Tags:kaai yuki 歌愛ユキ vocaloid ボーカロイド inabakumori 稲葉曇 ビンモード らりん 소리매드 音mad oto-mad otomad #14 japanese pop jpop j-pop iyowa いよわ -hex- -Rustyy Quix Stardust Prism kukkai [_-Kukkai-_] kyukulagtrain mashup novelty kyu-kurarin きゅうくらりん lagtrain ラグトレイン kyukurarin
BeatmapID:3908869
BeatmapSetID:1896678

[Difficulty]
HPDrainRate:5
CircleSize:4.5
OverallDifficulty:9.7
ApproachRate:9.7
SliderMultiplier:2.2
SliderTickRate:2

[Events]
//Background and Video events
0,0,"esz.PNG",0,0
//Break Periods
//Storyboard Layer 0 (Background)
//Storyboard Layer 1 (Fail)
//Storyboard Layer 2 (Pass)
//Storyboard Layer 3 (Foreground)
//Storyboard Layer 4 (Overlay)
//Storyboard Sound Samples

[TimingPoints]
32,272.727272727273,4,2,1,60,1,0
2213,-100,4,2,1,70,0,0
2895,-100,4,2,2,70,0,0
2963,-100,4,2,1,70,0,0
5759,-100,4,2,3,70,0,0
5827,-100,4,2,1,70,0,0
7259,-100,4,2,2,70,0,0
7327,-100,4,2,1,70,0,0
8350,-100,4,2,2,70,0,0
8418,-100,4,2,1,70,0,0
9441,-100,4,2,2,70,0,0
9509,-100,4,2,1,70,0,0
11622,-100,4,2,2,70,0,0
11690,-100,4,2,1,70,0,0
14486,-100,4,2,3,70,0,0
14554,-100,4,2,1,70,0,0
15986,-100,4,2,2,70,0,0
16054,-100,4,2,1,70,0,0
17077,-100,4,2,2,70,0,0
17145,-100,4,2,1,70,0,0
18168,-100,4,2,2,70,0,0
18236,-100,4,2,1,70,0,0
19668,-100,4,2,1,60,0,0
20350,-100,4,2,2,60,0,0
20418,-100,4,2,1,60,0,0
21441,-100,4,2,2,60,0,0
21509,-100,4,2,1,60,0,0
24713,-100,4,2,2,60,0,0
24781,-100,4,2,1,60,0,0
29077,-100,4,2,2,60,0,0
29145,-100,4,2,1,60,0,0
30168,-100,4,2,2,60,0,0
30236,-100,4,2,1,60,0,0
31259,-100,4,2,2,60,0,0
31327,-100,4,2,1,60,0,0
33441,-100,4,2,2,60,0,0
33509,-100,4,2,1,60,0,0
37122,-100,4,2,1,50,0,0
44759,-100,4,2,1,40,0,0
45850,-50,4,2,1,80,0,1
46395,-100,4,2,1,80,0,0
46941,-100,4,2,1,80,0,1
47009,-100,4,2,1,80,0,0
47213,-100,4,2,1,80,0,1
47282,-100,4,2,1,80,0,0
47486,-100,4,2,1,80,0,1
47554,-100,4,2,1,80,0,0
47759,-100,4,2,1,80,0,1
47827,-100,4,2,1,80,0,0
48032,-100,4,2,1,80,0,1
49804,-100,4,2,2,80,0,1
49872,-100,4,2,1,80,0,1
50213,-50,4,2,1,80,0,1
50486,-100,4,2,1,80,0,1
53282,-100,4,2,1,80,0,0
53486,-100,4,2,1,80,0,1
53554,-100,4,2,1,80,0,0
53759,-100,4,2,1,80,0,1
53827,-100,4,2,1,80,0,0
54032,-100,4,2,1,80,0,1
54100,-100,4,2,1,80,0,0
54304,-100,4,2,1,80,0,1
54372,-100,4,2,1,80,0,0
54577,-100,4,2,1,80,0,1
54850,-100,4,2,3,80,0,1
54918,-100,4,2,1,80,0,1
55259,-100,4,2,2,80,0,1
55327,-100,4,2,1,80,0,1
58941,-45.4545454545455,4,2,1,60,0,1
59213,-45.4545454545455,4,2,2,70,0,1
59486,-100,4,2,1,80,0,1
61122,-100,4,2,1,60,0,0
62350,-100,4,2,1,50,0,0
62486,-100,4,2,1,40,0,0
62622,-100,4,2,1,30,0,0

[Colours]
Combo1 : 192,192,192
Combo2 : 128,128,128

[HitObjects]
174,193,32,6,2,L|164:130,1,55,10|2,1:2|1:2,1:2:0:0:
347,76,168,2,2,L|400:69,1,55,2|2,1:2|1:2,1:2:0:0:
220,315,304,2,2,L|213:261,1,55,10|2,1:2|1:2,1:2:0:0:
29,126,441,2,2,L|82:119,1,55,2|2,1:2|1:2,1:2:0:0:
289,348,577,5,10,1:2:0:0:
157,353,713,1,0,1:2:0:0:
289,348,850,1,10,1:2:0:0:
157,353,986,1,0,1:2:0:0:
354,304,1122,5,10,1:2:0:0:
89,305,1259,1,2,1:2:0:0:
396,247,1395,1,10,1:2:0:0:
42,251,1532,1,2,1:2:0:0:
426,186,1668,5,10,1:2:0:0:
442,140,1736,1,2,0:2:0:0:
425,102,1804,1,2,0:2:0:0:
376,89,1872,1,2,0:2:0:0:
293,155,1941,1,2,0:2:0:0:
336,152,2009,1,2,0:2:0:0:
397,152,2077,1,2,0:2:0:0:
474,152,2145,1,2,0:2:0:0:
272,270,2213,6,0,P|213:230|275:186,1,165,12|0,0:2|0:2,0:2:0:0:
84,89,2486,2,0,L|144:84,1,55,2|0,1:2|0:2,0:2:0:0:
320,62,2622,2,0,L|380:57,1,55,10|0,0:2|0:2,0:2:0:0:
191,231,2759,2,0,P|110:226|82:145,1,165,2|0,0:2|0:2,0:2:0:0:
263,172,3032,2,0,L|257:109,1,55,2|0,1:2|0:2,0:2:0:0:
439,212,3168,2,0,L|379:217,1,55,2|0,0:2|0:2,0:2:0:0:
192,314,3304,6,0,P|184:246|280:218,1,165,10|0,0:2|0:2,0:2:0:0:
446,302,3577,2,0,L|386:307,1,55,2|0,1:2|0:2,0:2:0:0:
210,326,3713,2,0,L|270:331,1,55,10|0,0:2|0:2,0:2:0:0:
81,287,3850,2,0,L|76:227,1,55,2|0,0:2|0:2,0:2:0:0:
258,204,3986,2,0,L|253:144,1,55,10|0,0:2|0:2,0:2:0:0:
435,181,4122,2,0,L|440:121,1,55,2|0,1:2|0:2,0:2:0:0:
258,83,4258,2,0,L|263:23,1,55,2|0,0:2|0:2,0:2:0:0:
458,241,4395,6,0,L|398:246,1,55,10|0,0:2|0:2,0:2:0:0:
341,182,4532,2,0,L|401:177,1,55,0|0,0:2|0:2,0:2:0:0:
215,239,4668,2,0,L|155:231,1,55,2|0,1:2|0:2,0:2:0:0:
222,316,4804,2,0,L|281:323,1,55,8|0,0:2|0:2,0:2:0:0:
95,279,4941,2,0,L|88:221,1,55,2|0,0:2|0:2,0:2:0:0:
165,188,5077,2,0,L|168:130,1,55,10|0,0:2|0:2,0:2:0:0:
91,108,5213,2,0,L|107:52,1,55,0|2,1:2|0:2,0:2:0:0:
178,39,5350,2,0,L|232:36,1,55,0|0,0:2|0:2,0:2:0:0:
425,122,5486,6,0,L|435:64,1,55,10|0,0:2|0:2,0:2:0:0:
253,147,5622,2,0,P|241:233|307:247,1,165,2|0,0:2|0:2,0:2:0:0:
118,339,5895,2,0,L|170:299,1,55,10|0,0:2|0:2,0:2:0:0:
357,327,6032,2,0,L|314:261,1,73.3333333333333,2|0,0:2|0:2,0:2:0:0:
97,225,6213,2,0,L|170:220,1,73.3333333333333,2|0,0:2|1:2,0:2:0:0:
411,179,6395,2,0,L|337:174,1,73.3333333333333,2|0,0:2|0:2,0:2:0:0:
78,144,6577,6,0,P|94:82|174:22,1,165,10|0,0:2|0:2,0:2:0:0:
355,14,6850,2,0,L|360:86,1,55,0|0,1:2|0:2,0:2:0:0:
177,124,6986,2,0,L|250:119,1,55,10|0,0:2|0:2,0:2:0:0:
413,317,7122,2,0,P|397:255|317:195,1,165,2|0,0:2|0:2,0:2:0:0:
136,187,7395,2,0,L|131:259,1,55,0|0,1:2|0:2,0:2:0:0:
314,297,7532,2,0,L|241:292,1,55,2|0,0:2|0:2,0:2:0:0:
454,143,7668,6,0,L|381:138,1,55,10|0,0:2|0:2,0:2:0:0:
218,122,7804,2,0,L|145:117,1,55,2|0,0:2|0:2,0:2:0:0:
347,62,7941,2,0,L|274:57,1,55,2|0,1:2|0:2,0:2:0:0:
473,66,8077,2,0,L|478:139,1,55,10|0,0:2|0:2,0:2:0:0:
295,245,8213,2,0,P|253:192|328:161,1,165,2|0,0:2|0:2,0:2:0:0:
137,62,8486,2,0,L|128:134,1,55,0|0,1:2|0:2,0:2:0:0:
310,258,8622,2,0,L|319:330,1,55,0|0,0:2|0:2,0:2:0:0:
122,266,8759,6,0,L|324:256,1,165,10|0,0:2|0:2,0:2:0:0:
103,196,9032,2,0,L|98:124,1,55,0|0,1:2|0:2,0:2:0:0:
281,86,9168,2,0,L|208:91,1,55,10|0,0:2|0:2,0:2:0:0:
45,246,9304,2,0,L|247:236,1,165,2|0,0:2|0:2,0:2:0:0:
26,176,9577,2,0,L|21:104,1,55,0|0,1:2|0:2,0:2:0:0:
204,66,9713,2,0,L|147:105,1,55,2|0,0:2|0:2,0:2:0:0:
343,253,9850,5,14,1:2:0:0:
145,177,9986,1,2,0:2:0:0:
441,164,10122,1,14,1:2:0:0:
145,177,10258,1,2,0:2:0:0:
477,294,10395,2,0,L|468:239,1,55,14|0,1:2|0:2,1:2:0:0:
287,250,10532,2,0,L|262:200,1,55,0|0,1:2|1:2,1:2:0:0:
455,148,10668,2,0,L|411:114,1,55,12|0,1:2|0:2,1:2:0:0:
206,126,10804,2,0,L|145:117,1,55,0|0,1:2|1:2,1:2:0:0:
374,270,10941,6,0,P|459:245|425:187,1,165,14|0,0:2|0:2,0:2:0:0:
256,100,11214,2,0,L|316:95,1,55,2|0,1:2|0:2,0:2:0:0:
492,83,11350,2,0,L|432:78,1,55,10|0,0:2|0:2,0:2:0:0:
253,223,11487,2,0,P|197:170|252:129,1,165,2|0,0:2|0:2,0:2:0:0:
67,141,11759,2,0,L|61:78,1,55,2|0,1:2|0:2,0:2:0:0:
243,42,11896,2,0,L|303:37,1,55,2|0,0:2|0:2,0:2:0:0:
106,280,12032,6,0,P|98:212|194:184,1,165,10|0,0:2|0:2,0:2:0:0:
359,302,12305,2,0,L|414:298,1,55,2|0,1:2|0:2,0:2:0:0:
178,322,12441,2,0,L|238:327,1,55,10|0,0:2|0:2,0:2:0:0:
49,283,12578,2,0,L|44:223,1,55,2|0,0:2|0:2,0:2:0:0:
226,200,12714,2,0,L|221:140,1,55,10|0,0:2|0:2,0:2:0:0:
403,177,12850,2,0,L|408:117,1,55,2|0,1:2|0:2,0:2:0:0:
226,79,12986,2,0,L|231:19,1,55,2|0,0:2|0:2,0:2:0:0:
38,237,13122,6,0,L|98:242,1,55,10|0,0:2|0:2,0:2:0:0:
156,178,13259,2,0,L|96:173,1,55,0|0,0:2|0:2,0:2:0:0:
282,235,13395,2,0,L|342:227,1,55,2|0,1:2|0:2,0:2:0:0:
274,312,13532,2,0,L|215:319,1,55,8|0,0:2|0:2,0:2:0:0:
401,275,13668,2,0,L|408:217,1,55,2|0,0:2|0:2,0:2:0:0:
331,184,13804,2,0,L|328:126,1,55,10|0,0:2|0:2,0:2:0:0:
405,104,13940,2,0,L|389:48,1,55,0|2,1:2|0:2,0:2:0:0:
318,35,14077,2,0,L|264:32,1,55,0|0,0:2|0:2,0:2:0:0:
71,122,14213,6,0,L|61:64,1,55,10|0,0:2|0:2,0:2:0:0:
243,147,14349,2,0,P|255:233|189:247,1,165,2|0,0:2|0:2,0:2:0:0:
378,339,14622,2,0,L|328:302,1,55,10|0,0:2|0:2,0:2:0:0:
139,327,14759,2,0,L|182:261,1,73.3333333333333,2|0,0:2|0:2,0:2:0:0:
399,225,14940,2,0,L|326:220,1,73.3333333333333,2|0,0:2|1:2,0:2:0:0:
85,179,15122,2,0,L|159:174,1,73.3333333333333,2|0,0:2|0:2,0:2:0:0:
418,144,15304,6,0,P|402:82|322:22,1,165,10|0,0:2|0:2,0:2:0:0:
141,14,15577,2,0,L|136:86,1,55,0|0,1:2|0:2,0:2:0:0:
319,124,15713,2,0,L|246:119,1,55,10|0,0:2|0:2,0:2:0:0:
83,317,15849,2,0,P|99:255|179:195,1,165,2|0,0:2|0:2,0:2:0:0:
360,187,16122,2,0,L|365:259,1,55,0|0,1:2|0:2,0:2:0:0:
182,297,16258,2,0,L|255:292,1,55,2|0,0:2|0:2,0:2:0:0:
42,143,16395,6,0,L|115:138,1,55,10|0,0:2|0:2,0:2:0:0:
278,113,16531,2,0,L|272:40,1,55,2|0,0:2|0:2,0:2:0:0:
457,72,16668,2,0,L|402:75,1,55,2|0,1:2|0:2,0:2:0:0:
221,146,16804,2,0,L|307:141,1,55,10|0,0:2|0:2,0:2:0:0:
95,234,16940,2,0,P|53:181|128:150,1,165,2|0,0:2|0:2,0:2:0:0:
305,68,17213,2,0,L|314:140,1,55,0|0,1:2|0:2,0:2:0:0:
132,264,17349,2,0,L|123:336,1,55,0|0,0:2|0:2,0:2:0:0:
320,268,17486,6,0,L|118:258,1,165,10|0,0:2|0:2,0:2:0:0:
340,198,17759,2,0,L|345:126,1,55,0|0,1:2|0:2,0:2:0:0:
162,88,17895,2,0,L|235:93,1,55,10|0,0:2|0:2,0:2:0:0:
398,248,18031,2,0,L|196:238,1,165,2|0,0:2|0:2,0:2:0:0:
417,178,18304,2,0,L|422:106,1,55,0|0,1:2|0:2,0:2:0:0:
239,68,18440,2,0,L|296:86,1,55,2|0,0:2|0:2,0:2:0:0:
84,183,18577,5,14,1:2:0:0:
358,130,18713,1,2,0:2:0:0:
84,183,18850,1,14,1:2:0:0:
413,245,18986,1,2,0:2:0:0:
29,232,19122,2,0,L|26:165,1,55,14|0,1:2|0:2,0:2:0:0:
222,101,19259,2,0,L|162:101,1,55,8|0,1:2|1:2,1:2:0:0:
359,227,19395,2,0,L|365:172,1,55,12|0,1:2|0:2,0:2:0:0:
170,188,19532,2,0,L|110:188,1,55,8|0,1:2|0:2,1:2:0:0:
335,338,19668,6,0,P|394:329|429:232,1,165,14|0,0:2|0:2,0:2:0:0:
247,208,19941,2,0,L|240:146,1,55,2|0,1:2|0:2,0:2:0:0:
312,101,20077,2,0,L|371:96,1,55,10|0,0:2|0:2,0:2:0:0:
186,41,20213,2,0,P|127:50|92:147,1,165,2|0,0:2|0:2,0:2:0:0:
274,266,20486,2,0,L|336:259,1,55,2|0,1:2|0:2,0:2:0:0:
257,247,20622,2,0,L|195:254,1,55,2|0,0:2|0:2,0:2:0:0:
397,178,20759,6,0,L|232:176,1,165,10|0,0:2|0:2,0:2:0:0:
416,103,21032,2,0,L|478:96,1,55,2|0,1:2|0:2,0:2:0:0:
406,96,21168,2,0,L|468:89,1,55,10|0,0:2|0:2,0:2:0:0:
279,79,21304,2,0,L|114:77,1,165,2|0,0:2|0:2,0:2:0:0:
298,173,21577,2,0,L|305:235,1,55,2|0,1:2|0:2,0:2:0:0:
123,233,21713,2,0,L|116:295,1,55,2|0,0:2|0:2,0:2:0:0:
312,309,21850,6,0,L|384:302,1,55,10|0,0:2|0:2,0:2:0:0:
37,173,22122,2,0,L|109:166,1,55,2|0,1:2|0:2,0:2:0:0:
164,158,22259,1,8,0:2:0:0:
455,173,22395,2,0,L|396:148,1,55,2|0,0:2|0:2,0:2:0:0:
338,157,22532,2,0,L|410:150,1,55,10|0,0:2|0:2,0:2:0:0:
328,148,22668,2,0,L|400:141,1,55,2|0,1:2|0:2,0:2:0:0:
201,198,22804,2,0,L|191:138,1,55,2|0,0:2|0:2,0:2:0:0:
380,68,22941,5,8,0:2:0:0:
380,68,23077,2,0,L|325:66,1,55,2|0,0:2|0:2,0:2:0:0:
144,92,23213,2,0,L|198:90,1,55,2|0,1:2|0:2,0:2:0:0:
383,251,23350,2,0,L|390:182,1,55,10|0,0:2|0:2,0:2:0:0:
312,157,23486,1,0,0:2:0:0:
312,157,23622,2,0,L|244:159,1,55,10|0,0:2|0:2,0:2:0:0:
74,170,23759,2,0,P|56:92|142:77,1,165,2|0,1:2|0:2,0:2:0:0:
317,82,24032,6,0,L|385:84,1,55,10|0,0:2|0:2,0:2:0:0:
191,166,24168,2,0,L|259:168,1,55,0|0,0:2|0:2,0:2:0:0:
65,289,24304,2,0,L|58:220,1,55,2|0,1:2|0:2,0:2:0:0:
137,198,24441,2,0,L|144:129,1,55,10|0,0:2|0:2,0:2:0:0:
324,139,24577,2,0,P|421:186|423:246,1,165,2|0,0:2|0:2,0:2:0:0:
243,288,24850,2,0,L|167:287,1,55,2|0,1:2|0:2,0:2:0:0:
258,260,24986,2,0,L|334:259,1,55,2|0,0:2|0:2,0:2:0:0:
121,224,25122,6,0,L|114:155,1,55,10|0,0:2|0:2,0:2:0:0:
299,133,25259,2,0,L|306:64,1,55,2|0,0:2|0:2,0:2:0:0:
123,95,25395,2,0,L|116:26,1,55,2|0,1:2|0:2,0:2:0:0:
189,116,25532,2,0,L|120:109,1,55,10|0,0:2|0:2,0:2:0:0:
316,309,25668,2,0,L|388:302,1,55,2|0,0:2|0:2,0:2:0:0:
301,288,25804,1,8,0:2:0:0:
25,276,25941,2,0,L|97:269,1,55,2|0,1:2|0:2,0:2:0:0:
261,245,26077,2,0,L|333:238,1,55,2|0,0:2|0:2,0:2:0:0:
124,197,26213,5,8,0:2:0:0:
69,123,26350,2,0,L|141:116,1,55,2|0,0:2|0:2,0:2:0:0:
305,108,26486,2,0,L|378:147,2,55,2|0|8,1:2|0:2|0:2,0:2:0:0:
190,113,26759,2,0,L|262:106,1,55,2|0,0:2|0:2,0:2:0:0:
319,109,26895,2,0,L|326:178,1,55,10|0,0:2|0:2,0:2:0:0:
258,175,27032,1,0,1:0:0:0:
176,105,27168,2,0,L|248:98,1,55,2|0,0:2|0:2,0:2:0:0:
423,91,27304,5,14,1:2:0:0:
147,260,27441,1,0,0:2:0:0:
423,91,27577,1,14,1:2:0:0:
93,156,27713,1,0,0:2:0:0:
423,91,27850,2,0,L|413:155,1,55,14|0,1:2|0:2,1:2:0:0:
233,135,27986,2,0,L|208:186,1,55,2|0,1:2|1:2,1:2:0:0:
401,237,28122,2,0,L|357:271,1,55,14|0,1:2|0:2,1:2:0:0:
152,259,28259,2,0,L|91:268,1,55,0|0,1:2|1:2,1:2:0:0:
316,345,28395,6,0,P|375:336|410:239,1,165,14|0,0:2|0:2,0:2:0:0:
228,215,28668,2,0,L|221:153,1,55,2|0,1:2|0:2,0:2:0:0:
293,108,28804,2,0,L|352:103,1,55,10|0,0:2|0:2,0:2:0:0:
167,48,28941,2,0,P|108:57|73:154,1,165,2|0,0:2|0:2,0:2:0:0:
255,273,29213,2,0,L|317:266,1,55,2|0,1:2|0:2,0:2:0:0:
238,254,29350,2,0,L|176:261,1,55,2|0,0:2|0:2,0:2:0:0:
378,185,29486,6,0,L|213:183,1,165,10|0,0:2|0:2,0:2:0:0:
397,110,29759,2,0,L|459:103,1,55,2|0,1:2|0:2,0:2:0:0:
387,103,29895,2,0,L|449:96,1,55,10|0,0:2|0:2,0:2:0:0:
260,86,30032,2,0,L|95:84,1,165,2|0,0:2|0:2,0:2:0:0:
279,180,30304,2,0,L|286:242,1,55,2|0,1:2|0:2,0:2:0:0:
104,240,30441,2,0,L|97:302,1,55,2|0,0:2|0:2,0:2:0:0:
292,336,30577,6,0,L|364:329,1,55,10|0,0:2|0:2,0:2:0:0:
82,157,30850,2,0,L|10:150,1,55,2|0,1:2|0:2,0:2:0:0:
208,116,30986,2,0,L|280:109,1,55,10|0,0:2|0:2,0:2:0:0:
444,96,31122,2,0,P|465:128|391:201,1,165,2|0,0:2|0:2,0:2:0:0:
208,116,31395,2,0,L|280:109,1,55,2|0,1:2|0:2,0:2:0:0:
79,184,31532,2,0,L|73:258,1,55,2|0,0:2|0:2,0:2:0:0:
266,297,31668,5,8,0:2:0:0:
266,297,31804,2,0,L|194:290,1,55,2|0,0:2|0:2,0:2:0:0:
395,248,31941,2,0,L|467:241,1,55,2|0,1:2|0:2,0:2:0:0:
269,218,32077,2,0,L|262:149,1,55,10|0,0:2|0:2,0:2:0:0:
340,124,32213,1,0,0:2:0:0:
340,124,32350,2,0,L|268:117,1,55,10|0,0:2|0:2,0:2:0:0:
103,149,32486,2,0,P|82:117|156:44,1,165,2|0,1:2|0:2,0:2:0:0:
351,88,32759,6,0,L|283:90,1,55,10|0,0:2|0:2,0:2:0:0:
115,173,32895,2,0,L|183:175,1,55,0|0,0:2|0:2,0:2:0:0:
351,227,33032,2,0,L|358:158,1,55,2|0,1:2|0:2,0:2:0:0:
439,146,33168,2,0,L|446:77,1,55,10|0,0:2|0:2,0:2:0:0:
263,54,33304,2,0,P|256:132|336:162,1,165,2|0,0:2|0:2,0:2:0:0:
141,335,33577,2,0,L|86:336,1,55,2|0,1:2|0:2,0:2:0:0:
267,305,33713,2,0,L|212:303,1,55,2|0,0:2|0:2,0:2:0:0:
17,253,33850,6,0,L|71:251,1,55,10|0,0:2|0:2,0:2:0:0:
253,238,33986,2,0,L|307:236,1,55,2|0,0:2|0:2,0:2:0:0:
127,164,34122,2,0,L|181:162,1,55,2|0,1:2|0:2,0:2:0:0:
365,144,34259,2,0,L|419:142,1,55,10|0,0:2|0:2,0:2:0:0:
239,107,34395,2,0,L|232:38,1,55,2|0,0:2|0:2,0:2:0:0:
305,16,34532,1,8,0:2:0:0:
31,270,34668,2,0,L|24:201,1,55,2|0,1:2|0:2,0:2:0:0:
207,185,34804,2,0,L|214:116,1,55,2|0,0:2|0:2,0:2:0:0:
408,69,34941,5,8,0:2:0:0:
463,143,35077,2,0,L|391:136,1,55,2|0,0:2|0:2,0:2:0:0:
227,128,35213,2,0,L|156:154,2,55,2|0|8,1:2|0:2|0:2,0:2:0:0:
345,145,35486,2,0,L|273:138,1,55,2|0,0:2|0:2,0:2:0:0:
216,141,35622,2,0,L|209:210,1,55,10|0,0:2|0:2,0:2:0:0:
277,202,35759,1,0,1:0:0:0:
359,130,35895,2,0,L|287:123,1,55,2|0,0:2|0:2,0:2:0:0:
109,111,36032,5,14,1:2:0:0:
385,280,36168,1,2,0:2:0:0:
109,111,36304,1,14,1:2:0:0:
439,176,36440,1,2,0:2:0:0:
52,239,36577,2,0,L|49:172,1,55,14|0,1:2|0:2,0:2:0:0:
245,108,36714,2,0,L|185:108,1,55,0|0,1:2|1:2,1:2:0:0:
382,234,36850,2,0,L|388:179,1,55,14|0,1:2|0:2,0:2:0:0:
193,195,36986,2,0,L|133:195,1,55,0|0,1:2|0:2,1:2:0:0:
354,334,37122,5,14,0:2:0:0:
409,267,37259,1,0,0:2:0:0:
354,187,37395,1,2,1:2:0:0:
224,184,37532,1,10,0:2:0:0:
354,141,37668,1,2,0:2:0:0:
409,71,37804,1,8,0:2:0:0:
381,48,37872,1,0,0:2:0:0:
325,42,37941,1,2,1:2:0:0:
454,36,38077,1,2,0:2:0:0:
235,41,38213,5,10,0:2:0:0:
257,129,38350,1,0,0:2:0:0:
386,192,38486,1,2,1:2:0:0:
257,224,38622,1,10,0:2:0:0:
478,236,38759,1,2,0:2:0:0:
423,237,38895,1,10,0:2:0:0:
202,214,39032,1,2,1:2:0:0:
92,207,39168,1,2,0:2:0:0:
311,187,39304,5,10,0:2:0:0:
311,187,39441,1,0,0:2:0:0:
256,124,39577,1,2,1:2:0:0:
329,114,39645,1,0,0:2:0:0:
402,104,39713,1,8,0:2:0:0:
279,36,39850,1,2,0:2:0:0:
345,94,39986,1,8,0:2:0:0:
479,137,40122,1,2,1:2:0:0:
346,194,40259,1,2,0:2:0:0:
127,230,40395,5,8,0:2:0:0:
127,230,40532,1,2,0:2:0:0:
346,235,40668,1,2,1:2:0:0:
236,230,40804,1,10,0:2:0:0:
16,223,40941,1,0,0:2:0:0:
16,223,41077,1,10,0:2:0:0:
236,230,41213,2,0,P|306:205|281:136,1,165,2|0,1:2|0:2,0:2:0:0:
87,203,41486,5,10,0:2:0:0:
158,196,41554,1,0,0:2:0:0:
185,153,41622,1,0,0:2:0:0:
157,58,41759,1,2,1:2:0:0:
31,45,41895,1,10,0:2:0:0:
157,58,42032,1,2,0:2:0:0:
212,114,42168,1,8,0:2:0:0:
157,58,42304,1,2,1:2:0:0:
287,59,42441,1,2,0:2:0:0:
68,191,42577,5,10,0:2:0:0:
123,271,42713,1,2,0:2:0:0:
253,290,42850,1,2,1:2:0:0:
123,338,42986,1,10,0:2:0:0:
343,279,43122,1,2,0:2:0:0:
398,196,43259,1,8,0:2:0:0:
342,120,43395,1,2,1:2:0:0:
210,101,43532,1,2,0:2:0:0:
421,284,43668,5,8,0:2:0:0:
453,265,43736,1,0,0:2:0:0:
429,227,43804,1,2,0:2:0:0:
295,289,43941,1,2,1:2:0:0:
239,218,44077,1,8,0:2:0:0:
294,152,44213,1,2,0:2:0:0:
162,139,44350,1,10,0:2:0:0:
217,68,44486,1,0,1:2:0:0:
162,8,44622,1,2,0:2:0:0:
384,79,44759,5,2,0:2:0:0:
362,152,44895,1,2,0:2:0:0:
318,220,45032,1,2,0:2:0:0:
252,267,45191,1,2,0:2:0:0:
164,286,45350,1,2,0:2:0:0:
329,286,45532,1,2,0:2:0:0:
164,286,45713,1,2,0:2:0:0:
438,318,45850,6,0,B|215:320|215:320|84:145|84:145|51:212|44:361,1,660,14|0,1:2|0:2,0:2:0:0:
385,165,46395,1,10,1:2:0:0:
262,153,46532,1,2,0:2:0:0:
481,89,46668,1,2,0:2:0:0:
358,77,46805,1,2,0:2:0:0:
84,201,46941,6,8,L|77:146,1,55,14|0,1:2|0:2,0:2:0:0:
488,193,47213,2,0,L|495:138,1,55,14|0,1:2|0:2,0:2:0:0:
41,245,47486,2,0,L|34:190,1,55,14|0,1:2|0:2,0:2:0:0:
185,136,47622,2,0,L|240:129,1,55,0|0,1:2|1:2,1:2:0:0:
41,245,47759,2,0,L|34:190,1,55,14|0,1:2|0:2,0:2:0:0:
239,129,47895,2,0,L|294:122,1,55,0|0,1:2|0:2,1:2:0:0:
41,245,48032,6,0,L|34:190,1,55,14|0,0:2|0:2,0:2:0:0:
215,95,48168,1,0,0:2:0:0:
355,241,48304,2,0,L|362:186,1,55,0|0,1:2|0:2,0:2:0:0:
181,91,48440,1,8,0:2:0:0:
403,295,48577,2,0,L|348:302,1,55,2|0,0:2|0:2,0:2:0:0:
167,276,48713,2,0,L|222:269,1,55,10|0,0:2|0:2,0:2:0:0:
405,239,48850,2,0,L|460:232,1,55,2|0,1:2|0:2,0:2:0:0:
278,182,48986,2,0,L|333:175,1,55,2|0,0:2|0:2,0:2:0:0:
140,172,49122,6,0,P|130:94|213:73,1,165,10|0,0:2|0:2,0:2:0:0:
383,203,49395,2,0,L|381:140,1,55,2|0,1:2|0:2,0:2:0:0:
197,220,49532,2,0,L|271:215,1,55,10|0,0:2|0:2,0:2:0:0:
433,177,49668,2,0,P|443:99|360:78,1,165,2|0,0:2|0:2,0:2:0:0:
190,242,49941,2,0,P|119:213|130:137,1,165,2|0,1:2|0:2,0:2:0:0:
322,290,50213,6,0,B|99:286|99:286|32:283|39:209,1,330,10|0,0:2|0:2,0:2:0:0:
102,149,50486,2,0,L|31:143,1,55,0|0,1:2|0:2,0:2:0:0:
230,109,50622,2,0,L|229:33,1,55,10|0,0:2|0:2,0:2:0:0:
413,146,50759,2,0,L|416:83,1,55,2|0,0:2|0:2,0:2:0:0:
234,234,50895,2,0,L|230:163,1,55,10|0,0:2|0:2,0:2:0:0:
415,219,51032,2,0,L|481:217,1,55,2|0,1:2|0:2,0:2:0:0:
289,263,51168,2,0,L|353:259,1,55,2|0,0:2|0:2,0:2:0:0:
148,49,51304,5,8,0:2:0:0:
148,49,51441,2,0,L|232:44,1,55,2|0,0:2|0:2,0:2:0:0:
276,43,51577,2,0,L|281:120,1,55,0|0,1:2|0:2,0:2:0:0:
98,161,51713,2,0,L|21:166,1,55,10|0,0:2|0:2,0:2:0:0:
109,134,51850,2,0,L|111:55,1,55,0|0,0:2|0:2,0:2:0:0:
47,41,51986,2,0,L|124:46,1,55,8|0,0:2|0:2,0:2:0:0:
284,214,52122,2,0,L|361:209,1,55,0|0,1:2|0:2,0:2:0:0:
267,223,52259,2,0,L|190:228,1,55,0|0,0:2|0:2,0:2:0:0:
404,232,52395,6,0,P|434:183|343:127,1,165,10|0,0:2|0:2,0:2:0:0:
183,150,52668,2,0,L|178:86,1,55,2|0,1:2|0:2,0:2:0:0:
360,146,52804,2,0,L|365:82,1,55,10|0,0:2|0:2,0:2:0:0:
180,43,52941,2,0,L|244:38,1,55,2|0,0:2|0:2,0:2:0:0:
416,152,53077,2,0,L|421:88,1,55,10|0,0:2|0:2,0:2:0:0:
239,362,53213,2,0,L|234:298,1,55,2|0,1:2|0:2,0:2:0:0:
316,246,53350,2,0,L|321:182,1,55,2|0,0:2|0:2,0:2:0:0:
101,158,53486,6,0,L|174:155,1,55,14|0,1:2|0:2,0:2:0:0:
376,142,53622,1,0,0:2:0:0:
72,196,53759,2,0,L|145:193,1,55,12|0,1:2|0:2,0:2:0:0:
347,183,53895,2,0,L|352:119,1,55,2|0,0:2|0:2,0:2:0:0:
45,235,54032,2,0,L|118:232,1,55,14|0,1:2|0:2,0:2:0:0:
292,223,54168,2,0,L|221:220,1,55,0|0,1:2|1:2,1:2:0:0:
440,171,54304,2,0,L|367:168,1,55,12|0,1:2|0:2,0:2:0:0:
193,127,54440,2,0,L|264:124,1,55,0|0,1:2|0:2,0:2:0:0:
42,146,54577,6,0,L|37:73,1,55,14|0,0:2|0:2,0:2:0:0:
219,301,54713,2,0,P|286:281|294:193,1,165,2|0,0:2|0:2,0:2:0:0:
480,225,54986,2,0,L|485:152,1,55,10|0,0:2|0:2,0:2:0:0:
302,301,55122,2,0,P|235:281|227:193,1,165,2|0,0:2|0:2,0:2:0:0:
409,108,55395,2,0,L|338:105,1,55,2|0,1:2|0:2,0:2:0:0:
169,96,55532,2,0,L|98:93,1,55,2|0,0:2|0:2,0:2:0:0:
306,227,55668,6,0,P|324:161|232:141,1,165,10|0,0:2|0:2,0:2:0:0:
63,235,55941,2,0,L|55:304,1,55,2|0,1:2|0:2,0:2:0:0:
238,327,56077,2,0,L|246:258,1,55,10|0,0:2|0:2,0:2:0:0:
63,213,56213,2,0,L|59:147,1,55,0|0,0:2|0:2,0:2:0:0:
136,132,56350,2,0,L|132:66,1,55,8|0,0:2|0:2,0:2:0:0:
314,156,56486,2,0,L|318:222,1,55,0|0,1:2|0:2,0:2:0:0:
241,237,56623,2,0,L|245:303,1,55,0|0,0:2|0:2,0:2:0:0:
437,191,56759,6,0,P|455:125|363:105,1,165,10|0,0:2|0:2,0:2:0:0:
195,209,57032,2,0,L|124:206,1,55,2|0,1:2|0:2,0:2:0:0:
321,170,57168,2,0,L|392:167,1,55,10|0,0:2|0:2,0:2:0:0:
195,99,57304,2,0,L|266:96,1,55,2|0,0:2|0:2,0:2:0:0:
434,66,57441,2,0,L|363:63,1,55,10|0,0:2|0:2,0:2:0:0:
198,108,57577,2,0,L|201:179,1,55,2|0,1:2|0:2,0:2:0:0:
19,187,57713,2,0,L|22:258,1,55,2|0,0:2|0:2,0:2:0:0:
216,327,57850,6,0,L|287:322,1,55,10|0,0:2|0:2,0:2:0:0:
341,280,57986,2,0,L|270:275,1,55,0|0,0:2|0:2,0:2:0:0:
105,241,58122,2,0,L|102:170,1,55,2|0,1:2|0:2,0:2:0:0:
287,137,58259,2,0,L|358:134,1,55,10|0,0:2|0:2,0:2:0:0:
272,125,58395,1,0,0:2:0:0:
160,132,58532,2,0,L|228:125,1,55,8|0,0:2|0:2,0:2:0:0:
396,114,58668,2,0,L|373:183,1,55,2|0,1:2|0:2,0:2:0:0:
302,208,58804,2,0,L|231:211,1,55,0|0,0:2|0:2,0:2:0:0:
461,283,58941,6,2,B|431:172|372:58|372:58|321:197|234:252|234:252|477:287,1,726.000022155763,10|6,0:2|1:2,0:2:0:0:
55,295,59622,2,0,L|49:226,1,55,10|0,0:2|0:2,0:2:0:0:
234,169,59759,2,0,L|296:164,1,55,2|0,1:2|0:2,0:2:0:0:
470,156,59895,2,0,L|476:87,1,55,2|0,0:2|0:2,0:2:0:0:
280,49,60032,6,8,L|342:44,1,55,10|8,0:2|0:2,0:2:0:0:
154,132,60168,2,8,L|216:127,1,55,10|8,0:2|0:2,0:2:0:0:
28,225,60304,2,0,L|90:220,1,55,10|0,0:2|0:2,0:2:0:0:
267,207,60441,2,0,L|486:192,1,220,14|8,1:2|0:2,0:2:0:0:
457,162,60782,1,0,0:2:0:0:
276,134,60850,2,0,L|211:135,1,55,2|0,1:2|0:2,0:2:0:0:
290,111,60986,2,0,L|355:112,1,55,0|0,0:2|0:2,0:2:0:0:
153,314,61122,5,2,0:2:0:0:
98,241,61259,1,0,0:2:0:0:
141,170,61395,1,0,0:2:0:0:
274,157,61532,1,2,0:2:0:0:
406,296,61668,1,2,0:2:0:0:
351,219,61805,1,0,0:2:0:0:
219,176,61941,1,2,0:2:0:0:
352,158,62078,1,2,0:2:0:0:
483,23,62213,6,0,L|491:365,1,330,2|0,0:2|0:2,0:2:0:0:
