osu file format v14

[General]
AudioFilename: audio.mp3
AudioLeadIn: 0
PreviewTime: 12694
Countdown: 0
SampleSet: Soft
StackLeniency: 0.8
Mode: 0
LetterboxInBreaks: 0
WidescreenStoryboard: 0

[Editor]
Bookmarks: 74811,125635,201870,241399,258341,280929
DistanceSpacing: 1.2
BeatDivisor: 4
GridSize: 32
TimelineZoom: 2

[Metadata]
Title:Nachtflug
TitleUnicode:Nachtflug
Artist:binaria
ArtistUnicode:binaria
Creator:Esutarosa
Version:floating
Source:
Tags:Pepekcz l1ght_u light_u -Hitomi yanaginagi Annabel yoshihisa nagao KTG xai pop jpop j-pop japanese female vocals
BeatmapID:3648320
BeatmapSetID:1781523

[Difficulty]
HPDrainRate:5
CircleSize:4
OverallDifficulty:8
ApproachRate:9
SliderMultiplier:1.74
SliderTickRate:1

[Events]
//Background and Video events
0,0,"95883544_p0.jpg",0,0
//Break Periods
2,69364,73329
2,173835,184329
2,199247,200388
2,252894,256682
//Storyboard Layer 0 (Background)
//Storyboard Layer 1 (Fail)
//Storyboard Layer 2 (Pass)
//Storyboard Layer 3 (Foreground)
//Storyboard Layer 4 (Overlay)
//Storyboard Sound Samples

[TimingPoints]
1400,352.941176470588,4,2,1,42,1,0
1400,-185.185185185185,4,2,1,42,0,0
12694,-185.185185185185,4,2,3,35,0,0
13047,-156.25,4,2,3,35,0,0
13399,-294.117647058823,4,2,3,35,0,0
13751,-294.117647058823,4,2,3,42,0,0
14105,-185.185185185185,4,2,3,35,0,0
14281,-185.185185185185,4,2,3,42,0,0
14458,-156.25,4,2,3,35,0,0
14810,-294.117647058823,4,2,3,35,0,0
15162,-294.117647058823,4,2,3,42,0,0
15517,-185.185185185185,4,2,3,35,0,0
15693,-185.185185185185,4,2,3,42,0,0
15870,-156.25,4,2,3,35,0,0
16222,-294.117647058823,4,2,3,35,0,0
16574,-294.117647058823,4,2,3,42,0,0
16929,-185.185185185185,4,2,3,35,0,0
17282,-156.25,4,2,3,35,0,0
17634,-294.117647058823,4,2,3,35,0,0
17987,-294.117647058823,4,2,3,42,0,0
18341,-185.185185185185,4,2,3,35,0,0
18694,-156.25,4,2,3,35,0,0
19046,-294.117647058823,4,2,3,35,0,0
19399,-294.117647058823,4,2,3,42,0,0
19752,-185.185185185185,4,2,3,35,0,0
19928,-185.185185185185,4,2,3,42,0,0
20105,-156.25,4,2,3,35,0,0
20457,-294.117647058823,4,2,3,35,0,0
20810,-294.117647058823,4,2,3,42,0,0
21164,-185.185185185185,4,2,3,35,0,0
21340,-185.185185185185,4,2,3,42,0,0
21517,-156.25,4,2,3,35,0,0
21869,-294.117647058823,4,2,3,35,0,0
22222,-294.117647058823,4,2,3,42,0,0
22576,-185.185185185185,4,2,3,35,0,0
22929,-156.25,4,2,3,35,0,0
23281,-294.117647058823,4,2,3,35,0,0
23988,-227.272727272727,4,2,2,40,0,0
25311,-227.272727272727,4,2,2,5,0,0
25399,-227.272727272727,4,2,2,40,0,0
26723,-227.272727272727,4,2,2,5,0,0
26811,-227.272727272727,4,2,2,40,0,0
29635,-227.272727272727,4,2,2,40,0,0
30958,-227.272727272727,4,2,2,5,0,0
31047,-227.272727272727,4,2,2,40,0,0
32370,-227.272727272727,4,2,2,5,0,0
32458,-227.272727272727,4,2,2,40,0,0
35282,-185.185185185185,4,2,2,40,0,0
36605,-185.185185185185,4,2,2,5,0,0
36694,-185.185185185185,4,2,2,40,0,0
38017,-185.185185185185,4,2,2,5,0,0
38105,-185.185185185185,4,2,2,40,0,0
40929,-227.272727272727,4,2,2,40,0,0
42252,-227.272727272727,4,2,2,5,0,0
42341,-227.272727272727,4,2,2,40,0,0
43664,-227.272727272727,4,2,2,5,0,0
43752,-227.272727272727,4,2,2,40,0,0
45870,-185.185185185185,4,2,2,40,0,0
46576,-135.135135135135,4,2,2,50,0,0
47547,-135.135135135135,4,2,2,5,0,0
47635,-135.135135135135,4,2,2,50,0,0
51341,-135.135135135135,4,2,2,58,0,0
51517,-135.135135135135,4,2,2,50,0,0
54517,-135.135135135135,4,2,2,58,0,0
54694,-135.135135135135,4,2,2,50,0,0
56723,-135.135135135135,4,2,2,5,0,0
56811,-135.135135135135,4,2,2,50,0,0
57517,-185.185185185185,4,2,2,50,0,0
57782,-185.185185185185,4,2,2,5,0,0
57870,-119.047619047619,4,2,2,55,0,0
58752,-119.047619047619,4,2,2,62,0,0
58929,-119.047619047619,4,2,2,55,0,0
60252,-156.25,4,2,2,42,0,0
60429,-156.25,4,2,2,22,0,0
60517,-156.25,4,2,2,55,0,0
60694,-119.047619047619,4,2,2,55,0,0
61575,-119.047619047619,4,2,2,62,0,0
61752,-119.047619047619,4,2,2,55,0,0
63340,-119.047619047619,4,2,2,62,0,0
63517,-135.135135135135,4,2,2,55,0,0
64399,-135.135135135135,4,2,2,62,0,0
64576,-135.135135135135,4,2,2,55,0,0
64752,-135.135135135135,4,2,2,62,0,0
64929,-135.135135135135,4,2,2,55,0,0
68634,-135.135135135135,4,2,2,62,0,0
68811,-135.135135135135,4,2,2,55,0,0
69076,-135.135135135135,4,2,2,5,0,0
69164,-135.135135135135,4,2,2,55,0,0
73929,-135.135135135135,4,2,4,60,0,0
74105,-119.047619047619,4,2,4,60,0,0
74370,-119.047619047619,4,2,4,5,0,0
74458,-119.047619047619,4,2,4,60,0,0
74811,-87.719298245614,4,2,4,70,0,0
75693,-87.719298245614,4,2,4,68,0,0
75870,-87.719298245614,4,2,4,70,0,0
77281,-87.719298245614,4,2,4,68,0,0
77458,-87.719298245614,4,2,4,70,0,0
77899,-87.719298245614,4,2,4,5,0,0
77988,-87.719298245614,4,2,4,70,0,0
80017,-87.719298245614,4,2,4,5,0,0
80105,-87.719298245614,4,2,4,70,0,0
80723,-87.719298245614,4,2,4,5,0,0
80811,-87.719298245614,4,2,4,70,0,0
81076,-87.719298245614,4,2,4,5,0,0
81164,-87.719298245614,4,2,4,70,0,0
81429,-87.719298245614,4,2,4,5,0,0
81517,-87.719298245614,4,2,4,70,0,0
84782,-87.719298245614,4,2,4,5,0,0
84870,-87.719298245614,4,2,4,70,0,0
85223,-87.719298245614,4,2,4,68,0,0
85399,-87.719298245614,4,2,4,70,0,0
85664,-87.719298245614,4,2,4,5,0,0
85752,-87.719298245614,4,2,4,70,0,0
86017,-87.719298245614,4,2,4,5,0,0
86105,-80.6451612903226,4,2,4,70,0,1
86458,-80.6451612903226,4,2,4,70,0,0
86811,-87.719298245614,4,2,4,70,0,0
86987,-87.719298245614,4,2,4,68,0,0
87164,-87.719298245614,4,2,4,70,0,0
87693,-87.719298245614,4,2,4,68,0,0
87870,-87.719298245614,4,2,4,70,0,0
88575,-87.719298245614,4,2,4,68,0,0
88752,-87.719298245614,4,2,4,70,0,0
89194,-87.719298245614,4,2,4,5,0,0
89282,-87.719298245614,4,2,4,70,0,0
91311,-87.719298245614,4,2,4,5,0,0
91399,-87.719298245614,4,2,4,70,0,0
92017,-87.719298245614,4,2,4,5,0,0
92105,-87.719298245614,4,2,4,70,0,0
92370,-87.719298245614,4,2,4,5,0,0
92458,-87.719298245614,4,2,4,70,0,0
92722,-87.719298245614,4,2,4,68,0,0
92811,-87.719298245614,4,2,4,70,0,0
93693,-87.719298245614,4,2,4,68,0,0
93870,-87.719298245614,4,2,4,70,0,0
95458,-87.719298245614,4,2,4,68,0,0
95811,-87.719298245614,4,2,4,70,0,0
96341,-87.719298245614,4,2,4,68,0,0
96517,-87.719298245614,4,2,4,70,0,0
96870,-87.719298245614,4,2,4,68,0,0
97047,-87.719298245614,4,2,4,70,0,0
97399,-96.1538461538461,4,2,4,70,0,0
97664,-96.1538461538461,4,2,4,65,0,0
97929,-96.1538461538461,4,2,4,70,0,0
98369,-96.1538461538461,4,2,4,65,0,0
98458,-96.1538461538461,4,2,4,70,0,0
99958,-96.1538461538461,4,2,4,65,0,0
100135,-96.1538461538461,4,2,4,5,0,0
100223,-96.1538461538461,4,2,4,70,0,0
102252,-96.1538461538461,4,2,4,65,0,0
102341,-96.1538461538461,4,2,4,70,0,0
103047,-80.6451612903226,4,2,4,60,0,1
103399,-80.6451612903226,4,2,4,60,0,0
103752,-96.153846153846,4,2,4,60,0,0
104016,-96.153846153846,4,2,4,62,0,0
104105,-96.153846153846,4,2,4,60,0,0
104722,-96.153846153846,4,2,4,62,0,0
104811,-96.153846153846,4,2,4,60,0,0
105075,-96.153846153846,4,2,4,62,0,0
105164,-96.153846153846,4,2,4,60,0,0
106840,-96.153846153846,4,2,4,62,0,0
106929,-96.153846153846,4,2,4,60,0,0
108252,-96.153846153846,4,2,4,62,0,0
108341,-96.153846153846,4,2,4,60,0,0
108958,-96.153846153846,4,2,4,62,0,0
109047,-96.153846153846,4,2,4,60,0,0
109311,-96.153846153846,4,2,4,62,0,0
109399,-96.153846153846,4,2,4,60,0,0
111075,-96.153846153846,4,2,4,62,0,0
111164,-96.153846153846,4,2,4,60,0,0
113546,-96.153846153846,4,2,4,62,0,0
113635,-96.153846153846,4,2,4,60,0,0
114252,-96.153846153846,4,2,4,62,0,0
114341,-87.719298245614,4,2,4,60,0,1
114694,-87.719298245614,4,2,4,60,0,0
115047,-96.1538461538461,4,2,4,60,0,0
115311,-96.1538461538461,4,2,4,5,0,0
115399,-96.1538461538461,4,2,4,60,0,0
116016,-96.1538461538461,4,2,4,62,0,0
116105,-96.1538461538461,4,2,4,60,0,0
116369,-96.1538461538461,4,2,4,62,0,0
116458,-96.1538461538461,4,2,4,60,0,0
118134,-96.1538461538461,4,2,4,62,0,0
118223,-96.1538461538461,4,2,4,60,0,0
119193,-96.1538461538461,4,2,4,62,0,0
119282,-96.1538461538461,4,2,4,60,0,0
119899,-96.1538461538461,4,2,4,62,0,0
119988,-96.1538461538461,4,2,4,60,0,0
120252,-96.1538461538461,4,2,4,62,0,0
120341,-96.1538461538461,4,2,4,60,0,0
120605,-96.1538461538461,4,2,4,62,0,0
120694,-96.1538461538461,4,2,4,60,0,0
120958,-96.1538461538461,4,2,4,62,0,0
121047,-96.1538461538461,4,2,4,60,0,0
121663,-96.1538461538461,4,2,4,62,0,0
121752,-96.1538461538461,4,2,4,60,0,0
122016,-96.1538461538461,4,2,4,62,0,0
122105,-96.1538461538461,4,2,4,60,0,0
123781,-96.1538461538461,4,2,4,62,0,0
123870,-96.1538461538461,4,2,4,60,0,0
125458,-96.1538461538461,4,2,4,62,0,0
125635,-156.25,4,2,5,45,0,0
128370,-156.25,4,2,5,5,0,0
128458,-156.25,4,2,5,45,0,0
132605,-156.25,4,2,5,5,0,0
132694,-156.25,4,2,5,45,0,0
136576,-227.272727272727,4,2,5,45,0,0
136840,-227.272727272727,4,2,5,52,0,0
136929,-156.25,4,2,5,45,0,0
140282,-156.25,4,2,5,52,0,0
140458,-156.25,4,2,5,45,0,0
143547,-156.25,4,2,5,5,0,0
143635,-156.25,4,2,5,45,0,0
147164,-156.25,4,2,5,48,0,0
147517,-156.25,4,2,81,50,0,0
147694,-135.135135135135,4,2,81,50,0,0
148046,-135.135135135135,4,2,5,55,0,0
148223,-96.153846153846,4,2,6,65,0,0
149281,-96.153846153846,4,2,6,52,0,0
149458,-96.153846153846,4,2,6,65,0,0
150252,-96.153846153846,4,2,6,5,0,0
150341,-96.153846153846,4,2,6,65,0,0
151223,-96.153846153846,4,2,6,52,0,0
151399,-96.153846153846,4,2,6,65,0,0
153517,-135.135135135135,4,2,6,65,0,0
153782,-135.135135135135,4,2,6,5,0,0
153870,-96.153846153846,4,2,6,65,0,0
154134,-96.153846153846,4,2,6,52,0,0
154223,-96.153846153846,4,2,6,65,0,0
155899,-96.153846153846,4,2,6,5,0,0
155988,-96.153846153846,4,2,6,65,0,0
158458,-119.047619047619,4,2,6,65,0,0
158723,-119.047619047619,4,2,6,5,0,0
158811,-96.153846153846,4,2,6,65,0,0
159076,-96.153846153846,4,2,6,5,0,0
159164,-96.153846153846,4,2,6,65,0,0
159429,-96.153846153846,4,2,6,5,0,0
159517,-96.153846153846,4,2,6,65,0,0
161282,-156.25,4,2,6,65,0,0
161546,-156.25,4,2,6,52,0,0
161635,-96.153846153846,4,2,6,65,0,0
164369,-96.153846153846,4,2,6,5,0,0
164458,-96.153846153846,4,2,6,65,0,0
164722,-96.153846153846,4,2,6,5,0,0
164811,-96.153846153846,4,2,6,65,0,0
165075,-96.153846153846,4,2,6,5,0,0
165164,-96.153846153846,4,2,6,65,0,0
167546,-96.153846153846,4,2,6,52,0,0
167635,-96.153846153846,4,2,6,65,0,0
167987,-96.153846153846,4,2,6,55,0,0
170105,-96.153846153846,4,2,6,45,0,0
170811,-96.153846153846,4,2,6,40,0,0
173635,-96.153846153846,4,2,6,45,0,0
184929,-119.047619047619,4,2,5,40,0,0
185193,-119.047619047619,4,2,5,5,0,0
185282,-119.047619047619,4,2,5,40,0,0
188899,-119.047619047619,4,2,5,5,0,0
188988,-119.047619047619,4,2,5,40,0,0
194722,-119.047619047619,4,2,5,5,0,0
194811,-119.047619047619,4,2,5,40,0,0
200988,-135.135135135135,4,2,4,60,0,0
201164,-119.047619047619,4,2,4,60,0,0
201428,-119.047619047619,4,2,4,5,0,0
201517,-119.047619047619,4,2,4,60,0,0
201870,-87.719298245614,4,2,4,70,0,0
202752,-87.719298245614,4,2,4,68,0,0
202929,-87.719298245614,4,2,4,70,0,0
204340,-87.719298245614,4,2,4,68,0,0
204517,-87.719298245614,4,2,4,70,0,0
204958,-87.719298245614,4,2,4,5,0,0
205047,-87.719298245614,4,2,4,70,0,0
207075,-87.719298245614,4,2,4,5,0,0
207164,-87.719298245614,4,2,4,70,0,0
207781,-87.719298245614,4,2,4,5,0,0
207870,-87.719298245614,4,2,4,70,0,0
208134,-87.719298245614,4,2,4,5,0,0
208223,-87.719298245614,4,2,4,70,0,0
208487,-87.719298245614,4,2,4,5,0,0
208576,-87.719298245614,4,2,4,70,0,0
211840,-87.719298245614,4,2,4,5,0,0
211929,-87.719298245614,4,2,4,70,0,0
212281,-87.719298245614,4,2,4,68,0,0
212458,-87.719298245614,4,2,4,70,0,0
212722,-87.719298245614,4,2,4,5,0,0
212811,-87.719298245614,4,2,4,70,0,0
213076,-87.719298245614,4,2,4,5,0,0
213164,-80.6451612903226,4,2,4,70,0,1
213517,-80.6451612903226,4,2,4,70,0,0
213870,-87.719298245614,4,2,4,70,0,0
214046,-87.719298245614,4,2,4,68,0,0
214223,-87.719298245614,4,2,4,70,0,0
214751,-87.719298245614,4,2,4,68,0,0
214929,-87.719298245614,4,2,4,70,0,0
215634,-87.719298245614,4,2,4,68,0,0
215811,-87.719298245614,4,2,4,70,0,0
216252,-87.719298245614,4,2,4,5,0,0
216341,-87.719298245614,4,2,4,70,0,0
218370,-87.719298245614,4,2,4,5,0,0
218458,-87.719298245614,4,2,4,70,0,0
219076,-87.719298245614,4,2,4,5,0,0
219164,-87.719298245614,4,2,4,70,0,0
219429,-87.719298245614,4,2,4,5,0,0
219517,-87.719298245614,4,2,4,70,0,0
219782,-87.719298245614,4,2,4,5,0,0
219870,-87.719298245614,4,2,4,70,0,0
220752,-87.719298245614,4,2,4,68,0,0
220929,-87.719298245614,4,2,4,70,0,0
222517,-87.719298245614,4,2,4,68,0,0
222870,-87.719298245614,4,2,4,70,0,0
223399,-87.719298245614,4,2,4,68,0,0
223575,-87.719298245614,4,2,4,70,0,0
223928,-87.719298245614,4,2,4,68,0,0
224105,-87.719298245614,4,2,4,70,0,0
224458,-96.1538461538461,4,2,4,70,0,0
224723,-96.1538461538461,4,2,4,65,0,0
224988,-96.1538461538461,4,2,4,70,0,0
225429,-87.719298245614,4,2,4,5,0,0
225517,-96.1538461538461,4,2,4,70,0,0
227017,-96.1538461538461,4,2,4,65,0,0
227194,-96.1538461538461,4,2,4,5,0,0
227282,-96.1538461538461,4,2,4,70,0,0
229311,-87.719298245614,4,2,4,5,0,0
229399,-96.1538461538461,4,2,4,70,0,0
230105,-80.6451612903226,4,2,4,60,0,1
230458,-80.6451612903226,4,2,4,60,0,0
230811,-96.153846153846,4,2,4,60,0,0
231075,-96.153846153846,4,2,4,5,0,0
231164,-96.153846153846,4,2,4,60,0,0
231781,-96.153846153846,4,2,4,5,0,0
231870,-96.153846153846,4,2,4,60,0,0
232134,-96.153846153846,4,2,4,5,0,0
232223,-96.153846153846,4,2,4,60,0,0
233899,-96.153846153846,4,2,4,5,0,0
233988,-96.153846153846,4,2,4,60,0,0
235311,-96.153846153846,4,2,4,5,0,0
235399,-96.153846153846,4,2,4,60,0,0
236017,-96.153846153846,4,2,4,5,0,0
236105,-96.153846153846,4,2,4,60,0,0
236370,-96.153846153846,4,2,4,5,0,0
236458,-96.153846153846,4,2,4,60,0,0
238135,-96.153846153846,4,2,4,5,0,0
238223,-96.153846153846,4,2,4,60,0,0
240605,-96.153846153846,4,2,4,5,0,0
240694,-96.153846153846,4,2,4,60,0,0
241311,-96.153846153846,4,2,4,5,0,0
241399,-87.719298245614,4,2,4,60,0,1
241664,-96.153846153846,4,2,4,5,0,0
241752,-87.719298245614,4,2,4,60,0,0
242105,-96.1538461538461,4,2,4,60,0,0
242723,-96.1538461538461,4,2,4,62,0,0
242811,-96.1538461538461,4,2,4,60,0,0
243429,-96.1538461538461,4,2,4,62,0,0
243517,-96.1538461538461,4,2,4,60,0,0
245194,-96.153846153846,4,2,4,5,0,0
245282,-96.1538461538461,4,2,4,60,0,0
246252,-96.153846153846,4,2,4,5,0,0
246341,-96.1538461538461,4,2,4,60,0,0
246958,-96.153846153846,4,2,4,5,0,0
247047,-96.1538461538461,4,2,4,60,0,0
247752,-135.135135135135,4,2,4,60,0,0
248017,-96.153846153846,4,2,4,5,0,0
248105,-135.135135135135,4,2,4,60,0,0
248458,-96.1538461538461,4,2,4,60,0,0
249076,-96.1538461538461,4,2,4,62,0,0
249164,-96.1538461538461,4,2,4,60,0,0
251899,-96.153846153846,4,2,4,5,0,0
251988,-96.1538461538461,4,2,4,60,0,0
252252,-96.1538461538461,4,2,4,5,0,0
252341,-96.1538461538461,4,2,4,60,0,0
252605,-96.1538461538461,4,2,4,5,0,0
252694,-135.135135135135,4,2,4,52,0,0
257282,-135.135135135135,4,2,4,60,0,0
258341,-80.6451612903226,4,2,4,60,0,1
258694,-80.6451612903226,4,2,4,60,0,0
259046,-96.153846153846,4,2,4,60,0,0
259311,-96.153846153846,4,2,4,5,0,0
259399,-96.153846153846,4,2,4,60,0,0
260017,-96.153846153846,4,2,4,5,0,0
260105,-96.153846153846,4,2,4,60,0,0
260370,-96.153846153846,4,2,4,5,0,0
260458,-96.153846153846,4,2,4,60,0,0
261341,-96.153846153846,4,2,4,62,0,0
261517,-96.153846153846,4,2,4,60,0,0
261694,-96.153846153846,4,2,4,62,0,0
261870,-96.153846153846,4,2,4,60,0,0
262135,-96.153846153846,4,2,4,5,0,0
262223,-96.153846153846,4,2,4,60,0,0
263547,-96.153846153846,4,2,4,5,0,0
263635,-96.153846153846,4,2,4,60,0,0
264252,-96.153846153846,4,2,4,5,0,0
264341,-96.153846153846,4,2,4,60,0,0
264605,-96.153846153846,4,2,4,5,0,0
264694,-96.153846153846,4,2,4,60,0,0
265576,-96.153846153846,4,2,4,62,0,0
265752,-96.153846153846,4,2,4,60,0,0
266370,-96.153846153846,4,2,4,5,0,0
266458,-96.153846153846,4,2,4,60,0,0
266634,-96.153846153846,4,2,4,62,0,0
266811,-96.153846153846,4,2,4,60,0,0
267340,-96.153846153846,4,2,4,62,0,0
267517,-96.153846153846,4,2,4,60,0,0
268841,-96.153846153846,4,2,4,5,0,0
268929,-96.153846153846,4,2,4,60,0,0
269547,-96.153846153846,4,2,4,5,0,0
269635,-87.719298245614,4,2,4,60,0,1
269811,-87.719298245614,4,2,4,68,0,1
269988,-87.719298245614,4,2,4,60,0,0
270164,-87.719298245614,4,2,4,68,0,0
270341,-96.1538461538461,4,2,4,60,0,0
270605,-96.153846153846,4,2,4,5,0,0
270694,-96.1538461538461,4,2,4,60,0,0
271311,-96.1538461538461,4,2,4,5,0,0
271399,-96.1538461538461,4,2,4,60,0,0
271664,-96.1538461538461,4,2,4,5,0,0
271752,-96.1538461538461,4,2,4,60,0,0
272635,-96.1538461538461,4,2,4,62,0,0
272811,-96.1538461538461,4,2,4,60,0,0
272988,-96.1538461538461,4,2,4,62,0,0
273164,-96.1538461538461,4,2,4,60,0,0
273429,-96.1538461538461,4,2,4,5,0,0
273517,-96.1538461538461,4,2,4,60,0,0
274488,-96.1538461538461,4,2,4,5,0,0
274576,-96.1538461538461,4,2,4,60,0,0
275194,-96.1538461538461,4,2,4,5,0,0
275282,-96.1538461538461,4,2,4,60,0,0
275547,-96.1538461538461,4,2,4,5,0,0
275635,-96.1538461538461,4,2,4,60,0,0
275899,-96.1538461538461,4,2,4,5,0,0
275988,-96.1538461538461,4,2,4,60,0,0
276252,-96.1538461538461,4,2,4,5,0,0
276341,-96.1538461538461,4,2,4,60,0,0
276958,-96.1538461538461,4,2,4,5,0,0
277047,-96.1538461538461,4,2,4,60,0,0
277311,-96.1538461538461,4,2,4,5,0,0
277399,-96.1538461538461,4,2,4,60,0,0
278635,-96.1538461538461,4,2,4,62,0,0
278811,-96.1538461538461,4,2,4,60,0,0
279076,-96.1538461538461,4,2,4,5,0,0
279164,-96.1538461538461,4,2,4,60,0,0
280929,-135.135135135135,4,2,5,35,0,0
281635,-135.135135135135,4,2,5,52,0,0
282341,-135.135135135135,4,2,5,35,0,0
283047,-135.135135135135,4,2,5,52,0,0
283752,-135.135135135135,4,2,5,35,0,0
284458,-135.135135135135,4,2,5,52,0,0
285164,-135.135135135135,4,2,5,35,0,0
285870,-135.135135135135,4,2,5,52,0,0
286576,-135.135135135135,4,2,5,35,0,0
287282,-135.135135135135,4,2,5,52,0,0
287988,-135.135135135135,4,2,5,35,0,0
288694,-135.135135135135,4,2,5,52,0,0
289399,-135.135135135135,4,2,5,35,0,0
290105,-135.135135135135,4,2,5,52,0,0
290811,-135.135135135135,4,2,5,35,0,0

[Colours]
Combo1 : 255,196,136
Combo2 : 255,149,149
Combo3 : 149,149,255

[HitObjects]
54,164,12694,6,0,B|65:184|65:184|60:160,1,46.9800011469727,2|0,1:1|1:2,0:0:0:0:
168,119,13047,6,0,B|191:133|191:133|172:110,1,55.68,2|0,1:2|1:2,0:0:0:0:
274,49,13399,6,0,B|302:49|302:49|274:39,1,59.160000361084,2|0,0:2|0:0,0:0:0:0:
54,164,14105,6,0,B|57:186|57:186|61:162,1,46.9800011469727,2|0,1:1|1:2,0:0:0:0:
177,163,14458,6,0,B|193:184|193:184|183:156,1,55.68,2|0,1:2|1:2,0:0:0:0:
301,135,14810,6,0,B|327:145|327:145|304:125,1,59.160000361084,2|0,0:0|0:0,0:0:0:0:
476,350,15517,6,0,B|481:327|481:327|468:348,1,46.9800011469727,2|0,1:1|1:2,0:0:0:0:
361,308,15870,6,0,B|353:282|353:282|352:312,1,55.68,2|0,1:2|1:2,0:0:0:0:
236,289,16222,6,0,B|215:270|215:270|229:296,1,59.160000361084,2|0,0:0|0:0,0:0:0:0:
476,350,16929,6,0,B|488:331|488:331|469:346,1,46.9800011469727,2|0,1:0|1:2,0:0:0:0:
384,269,17282,6,0,B|386:242|386:242|374:269,1,55.68,2|0,1:2|1:2,0:0:0:0:
274,207,17635,6,0,B|261:182|261:182|265:211,1,59.160000361084,2|0,0:0|0:0,0:0:0:0:
20,349,18341,6,0,B|26:330|26:330|32:334|32:334|25:354,1,46.9800011469727,2|0,1:0|1:2,0:0:0:0:
114,274,18694,6,0,B|136:270|136:270|136:277|136:277|111:282,1,55.68,2|0,1:2|1:2,0:0:0:0:
232,314,19047,6,0,B|247:332|247:332|240:336|240:336|222:316,1,59.160000361084,2|0,0:0|0:0,0:0:0:0:
13,345,19752,6,0,B|12:325|12:325|18:326|18:326|19:348,1,46.9800011469727,2|0,1:1|1:2,0:0:0:0:
73,241,20105,6,0,B|92:229|92:229|95:236|95:236|73:249,1,55.68,2|0,1:2|1:2,0:0:0:0:
198,236,20458,6,0,B|219:247|219:247|214:254|214:254|190:241,1,59.160000361084,2|0,0:0|0:0,0:0:0:0:
470,256,21164,6,0,B|468:237|468:237|462:239|462:239|464:260,1,46.9800011469727,2|0,1:1|1:2,0:0:0:0:
396,160,21517,6,0,B|376:151|376:151|374:158|374:158|397:169,1,55.68,2|0,1:2|1:2,0:0:0:0:
272,170,21870,6,0,B|252:185|252:185|258:190|258:190|281:175,1,59.160000361084,2|0,0:0|0:0,0:0:0:0:
478,253,22576,6,0,B|483:234|483:234|476:234|476:234|470:254,1,46.9800011469727,2|0,1:0|1:2,0:0:0:0:
444,138,22929,6,0,B|428:122|428:122|424:128|424:128|441:146,1,55.68,2|0,1:2|1:2,0:0:0:0:
325,103,23282,6,0,B|301:110|301:110|304:117|304:117|331:111,1,59.160000361084,2|0,0:3|3:0,0:0:0:0:
165,345,23988,6,0,B|141:306|182:267|177:286|222:248|195:207,1,153.120004672852,4|8,1:2|0:0,0:0:0:0:
73,79,25047,2,0,B|98:87|98:87|102:91|102:91|126:99,1,57.4200017523194,2|0,0:0|0:0,0:0:0:0:
22,165,25399,6,0,P|80:118|156:114,1,153.120004672852,2|8,1:2|0:0,0:0:0:0:
304,33,26458,2,0,B|311:20|329:18|329:18|312:30|303:52,1,57.4200017523194,2|0,0:0|0:0,0:0:0:0:
273,101,26811,6,0,P|294:131|330:144,1,76.5600023364259,2|0,1:2|1:0,0:0:0:0:
425,230,27517,2,0,P|461:218|484:189,1,76.5600023364259,8|2,0:0|0:0,0:0:0:0:
319,362,28223,2,0,L|288:211,1,153.120004672852,2|8,1:2|0:0,0:0:0:0:
501,12,29635,6,0,P|459:73|386:85,1,153.120004672852,2|8,1:0|0:0,0:0:0:0:
259,204,30694,2,0,B|235:212|235:212|231:216|231:216|206:224,1,57.4200017523194,2|0,0:0|0:0,0:0:0:0:
321,298,31047,6,0,P|279:236|206:224,1,153.120004672852,2|8,1:2|0:0,0:0:0:0:
94,161,32105,2,0,P|70:176|41:181,1,57.4200017523194,2|0,0:0|0:0,0:0:0:0:
18,185,32458,6,0,P|54:195|76:225,1,76.5600023364259,2|0,1:2|1:0,0:0:0:0:
183,297,33164,2,0,P|184:334|162:365,1,76.5600023364259,8|2,0:0|0:0,0:0:0:0:
18,185,33870,2,0,P|92:169|165:145,1,153.120004672852,2|8,1:2|0:0,0:0:0:0:
464,375,35282,6,0,P|384:331|375:241,1,187.920004587891,2|8,1:0|0:0,0:0:0:0:
298,134,36341,2,0,B|302:114|302:114|312:86|312:86|315:65,1,70.470001720459,2|0,0:0|0:0,0:0:0:0:
262,217,36694,6,0,P|328:155|315:66,1,187.920004587891,2|8,1:0|0:0,0:0:0:0:
512,0,37752,6,0,P|481:15|469:47,1,70.470001720459,2|0,0:0|0:0,0:0:0:0:
485,90,38105,6,0,P|476:43|460:0,1,93.9600022939454,2|0,1:2|1:0,0:0:0:0:
273,224,38811,2,0,P|281:177|297:133,1,93.9600022939454,8|2,0:0|0:0,0:0:0:0:
491,358,39517,2,0,P|408:314|316:320,1,187.920004587891,2|8,1:2|0:0,0:0:0:0:
99,32,40929,6,0,B|77:75|126:107|119:88|165:122|146:164,1,153.120004672852,2|8,1:0|0:0,0:0:0:0:
39,302,41988,2,0,B|65:287|65:287|89:299,1,57.4200017523194,2|0,0:0|0:0,0:0:0:0:
0,209,42341,6,0,P|54:260|129:270,1,153.120004672852,2|8,1:0|0:0,0:0:0:0:
265,364,43399,2,0,P|288:348|317:344,1,57.4200017523194,2|0,0:0|0:0,0:0:0:0:
339,355,43752,6,0,P|308:332|295:297,1,76.5600023364259,2|0,1:2|1:0,0:0:0:0:
196,182,44458,2,0,P|207:146|237:122,1,76.5600023364259,8|2,0:0|0:0,0:0:0:0:
343,0,45164,2,0,P|397:8|424:56,1,114.840003504639,2|0,1:2|1:0,0:0:0:0:
434,64,45782,5,0,3:0:0:0:
388,122,45870,2,0,P|397:143|402:166,1,46.9800011469727,8|0,3:2|3:0,0:0:0:0:
478,264,46223,6,0,L|473:287,2,23.4900005734863,0|0|0,3:0|3:0|3:0,0:0:0:0:
334,368,46576,6,0,B|296:357|289:313|289:313|300:343|338:358,1,128.760003143555,6|0,1:2|1:0,0:0:0:0:
358,283,47105,1,0,1:0:0:0:
219,280,47282,2,0,P|252:245|298:237,1,96.5700023576661,0|0,3:0|0:0,0:0:0:0:
358,283,47635,6,0,P|408:317|462:287,1,128.760003143555,2|2,3:2|1:2,0:0:0:0:
346,177,48164,1,0,1:0:0:0:
394,120,48341,2,0,P|419:139|427:169,1,64.3800015717774,2|0,1:2|1:0,0:0:0:0:
297,242,48694,2,0,P|304:178|319:115,1,128.760003143555,0|2,3:0|3:2,0:0:0:0:
285,51,49223,1,2,0:0:0:0:
176,154,49399,6,0,B|135:170|135:170|110:200|110:200|67:216,1,128.760003143555,2|2,1:2|1:2,0:0:0:0:
183,295,49929,1,2,1:2:0:0:
87,384,50105,6,0,P|96:353|102:321,1,64.3800015717774,0|2,3:2|0:0,0:0:0:0:
191,216,50458,2,0,P|181:185|175:153,1,64.3800015717774,2|0,1:2|1:0,0:0:0:0:
88,36,50811,1,0,3:0:0:0:
43,98,50988,2,0,P|29:105|14:110,2,32.1900007858887,0|0|2,1:0|1:0|1:2,0:0:0:0:
88,36,51341,5,0,0:0:0:0:
148,86,51517,2,0,B|192:97|192:97|220:123|220:123|263:134,1,128.760003143555,0|2,3:0|3:2,0:0:0:0:
374,58,52047,1,0,1:0:0:0:
438,23,52223,6,0,B|410:35|410:35|408:38|408:38|380:49,1,64.3800015717774,0|0,1:0|1:0,0:0:0:0:
263,134,52576,1,2,1:2:0:0:
196,101,52752,1,2,1:2:0:0:
320,203,52929,6,0,P|335:262|295:310,1,128.760003143555,2|2,3:2|1:2,0:0:0:0:
295,310,53635,1,2,1:2:0:0:
413,384,53811,6,0,P|402:353|384:326,1,64.3800015717774,0|2,1:0|1:2,0:0:0:0:
295,310,54164,1,0,1:0:0:0:
392,188,54341,2,0,P|360:189|330:199,1,64.3800015717774,2|0,3:2|0:0,0:0:0:0:
291,306,54694,1,0,3:0:0:0:
192,353,54870,1,0,1:0:0:0:
143,295,55047,6,0,P|171:308|189:335,1,64.3800015717774,2|0,1:2|1:0,0:0:0:0:
308,131,55399,6,0,P|310:162|296:191,1,64.3800015717774,0|0,1:0|1:0,0:0:0:0:
119,36,55752,6,0,P|164:80|182:141,1,128.760003143555,0|2,3:0|3:2,0:0:0:0:
225,205,56282,1,0,1:0:0:0:
130,316,56458,6,0,B|117:296|87:296|87:296|108:301|124:324,1,96.5700023576661,2|0,3:2|0:0,0:0:0:0:
185,366,56811,2,0,B|191:367|197:374|197:374|236:360|251:294|190:276,1,128.760003143555,2|2,3:2|3:2,0:0:0:0:
206,283,57517,6,0,B|241:288|241:288|244:291|244:291|274:295,1,70.470001720459,2|0,3:2|0:0,0:0:0:0:
421,366,57870,6,0,P|472:319|455:251,1,146.159995539551,2|2,1:2|1:2,0:0:0:0:
360,120,58399,1,0,1:0:0:0:
409,63,58576,2,0,P|435:87|441:122,1,73.0799977697755,0|0,3:0|0:0,0:0:0:0:
343,235,58929,2,0,P|272:253|205:282,1,146.159995539551,0|2,3:2|1:2,0:0:0:0:
205,282,59635,6,0,P|229:256|226:220,1,73.0799977697755,2|2,1:2|1:2,0:0:0:0:
316,350,59988,1,0,3:0:0:0:
316,350,60252,6,0,P|303:325|303:297,1,55.68
343,235,60517,1,0,3:0:0:0:
174,141,60694,6,0,B|210:160|256:134|256:134|218:156|225:211,1,146.159995539551,2|2,1:2|1:2,0:0:0:0:
381,305,61223,1,0,1:0:0:0:
440,257,61399,2,0,P|450:222|438:188,1,73.0799977697755,2|0,3:2|0:0,0:0:0:0:
303,297,61752,6,0,P|291:263|301:228,1,73.0799977697755,2|0,1:2|1:0,0:0:0:0:
392,104,62105,1,2,1:2:0:0:
283,99,62282,5,0,3:0:0:0:
286,109,62370,1,0,3:0:0:0:
288,119,62458,2,0,P|294:136|299:153,3,36.5399988848877,0|0|0|0,1:0|1:0|1:0|1:0,0:0:0:0:
319,32,62811,5,2,3:2:0:0:
230,194,63164,6,0,P|219:158|207:124,1,73.0799977697755,2|0,3:2|0:0,0:0:0:0:
400,334,63517,6,0,P|346:303|283:312,1,128.760003143555,4|0,1:2|1:0,0:0:0:0:
171,244,64047,1,0,1:0:0:0:
112,296,64223,2,0,P|137:277|168:267,1,64.3800015717774,0|0,3:0|0:0,0:0:0:0:
299,153,64576,2,0,P|330:156|360:169,1,64.3800015717774,0|0,3:0|0:0,0:0:0:0:
122,37,64929,6,0,P|169:78|178:140,1,128.760003143555,2|0,1:2|1:0,0:0:0:0:
230,194,65458,1,0,1:0:0:0:
128,277,65635,6,0,B|85:272|70:314|70:314|91:287|125:287,1,128.760003143555,0|2,3:0|1:2,0:0:0:0:
273,354,66164,1,0,3:0:0:0:
334,245,66341,5,2,1:2:0:0:
266,271,66517,1,0,1:0:0:0:
160,211,66694,5,0,1:2:0:0:
92,185,66870,1,0,1:0:0:0:
168,194,67047,1,0,3:0:0:0:
346,51,67399,5,2,1:2:0:0:
343,62,67576,1,0,3:0:0:0:
448,166,67752,6,0,B|406:173|378:133|378:133|398:163|390:198,1,128.760003143555,2|0,1:2|1:0,0:0:0:0:
236,254,68282,6,0,B|264:253|289:226|289:226|262:256|272:294,1,128.760003143555,2|0,1:2|0:0,0:0:0:0:
447,383,68811,6,0,P|420:344|373:342,1,96.5700023576661,2|0,3:2|0:0,0:0:0:0:
361,333,69164,5,4,1:2:0:0:
232,44,73929,5,0,1:0:0:0:
276,110,74105,6,0,B|289:135|323:129|323:129|297:125|272:92,1,109.619996654663,8|0,0:0|0:0,0:0:0:0:
232,44,74458,1,0,1:0:0:0:
89,185,74811,6,0,P|166:176|188:283,1,198.359997578613,4|2,1:0|0:0,0:0:0:0:
13,212,75341,1,2,0:0:0:0:
16,133,75517,2,0,P|62:113|115:93,1,99.1799987893067,8|0,0:0|0:0,0:0:0:0:
283,140,75870,1,2,0:0:0:0:
359,100,76047,6,0,B|413:84|423:20|423:20|407:64|353:85,1,198.359997578613,0|0,1:0|0:0,0:0:0:0:
283,140,76576,2,0,P|305:210|321:260,1,99.1799987893067,0|2,1:0|1:2,0:0:0:0:
317,248,76841,1,2,1:2:0:0:
321,262,76929,2,0,B|263:271|225:216|225:216|225:223|225:223|252:257|241:305,1,198.359997578613,10|0,0:0|0:0,0:0:0:0:
205,192,77458,1,2,1:2:0:0:
151,313,77635,6,0,P|225:342|315:379,1,148.76999818396,0|0,1:0|0:0,0:0:0:0:
304,369,77988,1,2,0:0:0:0:
365,309,78164,1,2,0:0:0:0:
306,160,78341,1,8,0:0:0:0:
353,101,78517,2,0,P|400:63|449:69,1,99.1799987893067,2|0,0:2|1:0,0:0:0:0:
306,160,78870,6,0,P|216:132|105:98,1,198.359997578613,2|8,1:2|0:0,0:0:0:0:
51,246,79399,2,0,P|111:207|109:171,1,99.1799987893067,0|0,1:0|1:0,0:0:0:0:
56,12,79752,2,0,B|74:4|88:-6|88:-6|120:19|137:60|98:107,1,148.76999818396,8|0,0:0|0:0,0:0:0:0:
101,106,80105,1,8,0:0:0:0:
20,82,80282,1,2,1:2:0:0:
121,191,80458,6,0,B|167:191|192:156|192:156|192:161|192:161|173:184|180:223,1,148.76999818396,4|0,1:2|0:0,0:0:0:0:
322,237,80811,2,0,B|276:237|250:202|250:202|250:207|250:207|270:230|262:269,1,148.76999818396,2|0,0:0|0:0,0:0:0:0:
195,292,81164,2,0,P|269:312|375:343,1,148.76999818396,8|0,0:0|0:0,0:0:0:0:
352,337,81517,1,0,1:0:0:0:
502,296,81694,6,0,P|444:290|449:161,1,198.359997578613,8|2,0:0|0:0,0:0:0:0:
512,59,82223,2,0,P|464:38|414:18,1,99.1799987893067,0|0,1:0|1:0,0:0:0:0:
280,83,82576,1,8,0:0:0:0:
203,81,82752,2,0,B|149:65|139:1|139:1|155:45|209:66,1,198.359997578613,2|2,1:2|0:0,0:0:0:0:
280,83,83282,5,2,1:2:0:0:
221,157,83458,1,0,1:0:0:0:
48,136,83635,1,2,0:0:0:0:
5,200,83811,2,0,P|26:238|85:250,1,99.1799987893067,2|8,0:0|0:0,0:0:0:0:
221,157,84164,2,0,P|173:167|148:208,1,99.1799987893067,2|2,0:0|0:0,0:0:0:0:
316,251,84517,6,0,B|333:181|333:181|331:174|331:174|352:94,1,148.76999818396,0|0,1:0|0:0,0:0:0:0:
352,92,84870,1,8,0:0:0:0:
454,25,85047,6,0,B|482:65|482:65|457:117,1,99.1799987893067,0|0,1:0|0:0,0:0:0:0:
266,65,85399,2,0,B|277:24|325:17|325:17|292:29|277:69,1,148.76999818396,8|0,0:0|0:0,0:0:0:0:
352,92,85752,2,0,B|392:82|423:119|423:119|396:97|353:103,1,148.76999818396,2|0,1:2|0:0,0:0:0:0:
374,183,86105,6,0,B|315:153|262:185|296:218|230:260|169:225,1,215.759991440186,4|2,1:2|0:0,0:0:0:0:
53,116,86635,1,2,1:2:0:0:
11,54,86811,2,0,P|36:19|110:14,1,99.1799987893067,8|0,0:0|0:0,0:0:0:0:
166,145,87164,1,10,0:0:0:0:
181,230,87341,6,0,B|123:239|85:184|85:184|85:191|85:191|112:225|101:273,1,198.359997578613,2|0,1:2|0:0,0:0:0:0:
166,145,87870,2,0,P|210:110|262:113,1,99.1799987893067,0|2,1:0|1:2,0:0:0:0:
262,118,88135,1,2,1:2:0:0:
272,128,88223,2,0,B|316:146|364:167|364:167|427:136|388:76,1,198.359997578613,8|0,0:0|0:0,0:0:0:0:
291,38,88752,1,10,0:2:0:0:
166,145,88929,6,0,P|192:218|221:300,1,148.76999818396,2|0,1:2|0:0,0:0:0:0:
223,298,89282,1,10,0:0:0:0:
290,348,89458,1,2,0:2:0:0:
425,246,89635,1,8,0:2:0:0:
345,242,89811,2,0,B|356:289|356:289|355:294|355:294|369:349,1,99.1799987893067,2|8,0:0|0:0,0:0:0:0:
425,246,90164,6,0,P|360:233|365:116,1,198.359997578613,2|8,1:2|0:0,0:0:0:0:
501,32,90694,2,0,P|452:19|386:0,1,99.1799987893067,0|0,1:0|1:0,0:0:0:0:
275,80,91047,2,0,B|229:96|199:62|199:62|183:22|139:26,1,148.76999818396,8|0,0:0|0:0,0:0:0:0:
136,32,91399,1,8,0:0:0:0:
67,3,91576,1,0,1:0:0:0:
0,143,91752,6,0,B|46:143|71:108|71:108|52:136|59:175,1,148.76999818396,4|0,1:2|0:0,0:0:0:0:
203,186,92105,2,0,B|157:186|132:151|132:151|151:179|144:218,1,148.76999818396,2|0,0:0|0:0,0:0:0:0:
76,243,92458,2,0,P|158:258|175:319,1,148.76999818396,8|0,0:0|0:0,0:0:0:0:
170,326,92811,1,2,0:0:0:0:
46,313,92988,6,0,P|24:224|-4:102,1,198.359997578613,2|0,1:2|0:0,0:0:0:0:
46,49,93517,2,0,P|90:84|149:65,1,99.1799987893067,0|0,1:0|0:0,0:0:0:0:
285,7,93870,2,0,B|262:75|262:75|277:122|277:122|252:200,1,198.359997578613,8|2,0:0|1:2,0:0:0:0:
192,255,94399,1,2,0:0:0:0:
337,363,94576,5,2,1:2:0:0:
429,293,94752,1,0,1:0:0:0:
328,369,94929,2,0,P|283:376|239:334,1,99.1799987893067,2|2,0:0|0:0,0:0:0:0:
276,212,95282,2,0,P|321:205|365:247,1,99.1799987893067,8|0,0:0|0:0,0:0:0:0:
192,255,95635,1,0,0:0:0:0:
136,191,95811,1,2,1:2:0:0:
304,56,95988,5,2,0:0:0:0:
264,142,96164,1,8,0:0:0:0:
140,70,96341,5,0,0:0:0:0:
221,15,96517,1,2,1:2:0:0:
136,191,96694,6,0,B|86:202|86:202|40:155,1,99.1799987893067,8|0,0:0|0:0,0:0:0:0:
140,70,97047,1,2,1:2:0:0:
78,26,97223,1,10,0:0:0:0:
216,149,97399,6,0,P|260:147|298:101,1,90.4799994477539,0|0,1:2|0:0,0:0:0:0:
299,104,97664,2,0,P|331:73|375:71,1,90.4799994477539
389,82,97929,1,2,0:0:0:0:
424,223,98105,2,0,B|434:185|478:178|478:178|447:189|434:226,1,135.719999171631,8|0,0:0|0:0,0:0:0:0:
437,237,98458,1,0,1:0:0:0:
501,350,98635,6,0,P|426:330|319:303,1,180.959998895508,8|0,0:0|1:0,0:0:0:0:
196,353,99164,2,0,P|225:318|219:267,1,90.4799994477539,2|0,1:2|0:0,0:0:0:0:
105,240,99517,2,0,P|76:273|77:318,1,90.4799994477539,8|0,0:0|0:0,0:0:0:0:
177,197,99870,1,2,0:2:0:0:
177,197,99958,2,0,L|157:98,1,90.4799994477539,2|0,0:0|0:0,0:0:0:0:
155,90,100223,5,2,1:2:0:0:
301,18,100399,1,0,1:2:0:0:
361,78,100576,2,0,P|395:105|447:106,1,90.4799994477539
301,18,100929,1,8,0:0:0:0:
229,54,101105,1,0,0:0:0:0:
101,27,101282,1,2,0:0:0:0:
34,69,101458,2,0,P|60:137|72:171,1,90.4799994477539,2|2,1:2|0:0,0:0:0:0:
15,295,101811,5,8,0:0:0:0:
79,339,101988,2,0,B|116:359|145:326|136:326|162:294|209:306,1,135.719999171631,4|0,1:2|0:0,0:0:0:0:
269,344,102341,5,10,0:0:0:0:
367,216,102517,1,8,1:2:0:0:
264,185,102694,5,2,1:2:0:0:
292,266,102870,1,8,0:0:0:0:
355,88,103047,5,4,1:2:0:0:
260,192,103223,1,2,0:2:0:0:
198,69,103399,5,2,3:2:0:0:
267,110,103576,1,0,1:0:0:0:
160,226,103752,6,0,P|143:165|120:75,1,135.719999171631,8|0,0:0|0:0,0:0:0:0:
113,80,104105,2,0,P|162:77|188:43,1,90.4799994477539,2|2,0:0|1:2,0:0:0:0:
36,14,104458,6,0,B|21:75|21:75|22:81|22:81|4:152,1,135.719999171631,2|0,1:2|0:0,0:0:0:0:
2,220,104811,2,0,B|45:220|68:187|68:187|50:213|57:250,1,135.719999171631,0|0,1:0|0:0,0:0:0:0:
31,314,105164,2,0,B|77:337|116:298|106:296|134:247|196:263,1,180.959998895508,8|0,0:0|0:0,0:0:0:0:
419,349,105870,5,2,1:2:0:0:
484,257,106047,1,2,1:2:0:0:
413,184,106223,5,2,0:0:0:0:
366,253,106399,1,0,0:0:0:0:
498,147,106576,6,0,P|462:99|385:97,1,135.719999171631,8|0,0:0|0:0,0:0:0:0:
376,106,106929,2,0,P|342:145|292:152,1,90.4799994477539,2|0,0:0|1:0,0:0:0:0:
165,61,107282,5,2,1:2:0:0:
93,31,107458,1,8,0:0:0:0:
48,91,107635,1,2,1:2:0:0:
48,91,107988,6,0,B|38:126|60:158|70:147|99:176|85:224,1,135.719999171631,8|0,0:0|0:0,0:0:0:0:
80,231,108341,2,0,P|125:236|148:281,1,90.4799994477539,4|0,0:0|0:0,0:0:0:0:
101,379,108694,6,0,P|166:353|249:324,1,135.719999171631,2|0,1:2|0:0,0:0:0:0:
301,358,109047,2,0,B|316:324|345:307|345:307|313:301|284:269,1,135.719999171631,0|0,1:0|0:0,0:0:0:0:
220,252,109399,2,0,B|202:203|161:184|161:184|205:183|242:134,1,180.959998895508,8|2,0:0|0:0,0:0:0:0:
335,180,109929,1,0,1:0:0:0:
470,73,110105,5,2,1:2:0:0:
377,18,110282,1,0,0:0:0:0:
309,96,110458,5,2,1:2:0:0:
392,129,110635,1,2,0:0:0:0:
392,129,110723,1,2,0:0:0:0:
392,129,110811,2,0,P|431:169|410:247,1,135.719999171631,10|0,0:0|0:0,0:0:0:0:
405,256,111164,2,0,P|364:273|303:296,1,90.4799994477539,0|0,1:0|0:0,0:0:0:0:
199,228,111517,5,2,1:2:0:0:
154,303,111694,1,0,1:2:0:0:
223,361,111870,2,0,B|258:332|258:332|243:289,1,90.4799994477539,2|0,1:2|0:0,0:0:0:0:
149,167,112223,2,0,B|135:117|78:108|78:108|118:122|135:170,1,180.959998895508,8|0,0:0|0:0,0:0:0:0:
199,228,112752,1,0,1:0:0:0:
81,302,112929,5,2,1:2:0:0:
9,209,113105,1,8,0:0:0:0:
90,313,113282,2,0,B|127:293|156:325|149:326|173:358|220:346,1,135.719999171631,4|0,1:2|0:0,0:0:0:0:
229,339,113635,2,0,P|274:307|313:308,1,90.4799994477539,8|0,0:0|1:0,0:0:0:0:
421,377,113988,2,0,P|439:313|465:229,1,135.719999171631,8|0,0:0|0:0,0:0:0:0:
462,227,114341,5,4,1:2:0:0:
370,120,114517,1,2,0:0:0:0:
455,83,114694,5,2,1:2:0:0:
498,18,114870,1,2,0:0:0:0:
370,120,115047,2,0,B|336:135|319:164|319:164|313:132|281:103,1,135.719999171631,8|0,0:0|0:0,0:0:0:0:
275,91,115399,2,0,P|236:55|181:62,1,90.4799994477539,0|2,0:0|3:2,0:0:0:0:
88,161,115752,6,0,P|30:159|4:80,1,135.719999171631,2|0,1:2|0:0,0:0:0:0:
6,18,116105,2,0,P|68:43|130:71,1,135.719999171631,0|0,1:0|0:0,0:0:0:0:
189,128,116458,2,0,B|202:176|173:221|158:206|119:243|137:311,1,180.959998895508,8|0,0:0|0:0,0:0:0:0:
359,370,117164,5,2,1:2:0:0:
423,282,117341,1,0,1:0:0:0:
352,228,117517,5,2,1:2:0:0:
290,289,117694,1,2,0:0:0:0:
423,282,117870,6,0,P|449:219|405:156,1,135.719999171631,8|0,0:0|0:0,0:0:0:0:
401,156,118223,2,0,P|357:143|309:132,1,90.4799994477539,2|0,0:0|1:0,0:0:0:0:
196,227,118576,5,2,1:2:0:0:
91,136,118752,1,8,0:0:0:0:
202,233,118929,2,0,P|183:150|164:72,1,135.719999171631,4|0,1:2|0:0,0:0:0:0:
163,84,119282,2,0,P|211:76|227:28,1,90.4799994477539,8|0,0:0|1:0,0:0:0:0:
51,12,119635,2,0,B|41:47|63:79|73:68|102:97|88:145,1,135.719999171631,8|0,0:0|0:0,0:0:0:0:
18,128,119988,6,0,P|-14:179|25:247,1,135.719999171631,4|0,1:2|0:0,0:0:0:0:
14,318,120341,2,0,B|57:318|80:285|80:285|62:311|69:348,1,135.719999171631,0|0,1:0|0:0,0:0:0:0:
139,329,120694,2,0,B|174:339|206:317|195:307|224:278|272:292,1,135.719999171631,8|0,0:0|0:0,0:0:0:0:
277,300,121047,1,2,0:0:0:0:
423,236,121223,1,2,3:2:0:0:
372,310,121399,6,0,P|335:256|360:175,1,135.719999171631,2|0,1:2|0:0,0:0:0:0:
418,158,121752,2,0,P|455:104|430:23,1,135.719999171631,0|0,1:0|0:0,0:0:0:0:
369,18,122105,2,0,B|313:-1|277:39|277:39|258:87|205:82,1,180.959998895508,8|0,0:0|0:0,0:0:0:0:
14,22,122811,5,2,1:2:0:0:
79,119,122988,1,0,1:0:0:0:
32,199,123164,5,2,1:2:0:0:
75,271,123341,1,2,0:0:0:0:
79,119,123517,6,0,P|137:138|240:174,1,135.719999171631,8|0,0:0|0:0,0:0:0:0:
224,156,123870,2,0,P|265:141|323:122,1,90.4799994477539,2|0,0:0|1:0,0:0:0:0:
414,29,124223,5,2,0:0:0:0:
464,87,124399,1,8,0:0:0:0:
424,152,124576,1,0,1:0:0:0:
424,152,124929,6,0,P|448:194|433:244,1,90.4799994477539,12|0,0:0|1:0,0:0:0:0:
305,256,125282,2,0,P|281:214|296:164,1,90.4799994477539,8|0,0:0|0:0,0:0:0:0:
433,374,125635,6,0,P|383:348|328:346,2,111.36,4|0|8,1:2|3:2|0:0,0:0:0:0:
305,256,126694,1,0,3:0:0:0:
468,144,127047,6,0,B|436:159|413:146|413:146|408:170|438:190,1,111.36,2|0,1:2|3:0,0:0:0:0:
477,138,127576,1,2,0:0:0:0:
434,74,127752,1,8,0:0:0:0:
203,281,128105,6,0,B|148:286|177:301|122:317,1,83.52,0|0,3:0|0:0,0:0:0:0:
97,318,128458,6,0,B|147:338|147:338|118:288,1,111.36,2|0,1:2|3:0,0:0:0:0:
143,219,128988,1,2,0:0:0:0:
15,105,129164,2,0,P|68:113|98:157,1,111.36,8|0,0:0|3:0,0:0:0:0:
271,345,129870,6,0,B|298:332|298:332|324:326,1,55.68,2|2,1:2|0:0,0:0:0:0:
398,250,130223,2,0,B|415:271|415:271|442:277,1,55.68,2|2,1:2|0:0,0:0:0:0:
482,342,130576,1,8,0:0:0:0:
398,250,130929,5,0,3:0:0:0:
255,29,131282,6,0,B|222:39|222:39|294:67,1,111.36,2|0,1:2|3:0,0:0:0:0:
347,16,131811,1,2,0:0:0:0:
213,41,131988,1,8,0:0:0:0:
412,126,132341,6,0,P|372:128|352:162,1,83.52,0|0,3:0|0:0,0:0:0:0:
414,134,132694,6,0,P|385:179|331:179,2,111.36,2|0|8,1:2|3:0|0:0,0:0:0:0:
343,274,133752,1,0,3:0:0:0:
229,162,134105,6,0,B|237:168|237:168|265:265,1,111.36,2|0,1:2|3:0,0:0:0:0:
229,162,134635,1,2,0:0:0:0:
266,274,134811,6,0,B|238:364|270:298|243:382,1,111.36,8|0,0:0|3:0,0:0:0:0:
428,217,135517,6,0,B|416:207|416:207|368:226,1,55.68,2|0,1:2|3:0,0:0:0:0:
234,339,135870,2,0,B|222:349|222:349|174:330,1,55.68,2|2,1:2|0:0,0:0:0:0:
139,273,136223,1,8,0:0:0:0:
234,339,136399,1,2,1:2:0:0:
298,299,136576,6,0,P|311:274|309:246,1,57.4200017523194,2|0,3:2|0:0,0:0:0:0:
375,318,136929,6,0,P|325:297|309:245,1,111.36,4|0,1:2|3:0,0:0:0:0:
354,184,137458,1,2,3:2:0:0:
251,58,137635,2,0,B|240:61|240:61|219:80|219:80|206:115|245:146,1,111.36,8|0,0:0|3:0,0:0:0:0:
251,58,138341,6,0,P|276:45|300:32,1,55.68,2|0,1:2|3:0,0:0:0:0:
192,145,138694,2,0,P|182:171|174:197,1,55.68,2|2,3:2|3:2,0:0:0:0:
87,45,139047,1,8,0:0:0:0:
170,192,139399,5,0,3:0:0:0:
188,140,139576,1,0,3:0:0:0:
45,201,139752,6,0,P|91:230|128:272,1,111.36,2|0,1:2|3:0,0:0:0:0:
273,155,140282,1,0,0:0:0:0:
169,191,140458,2,0,P|223:180|273:155,1,111.36,8|0,0:0|3:0,0:0:0:0:
440,319,141164,5,2,1:2:0:0:
357,258,141341,1,2,1:2:0:0:
356,247,141429,1,2,1:2:0:0:
368,241,141517,2,0,B|378:245|378:245|323:276|323:276|303:293|314:325,1,111.36,10|8,1:2|0:0,0:0:0:0:
407,157,142223,5,0,3:0:0:0:
447,218,142399,1,0,3:0:0:0:
242,340,142576,6,0,B|258:328|281:321|281:321|215:304,1,111.36,2|0,1:2|3:0,0:0:0:0:
310,309,143105,1,2,0:0:0:0:
219,211,143282,2,0,P|180:207|164:242,1,83.52,8|0,0:0|0:0,0:0:0:0:
125,142,143635,6,0,P|155:188|164:242,1,111.36,0|2,3:0|1:2,0:0:0:0:
123,306,144164,1,2,3:2:0:0:
0,384,144341,6,0,P|21:366|47:356,1,55.68,0|2,3:0|0:0,0:0:0:0:
238,271,144694,2,0,B|272:264|296:298|296:298|263:308|258:334,1,111.36,8|0,0:0|3:0,0:0:0:0:
318,371,145223,1,0,3:0:0:0:
463,239,145399,6,0,P|479:185|489:131,2,111.36,2|0|8,1:2|3:0|0:0,0:0:0:0:
463,239,146458,1,0,3:0:0:0:
308,39,146811,6,0,B|290:46|290:46|262:85,1,55.68,2|2,1:2|3:2,0:0:0:0:
176,168,147164,5,2,1:2:0:0:
167,162,147252,1,2,1:2:0:0:
171,151,147341,2,0,L|196:162,1,27.84,2|2,1:2|1:2,0:0:0:0:
281,275,147517,5,8,0:0:0:0:
398,201,147694,2,0,B|367:216|318:210|318:210|345:223|351:252,1,128.760003143555,8|0,0:0|1:0,0:0:0:0:
107,358,148223,6,0,B|52:373|15:327|72:284|126:310|149:385,1,180.959998895508,4|0,1:0|3:0,0:0:0:0:
57,280,148752,1,2,0:0:0:0:
196,162,148929,2,0,B|210:174|210:174|169:185|169:185|130:227|156:286|228:297,1,180.959998895508,8|0,0:0|0:0,0:0:0:0:
34,151,149458,1,0,1:0:0:0:
116,114,149635,2,0,B|60:132|96:131|34:151,1,90.4799994477539,2|0,1:2|0:0,0:0:0:0:
69,0,149988,6,0,B|105:26|164:30|108:29|162:32|193:57,1,135.719999171631,0|0,1:0|0:0,0:0:0:0:
226,139,150341,6,0,B|246:118|267:116|267:116|269:114|269:114|357:137|314:235,1,180.959998895508,8|0,0:0|0:0,0:0:0:0:
226,139,150870,1,2,0:0:0:0:
392,11,151047,2,0,B|401:19|401:19|376:93,2,90.4799994477539,0|0|0,1:0|1:0|3:0,0:0:0:0:
464,80,151576,1,2,0:0:0:0:
322,212,151752,6,0,B|305:238|340:268|340:268|345:266|345:266|378:274|421:246|419:176,1,180.959998895508,8|2,0:0|0:0,0:0:0:0:
266,341,152282,6,0,P|345:298|438:286,1,180.959998895508,0|8,1:0|0:0,0:0:0:0:
322,212,152811,1,0,1:0:0:0:
356,146,152988,1,2,0:0:0:0:
273,29,153164,6,0,B|260:8|240:11|240:11|271:35|280:66,1,90.4799994477539,8|0,0:0|0:0,0:0:0:0:
417,200,153517,2,0,P|455:176|445:132,1,96.5700023576661,2|0,0:0|0:0,0:0:0:0:
345,264,153870,6,0,B|300:282|300:282|311:283|222:317,1,135.719999171631,2|0,1:2|0:0,0:0:0:0:
155,288,154223,1,0,3:0:0:0:
75,357,154399,1,2,0:0:0:0:
164,384,154576,6,0,B|108:211,1,180.959998895508,8|2,0:0|0:0,0:0:0:0:
183,16,155105,6,0,B|254:62|254:62|225:103|204:144,1,180.959998895508,0|0,1:0|0:0,0:0:0:0:
65,142,155635,6,0,B|34:82|34:82|100:46,1,135.719999171631,0|0,1:0|0:0,0:0:0:0:
37,84,155988,6,0,B|142:116|128:119|128:119|204:144,1,180.959998895508,8|2,0:0|0:0,0:0:0:0:
202,367,156694,6,0,B|207:360|207:360|251:340|251:340|284:345,1,90.4799994477539,0|0,1:0|1:0,0:0:0:0:
373,210,157047,6,0,P|390:248|356:273,1,90.4799994477539,0|0,3:0|0:0,0:0:0:0:
451,383,157399,5,8,0:0:0:0:
258,201,157752,5,2,0:0:0:0:
294,227,157929,1,2,1:2:0:0:
361,350,158105,5,0,3:0:0:0:
479,306,158282,1,8,0:0:0:0:
362,190,158458,6,0,B|336:203|336:203|312:251|369:281,1,109.619996654663,6|0,1:2|0:0,0:0:0:0:
355,272,158811,6,0,B|382:239|347:201|350:218|318:180|343:149,1,135.719999171631,12|0,0:0|0:0,0:0:0:0:
343,148,159164,6,0,B|376:175|348:218|347:201|323:244|353:271,1,135.719999171631,6|0,1:2|0:0,0:0:0:0:
267,92,159517,6,0,B|211:80|167:150|167:150|195:65|284:71,1,271.439998343262,4|2,1:0|0:0,0:0:0:0:
406,4,160223,2,0,P|449:14|477:48,1,90.4799994477539,8|0,0:0|0:0,0:0:0:0:
315,0,160576,1,2,0:0:0:0:
477,48,160752,6,0,P|390:62|341:135,1,180.959998895508,2|0,1:2|0:0,0:0:0:0:
287,193,161282,6,0,B|264:223|264:223|305:204,1,83.52,0|0,1:0|0:0,0:0:0:0:
341,135,161635,6,0,B|291:227|291:227|339:285,1,180.959998895508,8|0,0:0|0:0,0:0:0:0:
410,314,162164,1,2,0:0:0:0:
224,376,162341,5,2,1:2:0:0:
255,309,162517,1,0,1:0:0:0:
395,239,162694,5,8,0:0:0:0:
373,167,162870,1,2,1:2:0:0:
271,106,163047,5,8,0:0:0:0:
327,52,163223,1,2,1:2:0:0:
394,91,163399,1,8,0:0:0:0:
248,28,163576,6,0,B|203:15|203:15|177:35|208:61,1,90.4799994477539,2|2,1:2|1:2,0:0:0:0:
305,203,163929,1,8,0:0:0:0:
205,268,164105,6,0,B|176:245|176:245|204:215|204:215|217:270,1,135.719999171631,0|0,1:0|0:0,0:0:0:0:
292,320,164458,6,0,B|347:292|347:292|291:243,1,135.719999171631,12|0,0:0|0:0,0:0:0:0:
363,295,164811,6,0,B|396:282|423:301|423:301|445:337|496:321,1,135.719999171631,2|0,0:0|0:0,0:0:0:0:
499,311,165164,5,4,1:2:0:0:
393,373,165341,1,0,0:0:0:0:
227,283,165517,5,0,3:0:0:0:
156,252,165694,1,2,0:0:0:0:
86,293,165870,6,0,P|82:369|155:344,1,180.959998895508,8|2,0:0|0:0,0:0:0:0:
88,209,166399,1,0,1:0:0:0:
182,172,166576,6,0,B|190:183|190:183|157:252,1,90.4799994477539,0|8,3:0|0:0,0:0:0:0:
46,141,166929,1,0,3:0:0:0:
88,209,167105,1,0,1:0:0:0:
175,55,167282,6,0,B|222:23|222:23|170:82,1,135.719999171631,8|0,0:0|0:0,0:0:0:0:
160,97,167635,6,0,P|244:93|259:175,1,180.959998895508,2|4,1:2|1:0,0:0:0:0:
259,173,168341,5,2,3:2:0:0:
312,97,168694,5,2,3:2:0:0:
252,15,169047,5,2,0:0:0:0:
512,208,170105,5,0,3:0:0:0:
304,362,170811,5,0,3:0:0:0:
256,192,173635,5,4,1:0:0:0:
388,43,184929,6,0,P|425:79|407:128,1,109.619996654663,0|0,1:0|0:0,0:0:0:0:
389,126,185282,1,0,3:0:0:0:
480,229,185458,6,0,P|447:213|411:204,2,73.0799977697755,0|0|0,0:0|3:0|0:0,0:0:0:0:
502,158,185988,1,10,3:2:0:0:
350,249,186164,6,0,P|361:317|427:339,1,146.159995539551,2|0,3:2|3:0,0:0:0:0:
344,343,186694,1,0,3:0:0:0:
344,343,187047,1,10,3:2:0:0:
48,163,187576,5,2,0:0:0:0:
84,219,187752,2,0,P|55:197|47:162,1,73.0799977697755,0|0,1:0|1:0,0:0:0:0:
99,105,188105,1,2,3:2:0:0:
43,68,188282,2,0,P|77:75|98:104,1,73.0799977697755,2|10,0:0|3:2,0:0:0:0:
220,110,188635,6,0,P|195:157|144:171,1,109.619996654663,2|0,0:0|0:0,0:0:0:0:
143,170,188988,6,0,B|216:192|216:192|192:220|191:255,1,146.159995539551,2|0,3:2|3:0,0:0:0:0:
201,267,189429,1,0,3:0:0:0:
253,322,189517,6,0,P|289:317|319:298,1,73.0799977697755,0|2,1:0|3:2,0:0:0:0:
195,373,189870,1,10,3:2:0:0:
392,168,190223,5,2,3:2:0:0:
380,158,190399,1,2,3:2:0:0:
475,174,190576,6,0,P|403:190|337:220,1,146.159995539551,2|0,1:2|3:0,0:0:0:0:
475,174,191105,1,2,0:0:0:0:
324,222,191282,6,0,P|276:171|303:107,1,146.159995539551,10|2,3:2|1:2,0:0:0:0:
373,83,191811,1,2,3:2:0:0:
247,19,191988,1,2,1:2:0:0:
189,61,192164,6,0,B|173:75|173:75|209:66,1,36.5399988848877,0|0,3:0|3:0,0:0:0:0:
319,8,192341,6,0,B|339:14|339:14|313:-11,1,36.5399988848877,0|0,3:0|3:0,0:0:0:0:
247,19,192517,5,0,3:0:0:0:
115,139,192694,6,0,P|173:173|158:240,1,146.159995539551,10|2,3:2|3:2,0:0:0:0:
84,240,193223,1,2,3:2:0:0:
160,152,193399,6,0,P|182:179|176:214,1,73.0799977697755,2|0,1:2|1:0,0:0:0:0:
218,280,193752,2,0,P|199:310|164:315,1,73.0799977697755,2|2,3:2|0:0,0:0:0:0:
39,173,194105,1,10,3:2:0:0:
464,23,194458,6,0,B|486:41|486:41|430:17|430:17|410:18|399:38,1,109.619996654663,2|0,3:2|0:0,0:0:0:0:
343,55,194811,6,0,B|350:71|350:71|402:53,1,73.0799977697755,2|2,1:2|3:2,0:0:0:0:
311,134,195164,1,2,1:2:0:0:
416,125,195341,2,0,P|408:160|395:194,1,73.0799977697755,2|10,3:2|3:2,0:0:0:0:
196,31,195870,6,0,P|228:48|263:58,1,73.0799977697755,2|2,3:2|3:2,0:0:0:0:
142,110,196223,6,0,P|192:59|263:58,1,146.159995539551,2|2,1:2|3:2,0:0:0:0:
121,0,196752,1,2,0:0:0:0:
263,58,196929,1,10,1:2:0:0:
143,205,197282,1,2,3:2:0:0:
128,285,197458,6,0,B|76:266|76:266|143:205,1,146.159995539551,2|0,3:2|0:0,0:0:0:0:
257,246,197988,6,0,B|292:288|292:288|203:307,2,146.159995539551,8|2|8,3:2|3:2|3:2,0:0:0:0:
203,307,199047,5,2,3:2:0:0:
393,107,200988,5,0,1:0:0:0:
359,36,201164,6,0,B|344:9|306:19|306:19|339:23|369:64,1,109.619996654663,8|0,0:0|0:0,0:0:0:0:
393,107,201517,1,0,1:0:0:0:
271,269,201870,6,0,B|329:278|367:223|367:223|367:230|367:230|340:264|351:312,1,198.359997578613,4|2,1:0|0:0,0:0:0:0:
372,208,202400,1,2,0:0:0:0:
465,342,202576,2,0,P|411:363|360:382,1,99.1799987893067,8|0,0:0|0:0,0:0:0:0:
161,294,202929,1,2,0:0:0:0:
97,241,203105,6,0,P|48:201|116:88,1,198.359997578613,0|0,1:0|0:0,0:0:0:0:
235,116,203635,2,0,P|260:159|229:218,1,99.1799987893067,0|2,1:0|1:2,0:0:0:0:
237,215,203899,1,2,1:2:0:0:
228,227,203988,2,0,B|283:255|334:225|301:193|364:154|422:187,1,198.359997578613,10|0,0:0|0:0,0:0:0:0:
509,251,204517,1,2,1:2:0:0:
460,127,204694,6,0,P|436:196|408:285,1,148.76999818396,0|0,1:0|0:0,0:0:0:0:
407,282,205047,1,2,0:0:0:0:
333,330,205223,1,2,0:0:0:0:
148,240,205399,1,8,0:0:0:0:
83,284,205576,2,0,P|53:245|63:189,1,99.1799987893067,2|0,0:2|1:0,0:0:0:0:
240,297,205929,6,0,P|163:329|50:378,1,198.359997578613,2|8,1:2|0:0,0:0:0:0:
57,197,206458,2,0,P|86:235|82:283,1,99.1799987893067,0|0,1:0|1:0,0:0:0:0:
31,113,206811,2,0,B|77:97|107:131|107:131|123:171|167:167,1,148.76999818396,8|0,0:0|0:0,0:0:0:0:
170,163,207164,1,8,0:0:0:0:
230,111,207341,1,2,1:2:0:0:
397,195,207517,6,0,P|436:143|402:72,1,148.76999818396,4|0,1:2|0:0,0:0:0:0:
301,69,207870,2,0,P|262:121|296:192,1,148.76999818396,2|0,0:0|0:0,0:0:0:0:
400,274,208223,2,0,B|446:274|472:239|472:239|472:244|472:244|452:267|460:306,1,148.76999818396,8|0,0:0|0:0,0:0:0:0:
465,314,208576,1,0,1:0:0:0:
349,381,208752,6,0,P|326:302|290:178,1,198.359997578613,8|2,0:0|0:0,0:0:0:0:
178,98,209282,2,0,P|221:55|271:56,1,99.1799987893067,0|0,1:0|1:0,0:0:0:0:
146,188,209635,1,8,0:0:0:0:
69,186,209811,2,0,B|15:170|5:106|5:106|21:150|75:171,1,198.359997578613,2|2,1:2|0:0,0:0:0:0:
146,188,210341,5,2,1:2:0:0:
193,263,210517,1,0,1:0:0:0:
393,162,210694,1,2,0:0:0:0:
350,231,210870,2,0,P|379:266|434:273,1,99.1799987893067,2|8,0:0|0:0,0:0:0:0:
317,155,211223,2,0,P|268:161|237:198,1,99.1799987893067,2|2,0:0|0:0,0:0:0:0:
429,273,211576,6,0,B|443:233|478:219|478:219|443:206|423:166,1,148.76999818396,0|0,1:0|0:0,0:0:0:0:
416,158,211929,1,8,0:0:0:0:
243,112,212105,6,0,B|215:152|215:152|240:204,1,99.1799987893067,0|0,1:0|0:0,0:0:0:0:
367,328,212458,2,0,B|378:369|426:376|426:376|393:364|378:324,1,148.76999818396,8|0,0:0|0:0,0:0:0:0:
453,301,212811,2,0,B|493:311|524:274|524:274|497:296|454:290,1,148.76999818396,2|0,1:2|0:0,0:0:0:0:
470,211,213164,6,0,B|411:181|358:213|392:246|326:288|265:253,1,215.759991440186,4|2,1:2|0:0,0:0:0:0:
119,167,213694,1,2,1:2:0:0:
50,203,213870,2,0,P|19:241|35:299,1,99.1799987893067,8|0,0:0|0:0,0:0:0:0:
188,367,214223,1,10,0:0:0:0:
256,332,214399,6,0,B|300:350|348:371|348:371|411:340|372:280,1,198.359997578613,2|0,1:2|0:0,0:0:0:0:
188,367,214929,2,0,P|161:322|178:272,1,99.1799987893067,0|2,1:0|1:2,0:0:0:0:
181,268,215194,1,2,1:2:0:0:
194,261,215282,2,0,P|243:210|198:99,1,198.359997578613,8|0,0:0|0:0,0:0:0:0:
47,158,215811,1,10,0:2:0:0:
102,37,215988,6,0,B|172:19|172:19|179:21|179:21|259:0,1,148.76999818396,2|0,1:2|0:0,0:0:0:0:
261,0,216341,1,10,0:0:0:0:
327,42,216517,1,2,0:2:0:0:
464,126,216694,1,8,0:2:0:0:
397,174,216870,2,0,P|362:214|379:269,1,99.1799987893067,2|8,0:0|0:0,0:0:0:0:
497,381,217223,6,0,P|404:354|307:326,1,198.359997578613,2|8,1:2|0:0,0:0:0:0:
139,376,217752,2,0,P|104:342|114:284,1,99.1799987893067,0|0,1:0|1:0,0:0:0:0:
249,220,218105,2,0,P|296:176|274:94,1,148.76999818396,8|0,0:0|0:0,0:0:0:0:
269,89,218458,1,8,0:0:0:0:
203,130,218635,1,0,1:0:0:0:
0,87,218811,6,0,B|46:87|71:52|71:52|52:80|59:119,1,148.76999818396,4|0,1:2|0:0,0:0:0:0:
203,130,219164,2,0,B|157:130|132:95|132:95|151:123|144:162,1,148.76999818396,2|0,0:0|0:0,0:0:0:0:
62,202,219517,2,0,P|131:229|222:266,1,148.76999818396,8|0,0:0|0:0,0:0:0:0:
213,264,219870,1,2,0:0:0:0:
363,376,220047,6,0,P|423:346|418:227,1,198.359997578613,2|0,1:2|0:0,0:0:0:0:
267,157,220576,2,0,P|223:120|228:59,1,99.1799987893067,0|0,1:0|0:0,0:0:0:0:
376,16,220929,2,0,B|353:84|353:84|368:131|368:131|343:209,1,198.359997578613,8|2,0:0|1:2,0:0:0:0:
279,246,221458,1,2,0:0:0:0:
459,366,221635,5,2,1:2:0:0:
370,280,221811,1,0,1:0:0:0:
469,372,221988,2,0,P|497:326|477:280,1,99.1799987893067,2|2,0:0|0:0,0:0:0:0:
360,272,222341,2,0,P|332:318|352:364,1,99.1799987893067,8|0,0:0|0:0,0:0:0:0:
446,174,222694,1,0,0:0:0:0:
416,98,222870,1,2,1:2:0:0:
262,48,223047,5,2,0:0:0:0:
224,129,223223,1,8,0:0:0:0:
290,262,223399,5,0,0:0:0:0:
328,181,223575,1,2,1:2:0:0:
173,57,223752,6,0,P|112:72|98:107,1,99.1799987893067,8|0,0:0|0:0,0:0:0:0:
108,288,224105,1,2,1:2:0:0:
56,232,224282,1,10,0:0:0:0:
189,358,224458,6,0,B|236:364|236:364|272:318,1,90.4799994477539,0|0,1:2|0:0,0:0:0:0:
270,318,224723,2,0,B|296:284|296:284|343:290,1,90.4799994477539
356,294,224988,1,2,0:0:0:0:
481,379,225164,2,0,P|513:340|492:258,1,135.719999171631,8|0,0:0|0:0,0:0:0:0:
484,254,225517,1,0,1:0:0:0:
277,164,225694,6,0,B|330:172|365:121|365:121|365:127|365:127|340:159|351:203,1,180.959998895508,8|0,0:0|1:0,0:0:0:0:
380,103,226223,2,0,P|405:63|386:16,1,90.4799994477539,2|0,1:2|0:0,0:0:0:0:
266,79,226576,2,0,P|255:36|280:0,1,90.4799994477539,8|0,0:0|0:0,0:0:0:0:
277,164,226929,1,2,0:2:0:0:
277,164,227017,2,0,P|261:206|244:262,1,90.4799994477539,2|0,0:0|0:0,0:0:0:0:
245,263,227282,5,2,1:2:0:0:
88,362,227458,1,0,1:2:0:0:
24,317,227635,2,0,P|58:290|110:289,1,90.4799994477539
262,338,227988,1,8,0:0:0:0:
334,374,228164,1,0,0:0:0:0:
170,245,228341,1,2,0:0:0:0:
103,287,228517,2,0,P|74:239|87:193,1,90.4799994477539,2|2,1:2|0:0,0:0:0:0:
203,122,228870,5,8,0:0:0:0:
267,166,229047,2,0,B|304:186|333:153|324:153|350:121|397:133,1,135.719999171631,4|0,1:2|0:0,0:0:0:0:
443,190,229399,5,10,0:0:0:0:
512,47,229576,1,8,1:2:0:0:
361,50,229752,5,2,1:2:0:0:
389,131,229929,1,8,0:0:0:0:
512,248,230105,5,4,1:2:0:0:
458,369,230282,1,2,0:2:0:0:
369,235,230458,5,0,0:0:0:0:
426,297,230635,1,0,1:0:0:0:
251,363,230811,2,0,P|217:318|240:241,1,135.719999171631,8|0,0:0|0:0,0:0:0:0:
246,237,231164,2,0,P|279:200|280:160,1,90.4799994477539,2|2,0:0|1:2,0:0:0:0:
135,19,231517,6,0,B|120:80|120:80|121:86|121:86|103:157,1,135.719999171631,2|0,1:2|0:0,0:0:0:0:
78,253,231870,2,0,B|67:214|23:207|23:207|54:218|67:255,1,135.719999171631,0|0,1:0|0:0,0:0:0:0:
87,326,232223,2,0,B|133:349|172:310|162:308|190:259|252:275,1,180.959998895508,8|0,0:0|0:0,0:0:0:0:
429,370,232929,5,2,1:2:0:0:
468,271,233105,1,2,1:2:0:0:
330,208,233282,5,2,0:0:0:0:
364,283,233458,1,0,0:0:0:0:
469,134,233635,6,0,B|432:154|403:122|410:121|386:89|339:101,1,135.719999171631,8|0,0:0|0:0,0:0:0:0:
333,104,233988,2,0,P|300:143|251:144,1,90.4799994477539,2|0,0:0|1:0,0:0:0:0:
113,10,234341,5,2,1:2:0:0:
43,45,234517,1,8,0:0:0:0:
63,125,234694,1,2,1:2:0:0:
63,125,235047,6,0,B|100:145|129:113|122:112|146:80|193:92,1,135.719999171631,8|0,0:0|0:0,0:0:0:0:
195,100,235399,2,0,B|232:130|232:130|284:112,1,90.4799994477539,4|0,0:0|0:0,0:0:0:0:
406,39,235752,6,0,P|462:54|473:132,1,135.719999171631,2|0,1:2|0:0,0:0:0:0:
404,165,236105,2,0,B|394:200|416:232|426:221|455:250|441:298,1,135.719999171631,0|0,1:0|0:0,0:0:0:0:
432,364,236458,2,0,B|383:346|364:305|364:305|363:349|314:386,1,180.959998895508,8|2,0:0|0:0,0:0:0:0:
274,304,236988,1,0,1:0:0:0:
85,377,237164,5,2,1:2:0:0:
42,274,237341,1,0,0:0:0:0:
145,237,237517,5,0,1:0:0:0:
178,314,237694,1,2,0:0:0:0:
178,314,237782,1,2,0:0:0:0:
178,314,237870,2,0,B|212:329|229:358|229:358|235:326|267:297,1,135.719999171631,10|0,0:0|0:0,0:0:0:0:
274,293,238223,2,0,P|307:263|356:266,1,90.4799994477539,0|0,1:0|0:0,0:0:0:0:
451,383,238576,5,2,1:2:0:0:
496,308,238752,1,0,1:2:0:0:
434,244,238929,2,0,P|410:202|421:155,1,90.4799994477539,2|0,1:2|0:0,0:0:0:0:
510,14,239282,2,0,B|464:-9|425:30|435:32|407:81|345:65,1,180.959998895508,8|0,0:0|0:0,0:0:0:0:
282,26,239811,1,0,1:0:0:0:
116,135,239988,5,2,1:2:0:0:
59,36,240164,1,8,0:0:0:0:
122,145,240341,2,0,P|158:183|242:177,1,135.719999171631,4|0,1:2|0:0,0:0:0:0:
246,170,240694,2,0,P|278:137|329:132,1,90.4799994477539,8|0,0:0|1:0,0:0:0:0:
431,234,241047,2,0,B|442:195|486:188|486:188|455:199|442:236,1,135.719999171631,8|0,0:0|0:0,0:0:0:0:
469,337,241399,6,0,B|475:290|422:273|434:287|382:269|390:225,1,148.76999818396,4|0,1:2|0:0,0:0:0:0:
469,337,241752,2,0,B|459:309|494:292|487:303|520:285|511:255,1,99.1799987893067,0|0,1:0|0:0,0:0:0:0:
469,336,242105,2,0,P|477:246|495:158,1,180.959998895508,8|0,0:0|0:0,0:0:0:0:
367,22,242635,6,0,P|375:42|395:51,1,45.239999723877,2|0,3:2|0:0,0:0:0:0:
350,52,242811,6,0,P|390:66|423:38,1,90.4799994477539,2|0,1:2|0:0,0:0:0:0:
311,145,243164,2,0,P|270:162|227:178,1,90.4799994477539,0|0,1:0|0:0,0:0:0:0:
219,171,243429,1,0,0:0:0:0:
265,266,243517,6,0,P|239:186|311:144,1,180.959998895508,8|0,0:0|0:0,0:0:0:0:
18,45,244223,6,0,B|14:58|14:58|35:26|76:12,1,90.4799994477539,2|0,1:2|1:0,0:0:0:0:
149,41,244576,2,0,B|174:58|174:58|190:57|190:57|153:31,1,90.4799994477539,2|0,1:2|0:0,0:0:0:0:
5,142,244929,6,0,B|43:158|43:158|80:224|-5:255,1,135.719999171631,8|0,0:0|0:0,0:0:0:0:
11,238,245282,1,2,0:0:0:0:
151,169,245458,1,0,1:0:0:0:
95,328,245635,6,0,B|47:289|112:269|96:330,1,90.4799994477539,2|8,1:2|0:0,0:0:0:0:
45,384,245988,6,0,P|103:350|170:342,1,135.719999171631,4|0,1:2|0:0,0:0:0:0:
215,284,246341,2,0,P|252:305|257:348,1,90.4799994477539,8|0,0:0|1:0,0:0:0:0:
11,238,246694,2,0,P|66:275|132:288,1,135.719999171631,8|0,0:0|0:0,0:0:0:0:
215,284,247047,6,0,B|227:271|227:271|203:246|203:246|214:282,1,90.4799994477539,4|0,1:2|0:0,0:0:0:0:
264,144,247399,6,0,B|281:148|281:148|291:115|291:115|265:142,1,90.4799994477539,0|0,1:0|0:0,0:0:0:0:
392,49,247752,6,0,B|396:67|396:67|433:61|433:61|393:49,1,96.5700023576661,8|0,0:0|0:0,0:0:0:0:
388,76,248105,1,0,0:0:0:0:
232,6,248282,5,2,3:2:0:0:
287,17,248458,6,0,B|296:26|289:39|289:39|266:9|214:4,1,90.4799994477539,2|0,1:2|0:0,0:0:0:0:
117,82,248811,2,0,B|130:78|138:90|138:90|100:96|72:140,1,90.4799994477539,0|0,1:0|0:0,0:0:0:0:
66,120,249076,1,0,0:0:0:0:
154,175,249164,6,0,P|106:97|46:30,1,180.959998895508,8|0,0:0|0:0,0:0:0:0:
0,359,249870,6,0,P|36:333|79:322,1,90.4799994477539,2|0,1:2|1:0,0:0:0:0:
223,204,250223,2,0,P|266:216|301:244,1,90.4799994477539,2|0,1:2|0:0,0:0:0:0:
465,362,250576,2,0,B|450:352|450:352|381:374,1,90.4799994477539,8|0,0:0|0:0,0:0:0:0:
510,300,250929,1,2,0:0:0:0:
381,374,251105,1,0,1:0:0:0:
330,323,251282,1,2,0:0:0:0:
376,260,251458,1,8,0:0:0:0:
254,146,251635,6,0,B|236:130|256:100|346:149|303:227,1,135.719999171631,0|0,1:0|0:0,0:0:0:0:
217,309,251988,6,0,B|212:332|176:330|173:227|262:226,1,135.719999171631,12|0,0:0|0:0,0:0:0:0:
376,260,252341,6,0,B|398:252|414:284|327:338|281:261,1,135.719999171631,8|0,0:0|0:0,0:0:0:0:
311,206,252694,5,0,0:0:0:0:
485,65,257282,5,0,1:2:0:0:
354,120,257635,5,8,0:0:0:0:
485,65,257988,5,0,1:2:0:0:
354,120,258341,5,4,1:0:0:0:
408,241,258518,1,2,0:0:0:0:
273,291,258694,5,2,0:0:0:0:
234,205,258871,1,2,0:0:0:0:
396,344,259047,2,0,B|357:357|331:328|331:328|318:294|280:298,1,135.719999171631,8|0,0:0|0:0,0:0:0:0:
275,302,259399,2,0,P|240:340|197:341,1,90.4799994477539,2|0,0:0|1:0,0:0:0:0:
102,250,259752,6,0,P|143:204|222:220,1,135.719999171631,2|0,1:2|0:0,0:0:0:0:
171,273,260105,2,0,L|126:121,1,135.719999171631,0|0,1:0|0:0,0:0:0:0:
70,105,260458,2,0,B|116:128|155:89|145:87|173:38|235:54,1,180.959998895508,8|2,0:0|0:0,0:0:0:0:
460,159,261164,5,2,1:2:0:0:
499,60,261341,1,0,1:2:0:0:
349,139,261517,5,2,1:2:0:0:
383,214,261694,1,2,0:0:0:0:
405,10,261870,6,0,B|423:-5|450:17|390:100|318:48,1,135.719999171631,8|0,0:0|0:0,0:0:0:0:
324,55,262223,2,0,P|286:26|231:30,1,90.4799994477539,2|0,0:0|1:0,0:0:0:0:
85,114,262576,5,2,1:2:0:0:
116,185,262752,1,8,0:0:0:0:
197,169,262929,1,0,1:0:0:0:
197,169,263282,6,0,P|238:224|217:299,1,135.719999171631,8|0,0:0|0:0,0:0:0:0:
219,297,263635,2,0,P|185:345|191:375,1,90.4799994477539,6|0,0:0|0:0,0:0:0:0:
370,359,263988,6,0,B|358:379|386:401|456:326|389:266,1,135.719999171631,2|0,1:2|0:0,0:0:0:0:
347,237,264341,2,0,P|322:214|351:126,1,135.719999171631,2|0,1:2|0:0,0:0:0:0:
494,70,264694,2,0,B|445:88|426:129|426:129|425:85|376:48,1,180.959998895508,8|2,0:0|0:0,0:0:0:0:
309,64,265223,1,0,1:0:0:0:
196,120,265399,5,2,1:2:0:0:
153,17,265576,1,2,0:0:0:0:
42,112,265752,5,0,1:0:0:0:
13,191,265929,1,2,0:0:0:0:
13,191,266017,1,2,0:0:0:0:
13,191,266105,2,0,B|50:171|79:203|72:204|96:236|143:224,1,135.719999171631,10|0,0:0|0:0,0:0:0:0:
149,222,266458,2,0,P|197:204|252:189,1,90.4799994477539,2|0,0:0|0:0,0:0:0:0:
418,89,266811,5,2,1:2:0:0:
478,151,266988,1,0,1:0:0:0:
432,228,267164,2,0,P|418:274|439:317,1,90.4799994477539,2|0,1:2|0:0,0:0:0:0:
510,379,267517,6,0,P|453:358|323:318,1,180.959998895508,8|2,0:0|0:0,0:0:0:0:
252,358,268047,1,0,1:0:0:0:
88,267,268223,5,2,1:2:0:0:
145,366,268399,1,8,0:0:0:0:
81,256,268576,2,0,P|100:191|127:108,1,135.719999171631,4|0,1:2|0:0,0:0:0:0:
124,113,268929,2,0,P|171:103|192:59,1,90.4799994477539,8|0,0:0|1:0,0:0:0:0:
4,32,269282,2,0,B|47:32|70:-1|70:-1|52:25|59:62,1,135.719999171631,12|0,1:2|0:0,0:0:0:0:
65,68,269635,5,6,1:2:0:0:
180,180,269811,1,2,0:0:0:0:
266,15,269988,5,2,1:2:0:0:
191,68,270164,1,2,0:0:0:0:
325,127,270341,2,0,B|359:142|376:171|376:171|382:139|414:110,1,135.719999171631,8|0,0:0|0:0,0:0:0:0:
419,104,270694,2,0,P|458:68|513:75,1,90.4799994477539,2|0,0:0|1:0,0:0:0:0:
469,259,271047,6,0,P|411:257|385:178,1,135.719999171631,2|0,1:2|0:0,0:0:0:0:
409,114,271399,2,0,B|375:99|358:70|358:70|352:102|320:131,1,135.719999171631,2|0,1:2|0:0,0:0:0:0:
298,209,271752,2,0,B|249:226|230:268|230:268|229:223|180:186,1,180.959998895508,8|0,0:0|0:0,0:0:0:0:
91,17,272458,5,2,1:2:0:0:
41,110,272635,1,0,1:2:0:0:
187,193,272811,5,2,1:2:0:0:
149,116,272988,1,2,0:0:0:0:
64,259,273164,6,0,B|101:239|130:271|123:272|147:304|194:292,1,135.719999171631,8|0,0:0|0:0,0:0:0:0:
198,286,273517,2,0,B|230:252|230:252|298:267,1,90.4799994477539,2|0,0:0|1:0,0:0:0:0:
458,356,273870,5,2,1:2:0:0:
370,254,274047,1,8,0:0:0:0:
464,362,274223,2,0,P|482:302|506:228,1,135.719999171631,0|0,1:0|0:0,0:0:0:0:
500,219,274576,2,0,L|472:121,1,90.4799994477539,8|2,0:0|0:0,0:0:0:0:
363,90,274929,6,0,P|426:74|439:8,1,135.719999171631,2|0,1:2|0:0,0:0:0:0:
286,60,275282,6,0,B|251:50|219:72|230:82|201:111|153:97,1,135.719999171631,6|0,1:2|0:0,0:0:0:0:
75,78,275635,2,0,B|63:58|91:36|161:111|94:171,1,135.719999171631,2|0,1:2|0:0,0:0:0:0:
45,210,275988,2,0,P|6:267|40:336,1,135.719999171631,8|0,0:0|0:0,0:0:0:0:
35,335,276341,1,2,0:0:0:0:
193,268,276517,1,0,1:0:0:0:
238,343,276694,6,0,P|275:289|250:208,1,135.719999171631,2|0,1:2|0:0,0:0:0:0:
192,191,277047,2,0,P|155:137|180:56,1,135.719999171631,2|0,1:2|0:0,0:0:0:0:
237,27,277399,2,0,B|293:8|329:48|329:48|348:96|401:91,1,180.959998895508,8|2,0:0|0:0,0:0:0:0:
424,305,278105,5,2,1:2:0:0:
489,204,278282,1,0,1:0:0:0:
342,155,278458,5,2,1:2:0:0:
385,227,278635,1,2,0:0:0:0:
466,83,278811,6,0,P|417:23|356:23,1,135.719999171631,8|0,0:0|0:0,0:0:0:0:
353,30,279164,2,0,P|319:64|261:65,1,90.4799994477539,2|0,0:0|1:2,0:0:0:0:
67,6,279517,5,2,1:2:0:0:
19,65,279694,1,8,0:0:0:0:
62,134,279870,1,0,1:0:0:0:
62,134,280223,6,0,B|14:173|79:193|63:132,1,90.4799994477539,12|0,0:0|1:0,0:0:0:0:
113,73,280576,1,8,0:0:0:0:
215,152,280752,1,0,1:0:0:0:
274,110,280929,5,8,0:2:0:0:
286,115,281105,1,0,1:0:0:0:
371,240,281282,5,8,0:2:0:0:
383,235,281458,1,0,1:0:0:0:
294,197,281635,5,0,0:0:0:0:
100,332,282341,5,8,0:0:0:0:
166,369,282694,1,8,0:0:0:0:
168,380,282870,1,0,1:0:0:0:
228,333,283047,1,0,0:0:0:0:
22,32,283752,5,8,0:0:0:0:
93,0,284105,1,8,0:0:0:0:
26,42,284282,1,0,1:0:0:0:
98,9,284458,1,0,0:0:0:0:
420,264,285164,5,8,0:0:0:0:
363,317,285341,1,0,1:0:0:0:
379,200,285517,5,8,0:0:0:0:
371,194,285694,1,0,1:0:0:0:
351,323,285870,5,0,0:0:0:0:
501,27,286576,5,8,0:0:0:0:
490,31,286752,1,0,1:0:0:0:
420,61,286929,5,8,0:0:0:0:
409,65,287105,1,0,1:0:0:0:
337,96,287282,5,0,0:0:0:0:
219,291,287988,5,8,0:0:0:0:
136,326,288341,5,8,0:0:0:0:
124,322,288517,1,0,1:0:0:0:
185,383,288694,5,0,0:0:0:0:
500,373,289399,5,8,0:0:0:0:
447,315,289752,1,8,0:0:0:0:
488,383,289929,1,0,1:0:0:0:
465,307,290105,1,0,0:0:0:0:
109,40,290811,5,8,0:0:0:0:
61,101,290988,1,0,1:0:0:0:
105,163,291164,1,8,0:0:0:0:
65,229,291341,1,0,1:0:0:0:
