osu file format v14

[General]
AudioFilename: audio.mp3
AudioLeadIn: 0
PreviewTime: 44411
Countdown: 0
SampleSet: Soft
StackLeniency: 0.7
Mode: 2
LetterboxInBreaks: 0
WidescreenStoryboard: 0

[Editor]
Bookmarks: 19611
DistanceSpacing: 1.5
BeatDivisor: 3
GridSize: 8
TimelineZoom: 2.6

[Metadata]
Title:Kamiiro Awase
TitleUnicode:カミイロアワセ
Artist:binaria
ArtistUnicode:binaria
Creator:celerih
Version:exam's Rain
Source:ダンガンロンパ3-The End of 希望ヶ峰学園- 絶望編
Tags:danganronpa hope's peak academy side despair tv size opening yanaginagi やなぎなぎ Annabel Sinnoh examination Yumeno Himiko ZiRoX
BeatmapID:1343316
BeatmapSetID:632884

[Difficulty]
HPDrainRate:6
CircleSize:4
OverallDifficulty:9
ApproachRate:9
SliderMultiplier:1.92
SliderTickRate:1

[Events]
//Background and Video events
0,0,"exam.jpg",0,0
//Break Periods
//Storyboard Layer 0 (Background)
//Storyboard Layer 1 (Fail)
//Storyboard Layer 2 (Pass)
//Storyboard Layer 3 (Foreground)
//Storyboard Sound Samples

[TimingPoints]
411,400,4,2,1,50,1,0
6811,-100,4,2,1,70,0,0
20611,-100,4,2,1,5,0,0
20811,-100,4,2,1,70,0,0
23811,-100,4,2,1,5,0,0
24011,-100,4,2,1,70,0,0
27011,-100,4,2,1,5,0,0
27211,-100,4,2,1,70,0,0
30211,-100,4,2,1,5,0,0
30411,-100,4,2,1,70,0,0
32411,-100,4,2,1,50,0,0
45211,-100,4,2,1,80,0,1
58011,-66.6666666666667,4,2,1,80,0,1
59386,400,4,2,1,80,1,1
59386,-66.6666666666667,4,2,1,80,0,1
60211,400,4,2,1,80,1,1
60211,-66.6666666666667,4,2,1,80,0,1
61211,400,4,2,1,80,1,1
62011,-83.3333333333333,4,2,1,80,0,1
62411,-100,4,2,1,80,0,1
66011,-83.3333333333333,4,2,1,80,0,1
66411,-100,4,2,1,80,0,1
67611,-83.3333333333333,4,2,1,80,0,1
68011,-100,4,2,1,80,0,1
70711,-100,4,2,1,80,0,0
70811,-83.3333333333333,4,2,1,80,0,1
76386,400,4,2,1,80,1,1
76986,352.941176470588,4,2,1,80,1,1
77186,400,4,2,1,80,1,1
77186,-83.3333333333333,4,2,1,80,0,1
83611,400,4,2,1,70,1,0
86486,400,4,2,1,50,1,0

[Colours]
Combo1 : 254,232,71
Combo2 : 254,112,197
Combo3 : 96,255,255
Combo4 : 73,89,108

[HitObjects]
80,112,411,5,2,0:0:0:0:
208,112,677,1,0,0:0:0:0:
80,112,944,1,0,0:0:0:0:
304,112,1211,1,2,0:0:0:0:
208,112,1477,1,0,0:0:0:0:
432,112,1744,1,0,0:0:0:0:
208,112,2011,5,2,0:0:0:0:
304,112,2277,1,0,0:0:0:0:
80,112,2544,1,0,0:0:0:0:
432,112,2811,1,2,0:0:0:0:
80,272,3611,5,2,0:0:0:0:
208,272,3877,1,0,0:0:0:0:
80,272,4144,1,0,0:0:0:0:
304,272,4411,1,2,0:0:0:0:
208,272,4677,1,0,0:0:0:0:
432,272,4944,1,0,0:0:0:0:
304,272,5511,5,2,0:0:0:0:
144,111,6811,6,0,L|240:112,1,96,8|0,0:3|0:0,0:0:0:0:
224,160,7111,1,0,0:0:0:0:
208,208,7211,1,0,0:0:0:0:
400,208,7411,1,8,0:3:0:0:
64,208,8011,1,2,0:0:0:0:
256,208,8411,6,0,L|368:208,1,96,10|10,0:3|0:3,0:0:0:0:
336,144,8711,1,0,0:0:0:0:
320,80,8811,1,0,0:0:0:0:
128,80,9011,1,8,0:3:0:0:
416,80,9411,2,0,L|432:160,1,48,8|8,0:3|0:3,0:0:0:0:
256,128,9611,1,8,0:0:0:0:
48,128,10011,6,0,L|16:240,1,96,8|0,0:3|0:0,0:0:0:0:
80,208,10311,1,0,0:0:0:0:
137,194,10411,1,0,0:0:0:0:
336,192,10611,1,8,0:3:0:0:
32,192,11211,1,2,0:0:0:0:
336,128,11611,6,0,L|368:240,1,96,10|10,0:3|0:3,0:0:0:0:
304,208,11911,1,0,0:0:0:0:
247,194,12011,1,0,0:0:0:0:
432,192,12211,1,8,0:3:0:0:
128,192,12611,2,0,L|112:256,1,48,8|8,0:3|0:3,0:0:0:0:
288,240,12811,1,8,0:0:0:0:
480,112,13211,6,0,L|352:112,1,96,8|0,0:3|0:0,0:0:0:0:
416,160,13511,1,0,0:0:0:0:
448,208,13611,1,0,0:0:0:0:
256,208,13811,1,8,0:3:0:0:
448,208,14411,1,2,0:0:0:0:
128,112,14811,6,0,L|256:112,1,96,10|10,0:3|0:3,0:0:0:0:
192,160,15111,1,0,0:0:0:0:
160,208,15211,1,0,0:0:0:0:
352,208,15411,1,8,0:3:0:0:
80,208,15811,2,0,L|96:144,1,48,8|8,0:3|0:3,0:0:0:0:
256,160,16011,1,8,0:0:0:0:
432,208,16211,2,0,L|416:162,1,48
256,192,16411,6,0,L|288:304,1,96,8|0,0:3|0:0,0:0:0:0:
224,304,16711,1,0,0:0:0:0:
160,320,16811,1,0,0:0:0:0:
352,320,17011,1,8,0:3:0:0:
32,320,17611,1,2,0:0:0:0:
320,144,18011,6,0,L|224:144,1,96,10|10,0:3|0:3,0:0:0:0:
256,208,18311,1,0,0:0:0:0:
288,272,18411,1,0,0:0:0:0:
96,272,18611,1,8,0:3:0:0:
368,272,19011,2,0,L|352:224,1,48,8|8,0:3|0:3,0:0:0:0:
176,272,19211,1,8,0:0:0:0:
464,272,19611,5,8,0:3:0:0:
467,224,19711,1,0,0:0:0:0:
471,176,19811,1,0,0:0:0:0:
475,128,19911,1,0,0:0:0:0:
479,80,20011,1,0,0:0:0:0:
288,80,20211,2,0,L|96:80,1,192,8|0,0:3|0:0,0:0:0:0:
208,192,20811,2,0,L|96:192,1,96,2|0,0:0|0:0,0:0:0:0:
384,128,21211,5,10,0:3:0:0:
391,175,21311,1,0,0:0:0:0:
399,222,21411,1,10,0:3:0:0:
407,270,21511,1,0,0:0:0:0:
415,317,21611,1,0,0:0:0:0:
224,320,21811,2,0,L|416:320,1,192,8|8,0:3|0:3,0:0:0:0:
368,240,22311,1,8,0:3:0:0:
192,240,22411,1,8,0:0:0:0:
416,112,22811,5,8,0:3:0:0:
368,112,22911,1,0,0:0:0:0:
320,112,23011,1,0,0:0:0:0:
272,112,23111,1,0,0:0:0:0:
224,112,23211,1,0,0:0:0:0:
80,112,23411,2,0,L|272:112,1,192,8|0,0:3|0:0,0:0:0:0:
128,208,24011,2,0,L|32:208,1,96,2|0,0:0|0:0,0:0:0:0:
304,288,24411,5,10,0:3:0:0:
352,288,24511,1,0,0:0:0:0:
400,288,24611,1,10,0:3:0:0:
448,288,24711,1,0,0:0:0:0:
496,288,24811,1,0,0:0:0:0:
352,192,25011,2,0,L|160:192,1,192,8|8,0:3|0:3,0:0:0:0:
208,112,25511,1,8,0:3:0:0:
384,112,25611,1,8,0:0:0:0:
176,112,26011,5,8,0:3:0:0:
168,159,26111,1,0,0:0:0:0:
160,206,26211,1,0,0:0:0:0:
152,254,26311,1,0,0:0:0:0:
144,301,26411,1,0,0:0:0:0:
336,304,26611,2,0,L|128:304,1,192,8|0,0:3|0:0,0:0:0:0:
288,208,27211,2,0,L|400:208,1,96,2|0,0:0|0:0,0:0:0:0:
48,96,27611,5,10,0:3:0:0:
51,143,27711,1,0,0:0:0:0:
55,191,27811,1,10,0:3:0:0:
59,239,27911,1,0,0:0:0:0:
63,287,28011,1,0,0:0:0:0:
256,288,28211,2,0,L|464:288,1,192,8|8,0:3|0:3,0:0:0:0:
384,208,28711,1,8,0:3:0:0:
208,208,28811,1,8,0:0:0:0:
480,96,29211,5,8,0:3:0:0:
416,96,29311,1,0,0:0:0:0:
384,96,29411,1,0,0:0:0:0:
416,96,29511,1,0,0:0:0:0:
480,96,29611,1,0,0:0:0:0:
336,192,29811,2,0,L|128:192,1,192,8|0,0:3|0:0,0:0:0:0:
288,272,30411,2,0,L|384:272,1,96,2|2,0:0|0:0,0:0:0:0:
112,96,30811,5,10,0:3:0:0:
48,96,30911,1,0,0:0:0:0:
16,96,31011,1,10,0:3:0:0:
48,96,31111,1,0,0:0:0:0:
112,96,31211,1,0,0:0:0:0:
272,96,31411,2,0,L|480:96,1,192,8|8,0:3|0:3,0:0:0:0:
384,160,31911,1,8,0:3:0:0:
176,160,32011,1,8,0:0:0:0:
400,112,32411,5,8,0:3:0:0:
465,178,32611,1,0,0:0:0:0:
443,267,32811,1,8,0:3:0:0:
304,288,33011,1,8,0:3:0:0:
160,272,33211,2,0,P|128:208|208:112,1,192,0|0,0:0|0:0,0:0:0:0:
448,112,34011,5,8,0:3:0:0:
176,112,34211,2,0,L|80:160,2,96,8|8|8,0:3|0:3|0:3,0:0:0:0:
320,112,34811,2,0,P|352:160|256:256,1,192,0|0,0:0|0:0,0:0:0:0:
48,256,35611,5,8,0:3:0:0:
320,256,35811,2,0,L|416:192,2,96,8|8|8,0:3|0:3|0:3,0:0:0:0:
176,256,36411,2,0,P|144:192|224:96,1,192,0|0,0:0|0:0,0:0:0:0:
336,96,37011,1,8,0:3:0:0:
128,96,37211,5,8,0:3:0:0:
336,96,37611,2,0,L|352:192,1,96,8|8,0:3|0:3,0:0:0:0:
176,96,38011,2,0,L|160:192,1,96,8|0,0:3|0:0,0:0:0:0:
432,96,38411,1,8,0:3:0:0:
256,96,38611,1,8,0:3:0:0:
192,96,38711,1,8,0:3:0:0:
128,96,38811,6,0,P|64:96|64:224,1,192,8|8,0:3|0:3,0:0:0:0:
176,192,39411,1,8,0:3:0:0:
304,224,39611,2,0,P|304:272|176:336,1,192,0|0,0:0|0:0,0:0:0:0:
448,336,40411,5,8,0:3:0:0:
176,336,40611,1,8,0:3:0:0:
112,288,40811,1,8,0:3:0:0:
112,208,41011,1,8,0:3:0:0:
288,144,41211,2,0,P|368:192|320:256,1,192,0|0,0:0|0:0,0:0:0:0:
64,192,42011,5,2,0:0:0:0:
352,192,42811,5,2,0:0:0:0:
128,192,43611,5,2,0:0:0:0:
432,144,44411,6,0,L|304:144,1,96,0|0,0:0|0:0,0:0:0:0:
176,144,44811,1,0,0:0:0:0:
224,144,44911,1,0,0:0:0:0:
272,144,45011,1,0,0:0:0:0:
320,144,45111,1,0,0:0:0:0:
80,144,45211,6,0,L|48:240,1,96,12|0,0:1|0:0,0:0:0:0:
224,224,45611,2,0,L|352:208,1,96,8|0,0:0|0:0,0:0:0:0:
272,144,45911,1,8,0:0:0:0:
112,144,46011,2,0,L|16:128,1,96,0|8,0:0|0:3,0:0:0:0:
64,64,46311,1,0,0:0:0:0:
256,64,46411,1,0,0:0:0:0:
416,144,46611,5,0,0:0:0:0:
368,144,46711,1,0,0:0:0:0:
320,144,46811,1,8,0:3:0:0:
272,144,46911,1,0,0:0:0:0:
224,144,47011,1,8,0:3:0:0:
368,224,47211,2,0,L|416:224,1,48,8|0,0:0|0:0,0:0:0:0:
256,288,47411,2,0,L|128:288,1,96,0|0,0:0|0:0,0:0:0:0:
336,288,47811,1,8,0:3:0:0:
64,288,48011,2,0,L|32:192,1,96,8|0,0:0|0:0,0:0:0:0:
96,128,48311,1,0,0:0:0:0:
352,96,48411,5,8,0:3:0:0:
390,123,48511,1,0,0:0:0:0:
403,169,48611,1,0,0:0:0:0:
386,213,48711,1,8,0:3:0:0:
224,224,48811,2,0,L|144:153,1,96,8|0,0:0|0:0,0:0:0:0:
336,128,49211,1,0,0:0:0:0:
160,128,49411,1,8,0:3:0:0:
352,128,49611,1,8,0:0:0:0:
80,128,49811,6,0,L|48:240,1,96,0|8,0:0|0:3,0:0:0:0:
224,224,50211,1,8,0:3:0:0:
272,224,50311,1,0,0:0:0:0:
320,224,50411,1,8,0:0:0:0:
176,224,50611,2,0,L|112:224,1,48,8|8,0:3|0:3,0:0:0:0:
384,112,50811,5,8,0:0:0:0:
422,138,50911,1,0,0:0:0:0:
433,184,51011,1,8,0:3:0:0:
411,225,51111,1,8,0:3:0:0:
224,208,51211,1,8,0:0:0:0:
176,198,51311,1,8,0:0:0:0:
129,189,51411,1,8,0:0:0:0:
82,179,51511,1,0,0:0:0:0:
256,96,51611,6,0,L|368:112,1,96,8|0,0:3|0:0,0:0:0:0:
304,160,51911,1,8,0:3:0:0:
129,189,52011,2,0,L|32:208,1,96,8|0,0:0|0:0,0:0:0:0:
80,256,52311,1,8,0:0:0:0:
320,272,52411,6,0,L|432:272,1,96,0|0,0:0|0:0,0:0:0:0:
368,208,52711,1,0,0:0:0:0:
208,208,52811,1,8,0:0:0:0:
368,208,53011,2,0,L|400:144,1,48,0|0,0:0|0:0,0:0:0:0:
160,144,53211,5,8,0:3:0:0:
96,144,53311,1,0,0:0:0:0:
64,144,53411,1,0,0:0:0:0:
96,144,53511,1,0,0:0:0:0:
160,144,53611,1,8,0:0:0:0:
352,144,53811,2,0,L|160:144,1,192,8|8,0:0|0:3,0:0:0:0:
208,192,54311,1,0,0:0:0:0:
304,272,54411,1,8,0:0:0:0:
160,272,54611,1,0,0:0:0:0:
448,192,54811,6,0,L|320:192,1,96,8|0,0:3|0:0,0:0:0:0:
160,192,55211,1,8,0:0:0:0:
272,192,55411,2,0,L|336:192,1,48,0|8,0:0|0:0,0:0:0:0:
128,240,55611,6,0,L|32:240,2,96,0|8|8,0:0|0:3|0:0,0:0:0:0:
272,192,56211,2,0,L|320:192,1,48,0|0,0:0|0:0,0:0:0:0:
112,192,56411,6,0,L|80:96,1,96,8|0,0:3|0:0,0:0:0:0:
400,192,56811,2,0,L|432:96,1,96,8|0,0:0|0:0,0:0:0:0:
240,192,57211,2,0,L|176:176,1,48,8|8,0:3|0:0,0:0:0:0:
288,192,57411,2,0,L|352:176,1,48,8|8,0:0|0:0,0:0:0:0:
224,144,57611,2,0,L|160:128,1,48,8|8,0:0|0:0,0:0:0:0:
272,144,57811,2,0,L|336:128,1,48,8|8,0:0|0:0,0:0:0:0:
112,80,58011,6,0,P|64:144|128:224,1,144.000005493164,12|0,0:1|0:0,0:0:0:0:
320,160,58311,2,0,P|368:224|320:288,1,144.000005493164,12|0,0:1|0:0,0:0:0:0:
48,288,58611,1,12,0:1:0:0:
256,288,59011,1,2,0:3:0:0:
304,272,59111,1,2,0:3:0:0:
352,256,59211,1,2,0:3:0:0:
400,240,59311,1,2,0:3:0:0:
160,112,59386,6,0,P|48:160|160:240,1,288.000010986329,12|0,0:1|0:0,0:0:0:0:
272,112,59986,1,8,0:0:0:0:
114,307,60211,6,0,P|32:224|96:80,1,288.000010986329,8|8,0:0|0:0,0:0:0:0:
256,128,60811,1,0,0:0:0:0:
303,132,60911,1,0,0:0:0:0:
351,136,61011,1,8,0:3:0:0:
399,141,61111,1,0,0:0:0:0:
160,192,61211,6,0,L|48:224,1,96,12|8,0:1|0:3,0:0:0:0:
112,256,61511,1,0,0:0:0:0:
304,256,61611,2,0,L|368:256,1,48,8|0,0:0|0:0,0:0:0:0:
256,160,61811,2,0,L|176:160,1,48,0|8,0:0|0:0,0:0:0:0:
304,80,62011,2,0,L|448:80,2,115.199996484375,0|8|8,0:0|0:3|0:0,0:0:0:0:
16,80,62611,6,0,L|208:80,1,192,0|8,0:0|0:3,0:0:0:0:
48,176,63211,5,8,0:0:0:0:
96,176,63311,1,0,0:0:0:0:
144,176,63411,1,0,0:0:0:0:
192,176,63511,1,0,0:0:0:0:
288,176,63611,1,8,0:0:0:0:
240,176,63711,1,0,0:0:0:0:
192,176,63811,1,8,0:3:0:0:
144,176,63911,1,0,0:0:0:0:
48,176,64011,1,8,0:0:0:0:
96,176,64111,1,8,0:0:0:0:
144,176,64211,1,8,0:0:0:0:
192,176,64311,1,8,0:0:0:0:
368,176,64411,6,0,L|416:288,1,96,12|0,0:1|0:0,0:0:0:0:
336,272,64711,1,0,0:0:0:0:
112,272,64811,2,0,L|64:160,1,96,8|0,0:0|0:0,0:0:0:0:
144,176,65111,1,8,0:0:0:0:
336,112,65211,2,0,L|352:224,1,96,0|8,0:0|0:3,0:0:0:0:
176,112,65611,2,0,L|160:224,1,96,8|0,0:0|0:0,0:0:0:0:
432,288,66011,6,0,L|288:288,2,115.199996484375,8|0|8,0:3|0:0|0:0,0:0:0:0:
432,192,66611,2,0,L|384:192,1,48,0|8,0:0|0:0,0:0:0:0:
128,192,66811,1,8,0:0:0:0:
88,217,66911,1,0,0:0:0:0:
81,263,67011,1,8,0:3:0:0:
111,298,67111,1,0,0:0:0:0:
288,304,67211,1,8,0:0:0:0:
336,304,67311,1,0,0:0:0:0:
384,304,67411,1,0,0:0:0:0:
432,304,67511,1,0,0:0:0:0:
128,176,67611,6,0,L|256:176,2,115.199996484375,8|0|8,0:3|0:0|0:0,0:0:0:0:
48,64,68211,2,0,L|96:64,1,48,0|8,0:0|0:0,0:0:0:0:
384,80,68411,2,0,L|416:192,1,96,0|8,0:0|0:3,0:0:0:0:
352,192,68711,1,0,0:0:0:0:
144,224,68811,2,0,L|48:240,1,96,8|0,0:0|0:0,0:0:0:0:
96,288,69111,1,0,0:0:0:0:
320,288,69211,6,0,L|432:288,1,96,8|8,0:3|0:3,0:0:0:0:
48,288,69611,1,12,0:0:0:0:
336,192,70011,2,0,L|400:176,1,48,8|0,0:3|0:0,0:0:0:0:
288,192,70211,2,0,L|224:176,1,48,8|0,0:0|0:0,0:0:0:0:
352,144,70411,2,0,L|416:128,1,48,8|0,0:3|0:0,0:0:0:0:
304,144,70611,2,0,L|240:128,1,48,8|0,0:0|0:0,0:0:0:0:
464,144,70811,5,12,0:1:0:0:
474,200,70911,1,0,0:0:0:0:
484,257,71011,1,0,0:0:0:0:
494,314,71111,1,0,0:0:0:0:
409,158,71211,1,8,0:0:0:0:
399,214,71311,1,0,0:0:0:0:
389,271,71411,1,0,0:0:0:0:
379,328,71511,1,0,0:0:0:0:
293,272,71611,6,0,L|277:208,1,57.5999982421876,8|0,0:3|0:0,0:0:0:0:
192,196,71811,2,0,L|176:116,1,57.5999982421876,8|0,0:3|0:0,0:0:0:0:
94,145,72011,1,8,0:0:0:0:
84,201,72111,1,0,0:0:0:0:
74,258,72211,1,0,0:0:0:0:
64,315,72311,1,0,0:0:0:0:
289,136,72411,5,8,0:3:0:0:
296,193,72511,1,0,0:0:0:0:
303,250,72611,1,0,0:0:0:0:
310,307,72711,1,0,0:0:0:0:
223,136,72811,1,8,0:0:0:0:
216,193,72911,1,0,0:0:0:0:
209,250,73011,1,0,0:0:0:0:
202,307,73111,1,0,0:0:0:0:
289,136,73211,6,0,L|298:208,1,57.5999982421876,8|0,0:3|0:0,0:0:0:0:
223,136,73411,2,0,L|214:208,1,57.5999982421876,8|0,0:3|0:0,0:0:0:0:
291,137,73611,1,8,0:0:0:0:
346,150,73711,1,0,0:0:0:0:
402,164,73811,1,0,0:0:0:0:
458,177,73911,1,0,0:0:0:0:
252,196,74011,5,12,0:1:0:0:
195,205,74111,1,0,0:0:0:0:
138,214,74211,1,0,0:0:0:0:
81,223,74311,1,0,0:0:0:0:
138,214,74411,1,8,0:0:0:0:
194,223,74511,1,0,0:0:0:0:
251,232,74611,1,0,0:0:0:0:
308,241,74711,1,0,0:0:0:0:
251,232,74811,6,0,L|180:260,1,57.5999982421876,8|0,0:3|0:0,0:0:0:0:
275,289,75011,2,0,L|341:311,1,57.5999982421876,8|0,0:3|0:0,0:0:0:0:
251,232,75211,1,8,0:0:0:0:
194,241,75311,1,0,0:0:0:0:
138,251,75411,1,0,0:0:0:0:
81,260,75511,1,0,0:0:0:0:
260,196,75611,5,8,0:3:0:0:
317,205,75711,1,0,0:0:0:0:
374,214,75811,1,0,0:0:0:0:
431,223,75911,1,0,0:0:0:0:
374,214,76011,1,8,0:0:0:0:
318,223,76111,1,0,0:0:0:0:
261,232,76211,1,0,0:0:0:0:
204,241,76311,1,0,0:0:0:0:
261,232,76386,6,0,L|320:224,1,48,0|8,0:3|0:0,0:0:0:0:
128,240,76586,1,0,0:3:0:0:
240,240,76786,1,8,0:0:0:0:
128,240,76986,2,0,L|96:176,1,48,8|8,0:3|0:3,0:0:0:0:
320,112,77186,5,12,0:1:0:0:
376,122,77286,1,0,0:0:0:0:
433,132,77386,1,0,0:0:0:0:
490,142,77486,1,0,0:0:0:0:
433,132,77586,1,8,0:0:0:0:
376,142,77686,1,0,0:0:0:0:
319,152,77786,1,0,0:0:0:0:
262,162,77886,1,0,0:0:0:0:
319,152,77986,6,0,L|384:176,1,57.5999982421876,8|0,0:3|0:0,0:0:0:0:
288,208,78186,2,0,L|223:232,1,57.5999982421876,8|0,0:3|0:0,0:0:0:0:
320,112,78386,1,8,0:0:0:0:
376,122,78486,1,0,0:0:0:0:
433,132,78586,1,0,0:0:0:0:
490,142,78686,1,0,0:0:0:0:
433,132,78786,5,8,0:3:0:0:
376,142,78886,1,0,0:0:0:0:
319,152,78986,1,0,0:0:0:0:
262,162,79086,1,0,0:0:0:0:
319,152,79186,2,0,L|384:176,1,57.5999982421876,8|0,0:0|0:0,0:0:0:0:
288,208,79386,2,0,L|223:232,1,57.5999982421876,0|0,0:0|0:0,0:0:0:0:
336,272,79586,2,0,L|432:336,2,115.199996484375,8|8|8,0:3|0:3|0:0,0:0:0:0:
160,272,80186,2,0,L|96:272,1,57.5999982421876,0|0,0:0|0:0,0:0:0:0:
262,112,80386,5,12,0:1:0:0:
320,112,80486,1,0,0:0:0:0:
378,112,80586,1,0,0:0:0:0:
435,112,80686,1,0,0:0:0:0:
377,112,80786,1,0,0:0:0:0:
320,112,80886,1,0,0:0:0:0:
262,112,80986,1,0,0:0:0:0:
205,112,81086,1,8,0:0:0:0:
262,112,81186,6,0,L|320:112,1,57.5999982421876,8|0,0:3|0:0,0:0:0:0:
256,112,81386,2,0,L|199:112,1,57.5999982421876,8|0,0:3|0:0,0:0:0:0:
319,112,81586,1,8,0:0:0:0:
144,112,81786,2,0,L|128:176,1,57.5999982421876,0|0,0:0|0:0,0:0:0:0:
336,112,81986,5,8,0:3:0:0:
384,144,82086,1,0,0:0:0:0:
432,176,82186,1,0,0:0:0:0:
480,208,82286,1,0,0:0:0:0:
424,224,82386,1,8,0:0:0:0:
368,240,82486,1,0,0:0:0:0:
312,256,82586,1,0,0:0:0:0:
256,272,82686,1,0,0:0:0:0:
200,296,82786,6,0,L|261:305,1,57.5999982421876,8|0,0:3|0:0,0:0:0:0:
192,296,82986,2,0,L|125:289,1,57.5999982421876
224,272,83186,2,0,L|285:281,1,57.5999982421876,0|2,0:0|0:3,0:0:0:0:
184,264,83386,2,0,L|117:257,1,57.5999982421876,2|2,0:3|0:3,0:0:0:0:
352,128,83611,6,0,L|384:256,1,96,8|0,0:3|0:0,0:0:0:0:
320,240,83911,1,0,0:0:0:0:
272,256,84011,1,8,0:0:0:0:
464,256,84211,1,8,0:3:0:0:
48,256,84811,1,8,0:0:0:0:
336,256,85211,6,0,L|208:256,1,96,8|0,0:3|0:0,0:0:0:0:
288,208,85511,1,0,0:0:0:0:
336,160,85611,1,8,0:0:0:0:
144,160,85811,1,8,0:3:0:0:
432,160,86211,1,8,0:3:0:0:
96,160,86411,5,8,0:0:0:0:
80,224,86486,1,8,0:0:0:0:
128,224,86586,1,8,0:0:0:0:
176,224,86686,1,8,0:0:0:0:
