osu file format v14

[General]
AudioFilename: audio.mp3
AudioLeadIn: 0
PreviewTime: 44411
Countdown: 0
SampleSet: Soft
StackLeniency: 0.7
Mode: 2
LetterboxInBreaks: 0
WidescreenStoryboard: 1

[Editor]
Bookmarks: 19611
DistanceSpacing: 1.5
BeatDivisor: 4
GridSize: 8
TimelineZoom: 2.6

[Metadata]
Title:Kamiiro Awase
TitleUnicode:カミイロアワセ
Artist:binaria
ArtistUnicode:binaria
Creator:celerih
Version:ZiRoX's Rain
Source:ダンガンロンパ3-The End of 希望ヶ峰学園- 絶望編
Tags:danganronpa hope's peak academy side despair tv size opening yanaginagi やなぎなぎ Annabel Sinnoh examination Yumeno Himiko ZiRoX
BeatmapID:1347025
BeatmapSetID:632884

[Difficulty]
HPDrainRate:5.5
CircleSize:3.8
OverallDifficulty:8.7
ApproachRate:8.7
SliderMultiplier:1.6
SliderTickRate:1

[Events]
//Background and Video events
0,0,"mck.jpg",0,0
//Break Periods
//Storyboard Layer 0 (Background)
//Storyboard Layer 1 (Fail)
//Storyboard Layer 2 (Pass)
//Storyboard Layer 3 (Foreground)
//Storyboard Sound Samples

[TimingPoints]
411,400,4,2,1,50,1,0
5511,-100,4,2,1,15,0,0
6811,-100,4,2,1,70,0,0
32411,-100,4,2,1,50,0,0
45211,-76.9230769230769,4,2,1,80,0,1
59386,400,4,2,1,80,1,1
60211,400,4,2,1,80,1,1
61211,400,4,2,1,80,1,1
70811,-100,4,2,1,80,0,1
76386,400,4,2,1,80,1,1
76986,352.941176470588,4,2,1,80,1,1
77186,400,4,2,1,80,1,1
83611,400,4,2,1,70,1,0
86486,400,4,2,1,50,1,0

[Colours]
Combo1 : 254,232,71
Combo2 : 254,112,197
Combo3 : 96,255,255
Combo4 : 73,89,108

[HitObjects]
344,280,411,6,0,L|472:280,2,106.666666666667,2|0|0,0:0|0:0|0:0,0:0:0:0:
200,280,1211,1,2,0:0:0:0:
304,280,1477,1,0,0:0:0:0:
408,280,1744,1,0,0:0:0:0:
272,280,2011,2,0,L|144:280,2,106.666666666667,2|0|0,0:0|0:0|0:0,0:0:0:0:
72,280,2811,1,2,0:0:0:0:
336,280,3611,6,0,L|230:280,2,106.666666666667,2|0|0,0:0|0:0|0:0,0:0:0:0:
176,280,4411,2,0,L|283:280,2,106.666666666667,2|0|0,0:0|0:0|0:0,0:0:0:0:
256,192,5511,12,0,6411,0:0:0:0:
360,272,6811,5,8,0:3:0:0:
407,254,6911,1,0,0:0:0:0:
431,209,7011,1,0,0:0:0:0:
420,159,7111,1,0,0:0:0:0:
378,130,7211,1,0,0:0:0:0:
88,128,7411,1,8,0:3:0:0:
256,128,7811,2,0,L|360:128,1,80,0|2,0:0|0:0,0:0:0:0:
104,128,8411,6,0,L|56:168,4,40,10|0|10|0|0,0:3|0:0|0:3|0:0|0:0,0:0:0:0:
368,128,9011,1,8,0:3:0:0:
192,128,9411,1,8,0:3:0:0:
482,126,9611,1,8,0:0:0:0:
216,272,10011,5,8,0:3:0:0:
169,254,10111,1,0,0:0:0:0:
145,209,10211,1,0,0:0:0:0:
156,159,10311,1,0,0:0:0:0:
198,130,10411,1,0,0:0:0:0:
488,136,10611,1,8,0:3:0:0:
352,192,11011,2,0,L|408:104,1,80,0|2,0:0|0:0,0:0:0:0:
168,136,11611,5,10,0:3:0:0:
220,136,11711,1,0,0:0:0:0:
272,136,11811,1,10,0:3:0:0:
324,136,11911,1,0,0:0:0:0:
376,136,12011,1,0,0:0:0:0:
112,136,12211,1,8,0:3:0:0:
296,136,12611,1,8,0:3:0:0:
32,136,12811,1,8,0:0:0:0:
288,128,13211,6,0,L|336:168,4,40,8|0|0|0|0,0:3|0:0|0:0|0:0|0:0,0:0:0:0:
24,128,13811,1,8,0:3:0:0:
192,128,14211,2,0,L|128:192,1,80,0|2,0:0|0:0,0:0:0:0:
432,272,14811,5,10,0:3:0:0:
479,254,14911,1,0,0:0:0:0:
503,209,15011,1,10,0:3:0:0:
492,159,15111,1,0,0:0:0:0:
450,130,15211,1,0,0:0:0:0:
160,128,15411,1,8,0:3:0:0:
336,128,15811,1,8,0:3:0:0:
46,126,16011,1,8,0:0:0:0:
328,128,16411,5,8,0:3:0:0:
276,128,16511,1,0,0:0:0:0:
224,128,16611,1,0,0:0:0:0:
172,128,16711,1,0,0:0:0:0:
120,128,16811,1,0,0:0:0:0:
408,128,17011,1,8,0:3:0:0:
216,128,17411,2,0,L|112:128,1,80,0|2,0:0|0:0,0:0:0:0:
408,272,18011,5,10,0:3:0:0:
377,230,18111,1,0,0:0:0:0:
378,179,18211,1,10,0:3:0:0:
410,139,18311,1,0,0:0:0:0:
460,127,18411,1,0,0:0:0:0:
168,128,18611,1,8,0:3:0:0:
328,128,19011,1,8,0:3:0:0:
38,126,19211,1,8,0:0:0:0:
336,128,19611,5,8,0:3:0:0:
208,128,19811,1,0,0:0:0:0:
152,128,19911,1,0,0:0:0:0:
96,128,20011,1,0,0:0:0:0:
224,128,20211,1,8,0:3:0:0:
488,128,20411,2,0,L|296:128,1,160,0|2,0:0|0:0,0:0:0:0:
472,136,21211,5,10,0:3:0:0:
496,176,21311,1,0,0:0:0:0:
496,232,21411,1,10,0:3:0:0:
464,272,21511,1,0,0:0:0:0:
416,288,21611,1,0,0:0:0:0:
320,296,21811,1,8,0:3:0:0:
56,304,22011,2,0,L|136:272,2,80,0|8|8,0:0|0:3|0:0,0:0:0:0:
160,304,22611,1,0,0:0:0:0:
424,304,22811,5,8,0:3:0:0:
312,304,23011,1,0,0:0:0:0:
260,304,23111,1,0,0:0:0:0:
208,304,23211,1,0,0:0:0:0:
424,304,23411,2,0,P|480:240|360:160,1,240,8|2,0:3|0:0,0:0:0:0:
40,136,24411,5,10,0:3:0:0:
16,176,24511,1,0,0:0:0:0:
16,232,24611,1,10,0:3:0:0:
48,272,24711,1,0,0:0:0:0:
96,288,24811,1,0,0:0:0:0:
192,296,25011,1,8,0:3:0:0:
392,296,25411,1,8,0:3:0:0:
128,296,25611,2,0,L|40:296,1,80,8|0,0:0|0:0,0:0:0:0:
368,128,26011,5,8,0:3:0:0:
496,128,26211,1,0,0:0:0:0:
448,128,26311,1,0,0:0:0:0:
400,128,26411,1,0,0:0:0:0:
296,128,26611,1,8,0:3:0:0:
32,128,26811,2,0,L|224:128,1,160,0|2,0:0|0:0,0:0:0:0:
464,128,27611,6,0,L|496:240,1,80,10|10,0:3|0:3,0:0:0:0:
376,232,28011,2,0,L|344:344,1,80,0|8,0:0|0:3,0:0:0:0:
88,328,28411,2,0,L|48:216,1,80,0|8,0:0|0:3,0:0:0:0:
352,184,28811,2,0,L|464:184,1,80,8|0,0:0|0:0,0:0:0:0:
168,184,29211,5,8,0:3:0:0:
280,184,29411,1,0,0:0:0:0:
328,184,29511,1,0,0:0:0:0:
376,184,29611,1,0,0:0:0:0:
168,184,29811,2,0,P|128:248|184:304,1,160,8|0,0:3|0:0,0:0:0:0:
344,304,30411,2,0,L|440:304,1,80,2|2,0:0|0:0,0:0:0:0:
144,160,30811,5,10,0:3:0:0:
100,186,30911,1,0,0:0:0:0:
74,231,31011,1,10,0:3:0:0:
73,282,31111,1,0,0:0:0:0:
96,328,31211,1,0,0:0:0:0:
296,336,31411,2,0,P|384:296|416:208,1,160,8|8,0:3|0:3,0:0:0:0:
144,200,32011,1,8,0:0:0:0:
328,200,32411,5,8,0:3:0:0:
424,200,32611,2,0,L|504:200,2,80,0|8|8,0:0|0:3|0:3,0:0:0:0:
240,200,33211,2,0,P|176:248|168:328,1,160,0|0,0:0|0:0,0:0:0:0:
440,328,34011,5,8,0:3:0:0:
344,328,34211,2,0,L|264:328,2,80,8|8|8,0:3|0:3|0:3,0:0:0:0:
160,328,34811,2,0,P|96:280|88:200,1,160,0|0,0:0|0:0,0:0:0:0:
328,200,35611,5,8,0:3:0:0:
424,200,35811,2,0,L|504:200,2,80,8|8|8,0:3|0:3|0:3,0:0:0:0:
232,200,36411,2,0,L|48:200,1,160,0|0,0:0|0:0,0:0:0:0:
440,208,37211,6,0,P|472:288|400:352,1,160,8|8,0:3|0:3,0:0:0:0:
336,352,37811,1,8,0:3:0:0:
144,352,38011,2,0,L|120:240,1,80,8|0,0:3|0:0,0:0:0:0:
248,272,38411,2,0,L|344:272,1,80,8|8,0:3|0:3,0:0:0:0:
136,272,38811,5,8,0:3:0:0:
248,272,39011,2,0,L|328:272,2,80,0|8|8,0:0|0:3|0:3,0:0:0:0:
56,272,39611,2,0,L|248:272,1,160,0|0,0:0|0:0,0:0:0:0:
472,272,40411,5,8,0:3:0:0:
360,272,40611,2,0,L|280:272,2,80,8|8|8,0:3|0:3|0:3,0:0:0:0:
168,272,41211,2,0,L|352:272,1,160,0|0,0:0|0:0,0:0:0:0:
64,272,42011,5,2,0:0:0:0:
256,272,42811,1,2,0:0:0:0:
448,272,43611,1,2,0:0:0:0:
280,272,44411,2,0,L|192:272,1,80,0|0,0:0|0:0,0:0:0:0:
392,192,44811,2,0,L|448:112,1,80,0|0,0:0|0:0,0:0:0:0:
144,104,45211,6,0,L|40:104,1,103.999995239258,12|0,0:1|0:0,0:0:0:0:
208,96,45611,2,0,L|208:200,1,103.999995239258,8|0,0:0|0:0,0:0:0:0:
40,192,46011,2,0,L|144:192,2,103.999995239258,0|8|0,0:0|0:3|0:0,0:0:0:0:
312,192,46611,6,0,L|512:256,1,207.999990478516,0|8,0:0|0:3,0:0:0:0:
392,216,47211,1,8,0:0:0:0:
112,144,47411,2,0,P|56:232|104:312,1,207.999990478516,0|8,0:0|0:3,0:0:0:0:
280,312,48011,2,0,L|152:312,1,103.999995239258,8|0,0:0|0:0,0:0:0:0:
464,320,48411,6,0,P|440:256|352:224,1,155.999992858887,8|8,0:3|0:3,0:0:0:0:
200,216,48811,2,0,L|112:280,1,103.999995239258,8|0,0:0|0:0,0:0:0:0:
304,224,49211,2,0,L|232:328,1,103.999995239258,0|8,0:0|0:3,0:0:0:0:
424,296,49611,1,8,0:0:0:0:
112,280,49811,6,0,P|64:208|160:104,1,207.999990478516,0|8,0:0|0:3,0:0:0:0:
232,112,50411,1,8,0:0:0:0:
416,280,50611,2,0,P|464:208|368:104,1,207.999990478516,8|8,0:3|0:3,0:0:0:0:
272,112,51211,1,8,0:0:0:0:
408,112,51411,1,8,0:0:0:0:
136,112,51611,6,0,L|96:224,1,103.999995239258,8|0,0:3|0:0,0:0:0:0:
248,112,52011,2,0,L|368:112,1,103.999995239258,8|0,0:0|0:0,0:0:0:0:
168,216,52411,2,0,L|128:312,1,103.999995239258
464,216,52811,2,0,L|352:216,1,103.999995239258,8|0,0:0|0:0,0:0:0:0:
56,224,53211,6,0,L|160:224,2,103.999995239258,8|0|8,0:3|0:0|0:0,0:0:0:0:
248,224,53811,1,8,0:0:0:0:
196,224,53911,1,0,0:0:0:0:
144,224,54011,1,0,0:0:0:0:
296,224,54211,1,8,0:3:0:0:
128,224,54411,1,8,0:0:0:0:
296,224,54611,1,0,0:0:0:0:
32,224,54811,6,0,L|240:224,1,207.999990478516,8|8,0:3|0:0,0:0:0:0:
400,224,55411,1,0,0:0:0:0:
348,224,55511,1,8,0:0:0:0:
296,224,55611,1,0,0:0:0:0:
192,224,55811,1,8,0:3:0:0:
312,224,56011,1,8,0:0:0:0:
48,120,56211,6,0,L|176:120,1,103.999995239258,0|8,0:0|0:3,0:0:0:0:
272,120,56611,2,0,L|384:120,2,103.999995239258,0|8|0,0:0|0:0|0:0,0:0:0:0:
168,120,57211,1,8,0:3:0:0:
133,156,57311,1,8,0:0:0:0:
144,208,57411,1,8,0:0:0:0:
184,240,57511,1,8,0:0:0:0:
304,168,57611,1,8,0:0:0:0:
344,200,57711,1,8,0:0:0:0:
356,255,57811,1,8,0:0:0:0:
321,292,57911,1,8,0:0:0:0:
136,296,58011,6,0,L|32:296,1,103.999995239258,12|0,0:1|0:0,0:0:0:0:
280,296,58311,2,0,L|384:296,1,103.999995239258,12|0,0:1|0:0,0:0:0:0:
136,296,58611,1,12,0:1:0:0:
280,296,59011,1,2,0:3:0:0:
320,296,59111,1,2,0:3:0:0:
368,296,59211,1,2,0:3:0:0:
408,296,59311,1,2,0:3:0:0:
248,296,59386,6,0,L|64:296,1,160,12|0,0:1|0:0,0:0:0:0:
72,160,59986,1,8,0:0:0:0:
424,136,60211,6,0,L|264:136,2,160,8|8|8,0:0|0:0|0:3,0:0:0:0:
96,136,61211,6,0,P|88:192|168:256,1,160,12|8,0:1|0:0,0:0:0:0:
240,264,61811,1,0,0:0:0:0:
384,264,62011,2,0,L|480:264,2,80,0|8|8,0:0|0:3|0:0,0:0:0:0:
88,272,62611,6,0,P|88:192|168:136,1,160,0|8,0:0|0:3,0:0:0:0:
408,272,63211,2,0,P|440:192|368:128,1,160,8|8,0:0|0:0,0:0:0:0:
296,120,63811,1,8,0:3:0:0:
416,120,64011,1,8,0:0:0:0:
451,138,64111,1,8,0:0:0:0:
473,171,64211,1,8,0:0:0:0:
476,210,64311,1,8,0:0:0:0:
272,216,64411,6,0,L|176:216,1,80,12|0,0:1|0:0,0:0:0:0:
240,216,64711,1,0,0:0:0:0:
408,216,64811,2,0,L|504:216,1,80,8|0,0:0|0:0,0:0:0:0:
440,216,65111,1,8,0:0:0:0:
272,216,65211,2,0,L|176:216,1,80,0|8,0:0|0:3,0:0:0:0:
384,216,65611,2,0,L|480:216,1,80,8|0,0:0|0:0,0:0:0:0:
184,216,66011,6,0,L|80:216,2,80,8|0|8,0:3|0:0|0:0,0:0:0:0:
344,216,66611,1,0,0:0:0:0:
296,216,66711,1,8,0:0:0:0:
248,216,66811,1,8,0:0:0:0:
200,216,66911,1,0,0:0:0:0:
152,216,67011,1,8,0:3:0:0:
320,120,67211,2,0,L|416:120,1,80,8|0,0:0|0:0,0:0:0:0:
120,120,67611,6,0,L|80:224,1,80,8|0,0:3|0:0,0:0:0:0:
256,120,68011,2,0,L|352:120,1,80,8|0,0:0|0:0,0:0:0:0:
296,112,68311,1,8,0:0:0:0:
120,120,68411,2,0,L|88:208,1,80,0|8,0:0|0:3,0:0:0:0:
256,200,68811,2,0,L|344:200,1,80,8|0,0:0|0:0,0:0:0:0:
128,200,69211,5,8,0:3:0:0:
416,200,69411,2,0,P|448:272|312:328,1,240,8|8,0:3|0:3,0:0:0:0:
184,296,70211,1,8,0:0:0:0:
328,296,70411,1,8,0:3:0:0:
152,296,70611,1,8,0:0:0:0:
448,216,70811,6,0,L|472:184,3,40,12|0|0|0,0:1|0:0|0:0|0:0,0:0:0:0:
352,192,71211,2,0,L|376:160,3,40,8|0|0|0,0:0|0:0|0:0|0:0,0:0:0:0:
256,152,71611,6,0,L|280:120,3,40,8|0|8|0,0:3|0:0|0:3|0:0,0:0:0:0:
160,128,72011,2,0,L|184:96,3,40,8|0|0|0,0:0|0:0|0:0|0:0,0:0:0:0:
296,128,72411,5,8,0:3:0:0:
333,142,72511,1,0,0:0:0:0:
360,176,72611,1,0,0:0:0:0:
346,215,72711,1,0,0:0:0:0:
224,208,72811,1,8,0:0:0:0:
187,222,72911,1,0,0:0:0:0:
168,256,73011,1,0,0:0:0:0:
176,296,73111,1,0,0:0:0:0:
288,304,73211,6,0,L|400:304,1,80,8|8,0:3|0:3,0:0:0:0:
80,192,73611,2,0,L|64:96,1,80,8|0,0:0|0:0,0:0:0:0:
384,216,74011,6,0,L|408:184,1,40,12|0,0:1|0:0,0:0:0:0:
216,200,74211,2,0,L|192:232,1,40,0|0,0:1|0:0,0:0:0:0:
384,216,74411,2,0,L|408:184,3,40,8|0|0|0,0:0|0:0|0:0|0:0,0:0:0:0:
224,216,74811,6,0,L|200:184,1,40,8|0,0:1|0:0,0:0:0:0:
392,200,75011,2,0,L|416:232,1,40,0|0,0:1|0:0,0:0:0:0:
224,216,75211,2,0,L|200:184,3,40,8|0|0|0,0:0|0:0|0:0|0:0,0:0:0:0:
312,128,75611,5,8,0:3:0:0:
352,128,75711,1,0,0:0:0:0:
392,128,75811,1,0,0:0:0:0:
432,128,75911,1,0,0:0:0:0:
304,216,76011,1,8,0:0:0:0:
264,216,76111,1,0,0:0:0:0:
224,216,76211,1,0,0:0:0:0:
184,216,76311,1,0,0:0:0:0:
320,304,76386,6,0,L|432:304,1,80,0|0,0:3|0:3,0:0:0:0:
64,216,76786,2,0,L|48:128,1,80,8|8,0:0|0:3,0:0:0:0:
328,216,77186,6,0,L|352:184,3,40,12|0|0|0,0:1|0:0|0:0|0:0,0:0:0:0:
232,192,77586,2,0,L|256:160,3,40,8|0|0|0,0:0|0:0|0:0|0:0,0:0:0:0:
368,160,77986,6,0,L|392:128,1,40,8|0,0:1|0:0,0:0:0:0:
200,144,78186,2,0,L|176:176,1,40,0|0,0:1|0:0,0:0:0:0:
368,160,78386,2,0,L|392:128,3,40,8|0|0|0,0:0|0:0|0:0|0:0,0:0:0:0:
184,96,78786,5,8,0:3:0:0:
288,96,78986,1,0,0:0:0:0:
128,96,79186,2,0,L|64:192,1,80,8|0,0:0|0:0,0:0:0:0:
352,96,79586,5,8,0:3:0:0:
248,96,79786,1,8,0:3:0:0:
408,96,79986,2,0,L|472:192,1,80,8|0,0:0|0:0,0:0:0:0:
184,352,80386,5,12,0:1:0:0:
144,352,80486,1,0,0:0:0:0:
104,352,80586,1,0,0:0:0:0:
64,352,80686,1,0,0:0:0:0:
112,288,80786,1,0,0:0:0:0:
152,288,80886,1,0,0:0:0:0:
112,288,80986,1,0,0:0:0:0:
64,288,81086,1,8,0:0:0:0:
112,240,81186,5,8,0:3:0:0:
152,240,81286,1,0,0:0:0:0:
192,240,81386,1,8,0:3:0:0:
232,240,81486,1,0,0:0:0:0:
192,176,81586,1,8,0:0:0:0:
152,176,81686,1,0,0:0:0:0:
112,176,81786,1,0,0:0:0:0:
72,176,81886,1,0,0:0:0:0:
248,352,81986,5,8,0:3:0:0:
288,352,82086,1,0,0:0:0:0:
328,352,82186,1,0,0:0:0:0:
368,352,82286,1,0,0:0:0:0:
248,288,82386,1,8,0:0:0:0:
208,288,82486,1,0,0:0:0:0:
168,288,82586,1,0,0:0:0:0:
128,288,82686,1,0,0:0:0:0:
248,224,82786,5,8,0:3:0:0:
288,224,82886,1,0,0:0:0:0:
328,224,82986,1,0,0:0:0:0:
368,224,83086,1,0,0:0:0:0:
256,160,83186,1,0,0:0:0:0:
216,160,83286,1,2,0:3:0:0:
328,160,83386,1,2,0:3:0:0:
368,160,83486,1,2,0:3:0:0:
96,160,83611,6,0,P|48:232|72:304,1,160,8|8,0:3|0:0,0:0:0:0:
248,304,84211,2,0,L|408:304,1,160,8|0,0:3|0:0,0:0:0:0:
224,304,84811,2,0,L|120:304,1,80,8|0,0:0|0:0,0:0:0:0:
432,160,85211,6,0,P|480:232|456:304,1,160,8|8,0:3|0:0,0:0:0:0:
192,296,85811,1,8,0:3:0:0:
432,296,86211,1,8,0:3:0:0:
112,296,86411,1,8,0:0:0:0:
