osu file format v14

[General]
AudioFilename: audio.mp3
AudioLeadIn: 0
PreviewTime: 44411
Countdown: 0
SampleSet: Soft
StackLeniency: 0.7
Mode: 2
LetterboxInBreaks: 0
WidescreenStoryboard: 0

[Editor]
DistanceSpacing: 1
BeatDivisor: 4
GridSize: 4
TimelineZoom: 1

[Metadata]
Title:Kamiiro Awase
TitleUnicode:カミイロアワセ
Artist:binaria
ArtistUnicode:binaria
Creator:celerih
Version:Sinnoh's Salad
Source:ダンガンロンパ3-The End of 希望ヶ峰学園- 絶望編
Tags:danganronpa hope's peak academy side despair tv size opening yanaginagi やなぎなぎ Annabel Sinnoh examination Yumeno Himiko ZiRoX
BeatmapID:1347024
BeatmapSetID:632884

[Difficulty]
HPDrainRate:4.5
CircleSize:3
OverallDifficulty:7
ApproachRate:7
SliderMultiplier:1.6
SliderTickRate:1

[Events]
//Background and Video events
0,0,"exam.jpg",0,0
//Break Periods
//Storyboard Layer 0 (Background)
//Storyboard Layer 1 (Fail)
//Storyboard Layer 2 (Pass)
//Storyboard Layer 3 (Foreground)
//Storyboard Sound Samples

[TimingPoints]
411,400,4,2,2,50,1,0
6811,-100,4,2,1,70,0,0
32411,-100,4,2,1,50,0,0
45211,-100,4,2,1,80,0,1
54811,-66.6666666666667,4,2,1,80,0,1
55411,-100,4,2,1,80,0,1
58011,-100,4,2,1,100,0,1
59386,400,4,2,1,80,1,1
60211,400,4,2,1,80,1,1
61211,400,4,2,1,80,1,1
70711,-100,4,2,1,80,0,0
70811,-100,4,2,1,80,0,1
76386,400,4,2,1,80,1,1
76986,352.941176470588,4,2,1,80,1,1
77186,400,4,2,1,80,1,1
83611,400,4,2,1,50,1,0
86486,400,4,2,1,50,1,0

[Colours]
Combo1 : 254,232,71
Combo2 : 254,112,197
Combo3 : 96,255,255
Combo4 : 73,89,108

[HitObjects]
355,315,411,6,0,P|392:223|311:115,1,213.333333333333,2|0,0:0|0:0,0:0:0:0:
180,278,1211,2,0,P|105:222|194:120,1,213.333333333333,2|0,0:0|0:0,0:0:0:0:
303,157,2011,2,0,P|322:101|298:24,1,106.666666666667,2|0,0:0|0:0,0:0:0:0:
191,47,2544,1,0,0:0:0:0:
321,32,2811,1,2,0:0:0:0:
104,200,3611,6,0,L|345:195,1,213.333333333333,2|0,0:0|0:0,0:0:0:0:
218,214,4411,2,0,P|140:172|172:35,1,213.333333333333,2|0,0:0|0:0,0:0:0:0:
412,325,6811,6,0,P|448:255|385:182,1,160,8|0,0:3|0:0,0:0:0:0:
294,154,7411,1,8,0:3:0:0:
88,164,8011,1,2,0:0:0:0:
281,190,8411,6,0,L|378:171,2,80,10|10|0,0:3|0:3|0:0,0:0:0:0:
169,202,9011,1,8,0:3:0:0:
356,269,9411,2,0,L|374:203,2,40,8|8|8,0:3|0:3|0:0,0:0:0:0:
185,193,10011,6,0,L|361:192,1,160,8|0,0:3|0:0,0:0:0:0:
272,125,10611,1,8,0:3:0:0:
46,143,11211,1,2,0:0:0:0:
253,261,11611,6,0,P|265:194|256:157,1,80,10|10,0:3|0:3,0:0:0:0:
181,146,12011,1,0,0:0:0:0:
298,138,12211,1,8,0:3:0:0:
126,278,12611,2,0,L|116:208,2,40,8|8|8,0:3|0:3|0:0,0:0:0:0:
331,273,13211,6,0,B|355:255|355:255|390:204|390:204|323:189,1,160,8|0,0:3|0:0,0:0:0:0:
218,169,13811,1,8,0:3:0:0:
422,298,14411,1,2,0:0:0:0:
239,284,14811,6,0,L|132:329,2,80,10|10|0,0:3|0:3|0:0,0:0:0:0:
351,274,15411,1,8,0:3:0:0:
179,245,15811,1,8,0:3:0:0:
218,245,15911,1,8,0:3:0:0:
258,245,16011,1,8,0:0:0:0:
103,182,16411,6,0,P|71:115|131:72,1,160,8|0,0:3|0:0,0:0:0:0:
253,60,17011,1,8,0:3:0:0:
75,49,17611,1,2,0:0:0:0:
272,63,18011,6,0,L|385:64,2,80,10|10|0,0:3|0:3|0:0,0:0:0:0:
146,60,18611,1,8,0:3:0:0:
316,208,19011,1,8,0:3:0:0:
355,202,19111,1,8,0:3:0:0:
394,198,19211,1,8,0:0:0:0:
89,281,19611,6,0,P|63:220|106:125,1,160,8|0,0:3|0:0,0:0:0:0:
182,140,20211,1,8,0:3:0:0:
265,87,20411,2,0,L|101:86,1,160,0|2,0:0|0:0,0:0:0:0:
309,309,21211,6,0,L|320:125,1,160,10|0,0:3|0:0,0:0:0:0:
130,115,22011,2,0,L|234:117,1,80,0|8,0:0|0:3,0:0:0:0:
242,119,22311,1,8,0:3:0:0:
275,120,22411,1,8,0:0:0:0:
94,323,22811,6,0,P|47:302|108:240,1,160,8|0,0:3|0:0,0:0:0:0:
214,241,23411,1,8,0:3:0:0:
462,230,24011,1,2,0:0:0:0:
287,218,24411,6,0,L|199:220,2,80,10|10|0,0:3|0:3|0:0,0:0:0:0:
396,214,25011,1,8,0:3:0:0:
220,294,25411,1,8,0:3:0:0:
180,297,25511,1,8,0:3:0:0:
140,300,25611,1,8,0:0:0:0:
326,228,26011,6,0,L|500:214,1,160,8|0,0:3|0:0,0:0:0:0:
388,172,26611,1,8,0:3:0:0:
304,313,26811,2,0,P|249:271|304:227,1,160,0|2,0:0|0:0,0:0:0:0:
483,305,27611,6,0,P|483:218|420:166,1,160,10|0,0:3|0:0,0:0:0:0:
344,160,28211,1,8,0:3:0:0:
249,161,28411,2,0,L|149:160,1,80,0|8,0:0|0:3,0:0:0:0:
155,137,28711,1,8,0:3:0:0:
147,102,28811,1,8,0:0:0:0:
326,312,29211,6,0,P|335:238|295:154,1,160,8|0,0:3|0:0,0:0:0:0:
185,161,29811,2,0,L|362:161,1,160,8|0,0:3|0:0,0:0:0:0:
422,155,30411,1,2,0:0:0:0:
344,216,30611,1,2,0:0:0:0:
164,232,30811,6,0,B|88:228|88:228|101:188|136:127,1,160,10|0,0:3|0:0,0:0:0:0:
194,120,31411,1,8,0:3:0:0:
394,270,31811,2,0,L|408:216,2,40,8|8|8,0:3|0:3|0:0,0:0:0:0:
101,295,32411,6,0,P|27:250|28:157,2,160,8|8|0,0:3|0:3|0:0,0:0:0:0:
419,153,34011,2,0,L|260:232,2,160,8|8|0,0:3|0:3|0:0,0:0:0:0:
146,306,35611,6,0,P|120:255|173:166,1,160,8|8,0:3|0:3,0:0:0:0:
358,232,36411,2,0,P|384:181|331:92,1,160,0|0,0:0|0:0,0:0:0:0:
185,137,37211,6,0,L|363:89,2,160,8|8|8,0:3|0:3|0:3,0:0:0:0:
39,183,38411,1,8,0:3:0:0:
229,276,38811,6,0,P|331:222|337:159,2,160,8|8|0,0:3|0:3|0:0,0:0:0:0:
36,112,40411,2,0,L|214:64,2,160,8|8|0,0:3|0:3|0:0,0:0:0:0:
356,273,42011,5,2,0:0:0:0:
132,266,42811,1,2,0:0:0:0:
374,177,43611,1,2,0:0:0:0:
149,198,44411,6,0,L|401:194,1,240
197,326,45211,6,0,B|99:319|99:319|180:284,1,160,12|8,0:1|0:0,0:0:0:0:
248,245,45811,1,0,0:0:0:0:
363,245,46011,2,0,P|413:214|339:158,1,160,0|0,0:0|0:0,0:0:0:0:
264,142,46611,1,0,0:0:0:0:
160,209,46811,6,0,L|264:212,2,80,8|8|8,0:3|0:3|0:0,0:0:0:0:
45,222,47411,2,0,P|5:204|69:138,1,160,0|8,0:0|0:3,0:0:0:0:
156,133,48011,2,0,L|67:132,1,80,8|0,0:0|0:0,0:0:0:0:
277,262,48411,6,0,P|328:237|352:130,1,160,8|8,0:3|0:0,0:0:0:0:
252,159,49011,1,0,0:0:0:0:
161,235,49211,2,0,L|153:148,1,80,0|8,0:0|0:3,0:0:0:0:
276,194,49611,2,0,L|282:105,1,80,8|0,0:0|0:0,0:0:0:0:
173,92,50011,6,0,L|271:88,1,80,8|8,0:3|0:3,0:0:0:0:
365,135,50411,2,0,P|414:94|347:61,1,160,8|8,0:0|0:0,0:0:0:0:
254,62,51011,1,8,0:3:0:0:
151,70,51211,2,0,L|58:70,1,80,8|8,0:0|0:0,0:0:0:0:
265,296,51611,6,0,P|312:276|322:165,1,160,8|8,0:3|0:0,0:0:0:0:
162,175,52411,2,0,L|345:176,1,160,0|8,0:0|0:0,0:0:0:0:
423,169,53011,1,0,0:0:0:0:
313,265,53211,6,0,L|222:266,2,80,8|0|8,0:3|0:0|0:0,0:0:0:0:
430,274,53811,2,0,P|470:247|403:183,1,160,8|8,0:0|0:3,0:0:0:0:
311,129,54411,2,0,L|410:130,1,80,8|0,0:0|0:0,0:0:0:0:
218,267,54811,6,0,B|139:267|139:267|165:214|165:214|159:78,1,240.000009155274,8|8,0:3|0:0,0:0:0:0:
266,98,55411,1,0,0:0:0:0:
370,114,55611,2,0,L|473:112,1,80,0|8,0:0|0:3,0:0:0:0:
361,52,56011,2,0,L|280:16,1,80,8|0,0:0|0:0,0:0:0:0:
87,296,56411,6,0,L|16:224,1,80,2|0,0:3|0:0,0:0:0:0:
128,192,56811,1,8,0:0:0:0:
332,200,57211,2,0,L|259:120,1,80,8|8,0:3|0:0,0:0:0:0:
176,72,57611,2,0,L|240:-8,1,80,8|8,0:0|0:0,0:0:0:0:
416,148,58011,6,12,L|289:87,2,120,12|12|12,0:1|0:1|0:1,0:1:0:0:
66,227,59386,6,0,L|253:227,1,160,12|0,0:1|0:0,0:0:0:0:
336,224,59986,1,8,0:0:0:0:
216,200,60211,2,0,P|199:125|215:91,1,80,8|0,0:0|0:0,0:0:0:0:
324,112,60611,2,0,P|340:68|324:20,1,80,8|0,0:0|0:0,0:0:0:0:
244,16,61011,1,8,0:3:0:0:
56,260,61211,6,0,P|12:232|80:168,1,160,12|8,0:1|0:0,0:0:0:0:
162,161,61811,1,0,0:0:0:0:
267,163,62011,2,0,L|363:159,2,80,0|8|8,0:0|0:3|0:0,0:0:0:0:
383,250,62611,6,0,B|436:247|436:247|448:217|448:217|423:184|423:184|362:182,1,160,0|8,0:0|0:3,0:0:0:0:
263,181,63211,2,0,P|194:135|184:52,1,160,8|8,0:0|0:0,0:0:0:0:
292,76,63811,1,8,0:3:0:0:
392,77,64011,2,0,L|384:173,1,80,8|8,0:0|0:0,0:0:0:0:
170,261,64411,6,0,P|118:236|90:117,1,160,12|8,0:1|0:0,0:0:0:0:
263,158,65211,2,0,L|271:48,1,80,0|8,0:0|0:3,0:0:0:0:
149,124,65611,2,0,L|141:39,1,80,8|0,0:0|0:0,0:0:0:0:
262,177,66011,6,0,L|351:174,2,80,8|0|8,0:3|0:0|0:0,0:0:0:0:
149,190,66611,2,0,P|103:172|166:103,1,160,0|8,0:0|0:3,0:0:0:0:
243,94,67211,2,0,L|142:94,1,80,8|0,0:0|0:0,0:0:0:0:
350,208,67611,6,0,B|402:204|402:204|439:183|419:88,1,160,8|8,0:3|0:0,0:0:0:0:
217,102,68411,2,0,L|134:102,1,80,0|8,0:0|0:3,0:0:0:0:
249,170,68811,2,0,L|339:170,1,80,8|0,0:0|0:0,0:0:0:0:
215,268,69211,6,0,L|117:270,2,80,8|8|12,0:3|0:3|0:0,0:0:0:0:
397,261,70011,2,0,P|451:205|410:121,1,160,8|8,0:3|0:3,0:0:0:0:
80,226,70811,6,0,P|67:182|139:88,1,160,12|8,0:1|0:0,0:0:0:0:
312,120,71611,2,0,L|408:72,2,80,8|8|8,0:3|0:3|0:0,0:0:0:0:
492,141,72411,6,0,L|328:146,1,160,8|8,0:3|0:0,0:0:0:0:
230,155,73011,1,0,0:0:0:0:
144,189,73211,2,0,L|137:73,1,80,8|8,0:3|0:3,0:0:0:0:
265,160,73611,2,0,L|268:50,1,80,8|0,0:0|0:0,0:0:0:0:
79,287,74011,6,0,P|33:272|88:206,1,160,12|8,0:1|0:0,0:0:0:0:
273,174,74811,2,0,L|157:176,1,80,8|8,0:3|0:3,0:0:0:0:
112,179,75211,1,8,0:0:0:0:
321,296,75611,6,0,P|357:220|334:114,1,160,8|8,0:3|0:0,0:0:0:0:
153,238,76411,1,0,0:0:0:0:
74,205,76611,1,0,0:0:0:0:
74,125,76811,1,0,0:0:0:0:
154,102,76986,1,8,0:3:0:0:
378,227,77186,6,0,B|455:214|455:214|459:117,1,160,12|8,0:1|0:0,0:0:0:0:
276,100,77986,2,0,L|359:76,2,80,8|8|8,0:3|0:3|0:0,0:0:0:0:
56,199,78786,5,8,0:3:0:0:
154,177,78986,2,0,L|238:181,2,80,0|8|0,0:0|0:0|0:0,0:0:0:0:
254,285,79586,2,0,L|263:195,1,80,8|8,0:3|0:3,0:0:0:0:
155,192,79986,2,0,L|144:96,1,80,8|0,0:0|0:0,0:0:0:0:
363,234,80386,6,0,P|434:209|424:109,1,160,12|0,0:1|0:0,0:0:0:0:
214,130,81186,2,0,L|293:130,1,80,8|8,0:3|0:3,0:0:0:0:
385,131,81586,1,8,0:0:0:0:
180,278,81986,6,0,P|122:228|95:206,2,80,8|0|8,0:3|0:0|0:0,0:0:0:0:
293,283,82586,1,0,0:0:0:0:
374,229,82786,2,0,L|275:229,1,80,8|0,0:3|0:0,0:0:0:0:
192,180,83186,2,0,L|294:179,1,80,0|2,0:0|0:3,0:0:0:0:
495,206,83611,6,0,P|490:136|408:89,1,160,8|8,0:3|0:0,0:0:0:0:
303,92,84211,2,0,L|125:150,1,160,8|0,0:3|0:0,0:0:0:0:
246,217,84811,1,8,0:0:0:0:
74,296,85211,6,0,P|60:223|140:171,1,160,8|8,0:3|0:0,0:0:0:0:
228,161,85811,2,0,L|68:120,1,160,8|8,0:3|0:3,0:0:0:0:
284,96,86411,1,8,0:0:0:0:
