osu file format v14

[General]
AudioFilename: audio.mp3
AudioLeadIn: 0
PreviewTime: 44411
Countdown: 0
SampleSet: Soft
StackLeniency: 0.7
Mode: 2
LetterboxInBreaks: 0
WidescreenStoryboard: 0

[Editor]
Bookmarks: 19611,32411,45211
DistanceSpacing: 1.5
BeatDivisor: 4
GridSize: 4
TimelineZoom: 1

[Metadata]
Title:Kamiiro Awase
TitleUnicode:カミイロアワセ
Artist:binaria
ArtistUnicode:binaria
Creator:celerih
Version:Platter
Source:ダンガンロンパ3-The End of 希望ヶ峰学園- 絶望編
Tags:danganronpa hope's peak academy side despair tv size opening yanaginagi やなぎなぎ Annabel Sinnoh examination Yumeno Himiko ZiRoX
BeatmapID:1343317
BeatmapSetID:632884

[Difficulty]
HPDrainRate:5
CircleSize:3.5
OverallDifficulty:8
ApproachRate:8
SliderMultiplier:1.6
SliderTickRate:1

[Events]
//Background and Video events
0,0,"mck.jpg",0,0
//Break Periods
//Storyboard Layer 0 (Background)
//Storyboard Layer 1 (Fail)
//Storyboard Layer 2 (Pass)
//Storyboard Layer 3 (Foreground)
//Storyboard Sound Samples

[TimingPoints]
411,400,4,2,1,50,1,0
6811,-100,4,2,1,70,0,0
32411,-100,4,2,1,50,0,0
45211,-100,4,2,1,80,0,1
59386,400,4,2,1,80,1,1
60211,400,4,2,1,80,1,1
61211,400,4,2,1,80,1,1
76386,400,4,2,1,80,1,1
76986,352.941176470588,4,2,1,80,1,1
77186,400,4,2,1,80,1,1
77186,-100,4,2,1,80,0,1
83611,400,4,2,1,70,1,0
86486,400,4,2,1,50,1,0

[Colours]
Combo1 : 254,232,71
Combo2 : 254,112,197
Combo3 : 96,255,255
Combo4 : 73,89,108

[HitObjects]
336,192,411,6,0,L|456:176,2,106.666666666667,2|0|0,0:0|0:0|0:0,0:0:0:0:
204,192,1211,2,0,L|84:176,2,106.666666666667,2|0|0,0:0|0:0|0:0,0:0:0:0:
344,192,2011,6,0,L|476:192,1,106.666666666667,2|0,0:0|0:0,0:0:0:0:
332,192,2544,1,0,0:0:0:0:
100,192,2811,1,2,0:0:0:0:
248,192,3611,6,0,L|144:136,2,106.666666666667,2|0|0,0:0|0:0|0:0,0:0:0:0:
384,192,4411,2,0,L|488:136,2,106.666666666667,2|0|0,0:0|0:0|0:0,0:0:0:0:
248,192,6811,6,0,L|332:192,1,80,8|0,0:3|0:0,0:0:0:0:
416,192,7211,1,0,0:0:0:0:
232,192,7411,2,0,L|68:124,1,160,8|0,0:3|0:0,0:0:0:0:
180,192,8011,1,2,0:0:0:0:
336,192,8411,6,0,P|348:148|332:104,1,80,10|10,0:3|0:3,0:0:0:0:
240,192,8811,1,0,0:0:0:0:
432,192,9011,2,0,L|256:164,1,160,8|8,0:3|0:3,0:0:0:0:
224,156,9511,1,8,0:3:0:0:
172,144,9611,1,8,0:0:0:0:
316,192,10011,6,0,L|416:192,1,80,8|0,0:3|0:0,0:0:0:0:
296,192,10411,1,0,0:0:0:0:
112,192,10611,2,0,P|76:124|140:52,1,160,8|0,0:3|0:0,0:0:0:0:
204,192,11211,1,2,0:0:0:0:
388,192,11611,6,0,L|284:192,1,80,10|10,0:3|0:3,0:0:0:0:
216,192,12011,1,0,0:0:0:0:
28,192,12211,2,0,L|192:144,1,160,8|8,0:3|0:3,0:0:0:0:
132,140,12711,1,8,0:3:0:0:
80,140,12811,1,8,0:0:0:0:
236,192,13211,6,0,L|336:192,1,80,8|0,0:3|0:0,0:0:0:0:
208,192,13611,1,0,0:0:0:0:
384,192,13811,2,0,L|216:152,1,160,8|0,0:3|0:0,0:0:0:0:
128,192,14411,1,2,0:0:0:0:
284,192,14811,6,0,L|388:192,1,80,10|10,0:3|0:3,0:0:0:0:
264,192,15211,1,0,0:0:0:0:
452,192,15411,2,0,P|492:136|436:56,1,160,8|8,0:3|0:3,0:0:0:0:
400,60,15911,1,8,0:3:0:0:
348,60,16011,1,8,0:0:0:0:
164,192,16411,6,0,L|64:144,1,80,8|0,0:3|0:0,0:0:0:0:
8,192,16811,1,0,0:0:0:0:
196,192,17011,2,0,L|352:156,1,160,8|0,0:3|0:0,0:0:0:0:
448,192,17611,1,2,0:0:0:0:
296,192,18011,6,0,L|192:192,1,80,10|10,0:3|0:3,0:0:0:0:
124,192,18411,1,0,0:0:0:0:
312,112,18611,2,0,L|492:112,1,160,8|8,0:3|0:3,0:0:0:0:
424,192,19111,1,8,0:3:0:0:
372,192,19211,1,8,0:0:0:0:
192,192,19611,6,0,L|292:192,1,80,8|0,0:3|0:0,0:0:0:0:
172,192,20011,1,0,0:0:0:0:
360,192,20211,2,0,L|460:192,1,80,8|0,0:3|0:0,0:0:0:0:
352,192,20611,1,0,0:0:0:0:
448,192,20811,1,2,0:0:0:0:
280,192,21211,6,0,L|384:192,1,80,10|10,0:3|0:3,0:0:0:0:
268,192,21611,1,0,0:0:0:0:
92,192,21811,2,0,L|260:152,1,160,8|8,0:3|0:3,0:0:0:0:
300,144,22311,1,8,0:3:0:0:
352,132,22411,1,8,0:0:0:0:
232,192,22811,6,0,L|332:192,1,80,8|0,0:3|0:0,0:0:0:0:
212,192,23211,1,0,0:0:0:0:
400,192,23411,2,0,P|448:144|380:104,1,160,8|0,0:3|0:0,0:0:0:0:
292,192,24011,1,2,0:0:0:0:
144,192,24411,6,0,L|40:192,1,80,10|10,0:3|0:3,0:0:0:0:
164,192,24811,1,0,0:0:0:0:
348,192,25011,2,0,L|388:16,1,160,8|8,0:3|0:3,0:0:0:0:
332,44,25511,1,8,0:3:0:0:
280,52,25611,1,8,0:0:0:0:
152,192,26011,6,0,L|252:192,1,80,8|0,0:3|0:0,0:0:0:0:
132,192,26411,1,0,0:0:0:0:
324,192,26611,2,0,L|228:192,1,80,8|0,0:3|0:0,0:0:0:0:
140,192,27011,1,0,0:0:0:0:
256,192,27211,1,2,0:0:0:0:
184,192,27611,6,0,L|80:192,1,80,10|10,0:3|0:3,0:0:0:0:
12,192,28011,1,0,0:0:0:0:
200,192,28211,2,0,L|372:176,1,160,8|8,0:3|0:3,0:0:0:0:
412,168,28711,1,8,0:3:0:0:
464,164,28811,1,8,0:0:0:0:
328,192,29211,6,0,L|228:192,1,80,8|0,0:3|0:0,0:0:0:0:
344,192,29611,1,0,0:0:0:0:
156,192,29811,2,0,P|120:100|184:52,1,160,8|0,0:3|0:0,0:0:0:0:
244,192,30411,1,2,0:0:0:0:
384,192,30811,6,0,L|280:192,1,80,10|10,0:3|0:3,0:0:0:0:
212,192,31211,1,0,0:0:0:0:
400,192,31411,2,0,B|216:156,1,160,8|8,0:3|0:3,0:0:0:0:
192,148,31911,1,8,0:3:0:0:
140,136,32011,1,8,0:0:0:0:
328,300,32411,5,8,0:3:0:0:
392,252,32611,1,0,0:0:0:0:
408,176,32811,1,8,0:3:0:0:
380,104,33011,1,8,0:3:0:0:
312,56,33211,1,0,0:0:0:0:
184,300,34011,5,8,0:3:0:0:
120,252,34211,1,8,0:3:0:0:
104,176,34411,1,8,0:3:0:0:
132,104,34611,1,8,0:3:0:0:
200,56,34811,1,0,0:0:0:0:
236,296,35611,5,8,0:3:0:0:
192,204,35811,1,8,0:3:0:0:
292,236,36011,1,8,0:3:0:0:
336,144,36211,1,8,0:3:0:0:
256,84,36411,2,0,P|204:132|252:192,1,160
344,192,37011,1,0,0:0:0:0:
152,192,37211,5,8,0:3:0:0:
108,124,37411,1,0,0:0:0:0:
128,48,37611,1,8,0:3:0:0:
204,20,37811,1,8,0:3:0:0:
284,24,38011,2,0,L|380:24,1,80,8|0,0:3|0:0,0:0:0:0:
276,104,38411,2,0,L|172:104,1,80,8|8,0:3|0:3,0:0:0:0:
384,104,38811,5,0,0:0:0:0:
452,152,39011,1,8,0:3:0:0:
480,224,39211,1,8,0:3:0:0:
464,300,39411,1,0,0:0:0:0:
400,348,39611,1,8,0:3:0:0:
128,316,40411,5,8,0:3:0:0:
64,268,40611,1,8,0:3:0:0:
48,192,40811,1,8,0:3:0:0:
76,120,41011,1,8,0:3:0:0:
144,72,41211,1,0,0:0:0:0:
428,192,42011,5,2,0:0:0:0:
172,192,42811,1,2,0:0:0:0:
384,192,43611,5,2,0:0:0:0:
332,192,44411,2,0,L|232:192,1,80
360,192,44811,2,0,L|468:192,1,80
160,192,45211,6,0,L|32:192,1,120,12|0,0:1|0:0,0:0:0:0:
136,112,45611,2,0,L|220:112,1,80,8|0,0:0|0:0,0:0:0:0:
324,112,46011,1,0,0:0:0:0:
120,192,46211,1,8,0:3:0:0:
220,192,46411,1,0,0:0:0:0:
100,192,46611,1,0,0:0:0:0:
380,192,46811,6,0,L|476:192,1,80,8|8,0:3|0:3,0:0:0:0:
372,192,47211,1,8,0:0:0:0:
184,192,47411,2,0,L|16:148,1,160,0|8,0:0|0:3,0:0:0:0:
132,192,48011,1,8,0:0:0:0:
40,192,48211,1,0,0:0:0:0:
320,192,48411,6,0,L|464:176,1,120,8|8,0:3|0:3,0:0:0:0:
344,112,48811,2,0,L|264:112,1,80,8|0,0:0|0:0,0:0:0:0:
156,192,49211,1,0,0:0:0:0:
256,192,49411,1,8,0:3:0:0:
56,192,49611,1,8,0:0:0:0:
156,192,49811,1,0,0:0:0:0:
360,192,50011,6,0,L|456:192,1,80,8|8,0:3|0:3,0:0:0:0:
336,192,50411,1,8,0:0:0:0:
240,192,50611,1,8,0:3:0:0:
204,152,50711,1,8,0:3:0:0:
168,112,50811,1,8,0:0:0:0:
368,108,51011,1,8,0:3:0:0:
280,192,51211,2,0,L|366:192,1,80,8|8,0:0|0:0,0:0:0:0:
84,192,51611,6,0,P|72:136|100:60,1,120,8|8,0:3|0:3,0:0:0:0:
176,192,52011,2,0,L|272:192,1,80,8|0,0:0|0:0,0:0:0:0:
360,192,52411,1,0,0:0:0:0:
264,192,52611,1,0,0:0:0:0:
68,192,52811,1,8,0:0:0:0:
164,192,53011,1,0,0:0:0:0:
448,192,53211,6,0,L|472:100,1,80,8|0,0:3|0:0,0:0:0:0:
372,192,53611,1,8,0:0:0:0:
184,192,53811,2,0,P|132:152|108:56,1,160,8|8,0:0|0:3,0:0:0:0:
208,64,54411,1,8,0:0:0:0:
107,64,54611,1,0,0:0:0:0:
388,192,54811,6,0,L|524:176,1,120,8|0,0:3|0:0,0:0:0:0:
416,112,55211,2,0,L|332:112,1,80,8|0,0:0|0:0,0:0:0:0:
120,192,55611,1,0,0:0:0:0:
32,192,55811,1,8,0:3:0:0:
188,192,56011,2,0,L|76:192,1,80,8|0,0:0|0:0,0:0:0:0:
392,192,56411,6,0,L|480:192,1,80,8|0,0:3|0:0,0:0:0:0:
380,192,56811,1,8,0:0:0:0:
476,192,57011,1,0,0:0:0:0:
204,312,57211,5,8,0:3:0:0:
176,276,57311,1,8,0:0:0:0:
168,240,57411,1,8,0:0:0:0:
184,192,57511,1,8,0:0:0:0:
252,192,57611,1,8,0:0:0:0:
288,156,57711,1,8,0:0:0:0:
288,104,57811,1,8,0:0:0:0:
248,68,57911,1,8,0:0:0:0:
152,192,58011,5,12,0:1:0:0:
28,192,58311,1,12,0:1:0:0:
400,192,58611,1,12,0:1:0:0:
324,172,59011,1,2,0:3:0:0:
376,172,59111,1,2,0:3:0:0:
424,172,59211,1,2,0:3:0:0:
176,192,59386,6,0,B|92:192|92:192|28:144,1,160,12|0,0:1|0:0,0:0:0:0:
136,192,59986,1,8,0:0:0:0:
360,192,60211,1,8,0:0:0:0:
260,192,60411,1,0,0:0:0:0:
72,192,60611,1,8,0:0:0:0:
52,144,60711,1,0,0:0:0:0:
56,92,60811,1,0,0:0:0:0:
80,48,60911,1,0,0:0:0:0:
128,28,61011,1,8,0:3:0:0:
400,192,61211,6,0,P|436:152|440:44,1,160,12|8,0:1|0:0,0:0:0:0:
352,112,61811,1,0,0:0:0:0:
148,192,62011,2,0,L|48:192,1,80,0|8,0:0|0:3,0:0:0:0:
160,100,62411,1,8,0:0:0:0:
56,100,62611,1,0,0:0:0:0:
268,192,62811,6,0,L|376:192,1,80,0|8,0:0|0:3,0:0:0:0:
436,112,63211,2,0,L|304:88,1,120,8|0,0:0|0:0,0:0:0:0:
228,192,63611,2,0,L|144:192,1,80,8|8,0:0|0:3,0:0:0:0:
48,192,64011,2,0,L|164:192,1,80
408,192,64411,6,0,L|496:184,1,80,12|0,0:1|0:0,0:0:0:0:
296,192,64811,2,0,L|216:192,1,80,8|0,0:0|0:0,0:0:0:0:
108,192,65211,1,0,0:0:0:0:
204,192,65411,1,8,0:3:0:0:
408,192,65611,2,0,L|276:192,1,120,8|0,0:0|0:0,0:0:0:0:
196,192,66011,6,0,L|300:192,1,80,8|0,0:3|0:0,0:0:0:0:
368,112,66411,2,0,L|268:112,1,80,8|0,0:0|0:0,0:0:0:0:
180,116,66811,1,8,0:0:0:0:
264,192,67011,1,8,0:3:0:0:
468,192,67211,2,0,L|388:192,1,80,8|0,0:0|0:0,0:0:0:0:
96,192,67611,6,0,L|68:56,1,120,8|0,0:3|0:0,0:0:0:0:
168,192,68011,2,0,L|68:192,1,80,8|0,0:0|0:0,0:0:0:0:
4,192,68411,1,0,0:0:0:0:
104,192,68611,1,8,0:3:0:0:
288,192,68811,2,0,L|388:192,1,80,8|0,0:0|0:0,0:0:0:0:
456,192,69211,1,8,0:3:0:0:
368,192,69411,1,8,0:3:0:0:
88,192,69611,6,0,L|24:84,1,120,12|0,0:0|0:0,0:0:0:0:
124,192,70011,2,0,L|224:192,1,80,8|8,0:3|0:0,0:0:0:0:
396,192,70411,1,8,0:3:0:0:
496,192,70611,1,8,0:0:0:0:
216,192,70811,6,0,L|120:192,1,80,12|0,0:1|0:0,0:0:0:0:
232,192,71211,2,0,L|312:192,1,80,8|0,0:0|0:0,0:0:0:0:
108,192,71611,1,8,0:3:0:0:
24,192,71811,1,8,0:3:0:0:
128,112,72011,2,0,L|40:112,1,80,8|0,0:0|0:0,0:0:0:0:
336,192,72411,6,0,L|368:108,1,80,8|0,0:3|0:0,0:0:0:0:
284,96,72811,2,0,L|372:96,1,80,8|0,0:0|0:0,0:0:0:0:
168,192,73211,1,8,0:3:0:0:
72,192,73411,1,8,0:3:0:0:
184,192,73611,2,0,L|104:192,1,80,8|0,0:0|0:0,0:0:0:0:
376,192,74011,6,0,L|488:192,1,80,12|0,0:1|0:0,0:0:0:0:
356,192,74411,2,0,L|256:184,1,80,8|0,0:0|0:0,0:0:0:0:
76,192,74811,1,8,0:3:0:0:
160,192,75011,1,8,0:3:0:0:
356,192,75211,2,0,L|440:192,1,80,8|0,0:0|0:0,0:0:0:0:
144,192,75611,5,8,0:3:0:0:
24,100,75811,1,0,0:0:0:0:
224,192,76011,2,0,L|304:192,1,80,8|0,0:0|0:0,0:0:0:0:
132,192,76386,5,0,0:3:0:0:
104,148,76486,1,8,0:0:0:0:
104,96,76586,1,0,0:3:0:0:
128,52,76686,1,0,0:0:0:0:
200,192,76786,1,8,0:0:0:0:
152,152,76886,1,0,0:0:0:0:
100,112,76986,1,8,0:3:0:0:
380,192,77186,6,0,L|476:192,1,80,12|0,0:1|0:0,0:0:0:0:
352,120,77586,2,0,L|244:120,1,80,8|0,0:0|0:0,0:0:0:0:
64,192,77986,1,8,0:3:0:0:
160,192,78186,1,8,0:3:0:0:
376,192,78386,2,0,L|460:192,1,80,8|0,0:0|0:0,0:0:0:0:
168,192,78786,6,0,L|72:192,1,80,8|0,0:3|0:0,0:0:0:0:
4,124,79186,2,0,L|84:124,1,80,8|0,0:0|0:0,0:0:0:0:
364,192,79586,1,8,0:3:0:0:
268,192,79786,1,8,0:3:0:0:
56,192,79986,2,0,L|136:188,1,80,8|0,0:0|0:0,0:0:0:0:
416,192,80386,6,0,L|440:108,1,80,12|0,0:1|0:0,0:0:0:0:
356,192,80786,2,0,L|276:192,1,80,0|0,0:0|0:0,0:0:0:0:
80,192,81186,1,8,0:3:0:0:
164,192,81386,1,8,0:3:0:0:
368,192,81586,2,0,L|320:108,1,80,8|0,0:0|0:0,0:0:0:0:
44,192,81986,6,0,L|12:116,1,80,8|0,0:3|0:0,0:0:0:0:
204,192,82386,2,0,L|288:192,1,80,8|0,0:0|0:0,0:0:0:0:
472,192,82786,2,0,L|392:192,1,80,8|0,0:3|0:0,0:0:0:0:
204,192,83186,1,0,0:0:0:0:
168,144,83286,1,2,0:3:0:0:
172,84,83386,1,2,0:3:0:0:
208,36,83486,1,2,0:3:0:0:
332,192,83611,6,0,P|404:176|440:96,1,160,8|8,0:3|0:0,0:0:0:0:
244,192,84211,2,0,L|404:192,1,160,8|0,0:3|0:0,0:0:0:0:
124,192,84811,2,0,L|32:192,1,80,8|0,0:0|0:0,0:0:0:0:
244,192,85211,6,0,L|404:168,1,160,8|8,0:3|0:0,0:0:0:0:
200,192,85811,2,0,L|360:168,1,160,8|8,0:3|0:3,0:0:0:0:
72,192,86411,5,8,0:0:0:0:
