osu file format v14

[General]
AudioFilename: audio.mp3
AudioLeadIn: 0
PreviewTime: 44411
Countdown: 0
SampleSet: Soft
StackLeniency: 0.7
Mode: 2
LetterboxInBreaks: 0
WidescreenStoryboard: 1

[Editor]
Bookmarks: 32411,45211
DistanceSpacing: 0.9
BeatDivisor: 4
GridSize: 4
TimelineZoom: 1

[Metadata]
Title:Kamiiro Awase
TitleUnicode:カミイロアワセ
Artist:binaria
ArtistUnicode:binaria
Creator:celerih
Version:Cup
Source:ダンガンロンパ3-The End of 希望ヶ峰学園- 絶望編
Tags:danganronpa hope's peak academy side despair tv size opening yanaginagi やなぎなぎ Annabel Sinnoh examination Yumeno Himiko ZiRoX
BeatmapID:1344486
BeatmapSetID:632884

[Difficulty]
HPDrainRate:4
CircleSize:2.5
OverallDifficulty:6
ApproachRate:6
SliderMultiplier:1.6
SliderTickRate:1

[Events]
//Background and Video events
0,0,"mck.jpg",0,0
//Break Periods
//Storyboard Layer 0 (Background)
//Storyboard Layer 1 (Fail)
//Storyboard Layer 2 (Pass)
//Storyboard Layer 3 (Foreground)
//Storyboard Sound Samples

[TimingPoints]
411,400,4,2,1,50,1,0
6811,-100,4,2,1,70,0,0
32411,-100,4,2,1,50,0,0
45211,-100,4,2,1,80,0,1
59386,400,4,2,1,80,1,1
60211,400,4,2,1,80,1,1
61211,400,4,2,1,80,1,1
76386,400,4,2,1,80,1,1
76986,352.941176470588,4,2,1,80,1,1
77186,400,4,2,1,80,1,1
83611,400,4,2,1,50,1,0
86486,400,4,2,1,50,1,0

[Colours]
Combo1 : 254,232,71
Combo2 : 254,112,197
Combo3 : 96,255,255
Combo4 : 73,89,108

[HitObjects]
440,192,411,6,0,L|472:308,2,106.666666666667,2|0|0,0:0|0:0|0:0,0:0:0:0:
336,192,1211,2,0,L|220:168,1,106.666666666667
124,192,1744,1,0,0:0:0:0:
232,192,2011,6,0,L|332:136,2,106.666666666667,2|0|0,0:0|0:0|0:0,0:0:0:0:
112,192,2811,1,2,0:0:0:0:
380,192,3611,6,0,B|412:76,2,106.666666666667,2|0|0,0:0|0:0|0:0,0:0:0:0:
272,192,4411,2,0,L|132:160,1,106.666666666667
272,192,4944,1,0,0:0:0:0:
164,192,6811,6,0,L|408:128,1,240,8|8,0:3|0:3,0:0:0:0:
192,192,8011,1,2,0:0:0:0:
364,192,8411,6,0,L|392:112,1,80,10|10,0:3|0:3,0:0:0:0:
192,192,9011,2,0,L|8:160,1,160,8|8,0:3|0:3,0:0:0:0:
128,192,9611,1,8,0:0:0:0:
316,192,10011,6,0,L|76:136,1,240,8|8,0:3|0:3,0:0:0:0:
304,192,11211,1,2,0:0:0:0:
168,192,11611,6,0,L|248:192,1,80,10|10,0:3|0:3,0:0:0:0:
424,192,12211,2,0,P|468:136|416:60,1,160,8|8,0:3|0:3,0:0:0:0:
328,192,12811,1,8,0:0:0:0:
140,192,13211,6,0,L|392:144,1,240,8|8,0:3|0:3,0:0:0:0:
164,192,14411,1,2,0:0:0:0:
16,192,14811,6,0,L|-4:104,1,80,10|10,0:3|0:3,0:0:0:0:
144,196,15411,2,0,P|224:156|312:184,1,160,8|8,0:3|0:3,0:0:0:0:
392,192,16011,1,8,0:0:0:0:
224,192,16411,6,0,P|264:140|408:192,1,240,8|8,0:3|0:3,0:0:0:0:
160,192,17611,1,2,0:0:0:0:
336,192,18011,6,0,L|360:108,1,80,10|10,0:3|0:3,0:0:0:0:
204,192,18611,2,0,L|361:164,1,160,8|8,0:3|0:3,0:0:0:0:
456,192,19211,1,8,0:0:0:0:
276,192,19611,6,0,L|232:32,1,160,8|8,0:3|0:3,0:0:0:0:
328,56,20211,1,0,0:0:0:0:
492,188,20811,1,2,0:0:0:0:
324,192,21211,6,0,L|296:112,1,80,10|10,0:3|0:3,0:0:0:0:
132,192,21811,2,0,L|316:176,1,160,8|8,0:3|0:3,0:0:0:0:
384,192,22411,1,8,0:0:0:0:
212,192,22811,6,0,P|68:192|48:272,1,240,8|8,0:3|0:3,0:0:0:0:
272,192,24011,1,2,0:0:0:0:
96,192,24411,6,0,L|132:112,1,80,10|10,0:3|0:3,0:0:0:0:
304,192,25011,2,0,L|116:192,1,160,8|8,0:3|0:3,0:0:0:0:
236,192,25611,1,8,0:0:0:0:
396,192,26011,6,0,L|156:156,1,240,8|8,0:3|0:3,0:0:0:0:
416,192,27211,1,2,0:0:0:0:
260,192,27611,6,0,L|240:100,1,80,10|10,0:3|0:3,0:0:0:0:
72,192,28211,2,0,L|256:168,1,160,8|8,0:3|0:3,0:0:0:0:
144,192,28811,1,8,0:0:0:0:
304,192,29211,6,0,P|356:136|488:196,1,240,8|8,0:3|0:3,0:0:0:0:
228,192,30411,1,2,0:0:0:0:
56,192,30811,6,0,L|148:192,1,80,10|10,0:3|0:3,0:0:0:0:
316,192,31411,2,0,L|124:168,1,160,8|8,0:3|0:3,0:0:0:0:
240,192,32011,1,8,0:0:0:0:
120,192,32411,5,8,0:3:0:0:
28,192,32611,2,0,L|49:115,1,80,0|8,0:0|0:3,0:0:0:0:
148,192,33011,2,0,L|172:92,1,80,8|0,0:3|0:0,0:0:0:0:
300,192,34011,5,8,0:3:0:0:
392,192,34211,2,0,L|413:115,1,80,8|8,0:3|0:3,0:0:0:0:
328,192,34611,2,0,L|307:115,1,80,8|0,0:3|0:0,0:0:0:0:
168,192,35611,5,8,0:3:0:0:
260,192,35811,2,0,L|239:115,1,80,8|8,0:3|0:3,0:0:0:0:
152,192,36211,2,0,L|173:115,1,80,8|8,0:3|0:3,0:0:0:0:
336,192,36811,1,0,0:0:0:0:
156,192,37211,5,8,0:3:0:0:
316,192,38811,5,8,0:3:0:0:
224,192,39011,2,0,L|252:116,1,80,0|8,0:0|0:3,0:0:0:0:
332,192,39411,2,0,L|304:104,1,80,8|0,0:3|0:0,0:0:0:0:
160,192,40411,5,8,0:3:0:0:
256,192,40611,2,0,L|277:115,1,80,8|8,0:3|0:3,0:0:0:0:
200,192,41011,2,0,L|180:112,1,80,8|8,0:3|0:3,0:0:0:0:
360,192,42011,5,2,0:0:0:0:
164,192,42811,1,2,0:0:0:0:
412,192,43611,1,2,0:0:0:0:
128,192,45211,6,0,L|312:160,1,160,12|8,0:1|0:0,0:0:0:0:
440,192,46011,1,0,0:0:0:0:
300,192,46411,1,0,0:0:0:0:
208,192,46611,6,0,L|44:164,1,160,0|8,0:0|0:3,0:0:0:0:
128,192,47211,2,0,L|208:192,1,80,8|0,0:0|0:0,0:0:0:0:
400,192,47811,2,0,L|456:128,2,80,8|8|0,0:3|0:0|0:0,0:0:0:0:
292,192,48411,5,8,0:3:0:0:
128,192,48811,2,0,L|48:192,1,80,8|0,0:0|0:0,0:0:0:0:
132,112,49211,2,0,L|188:48,2,80,0|8|8,0:0|0:3|0:0,0:0:0:0:
228,192,49811,6,0,L|408:192,1,160,0|8,0:0|0:3,0:0:0:0:
472,192,50411,1,8,0:0:0:0:
308,192,50811,1,8,0:0:0:0:
144,192,51211,1,8,0:0:0:0:
340,192,51611,6,0,L|516:192,1,160,8|8,0:3|0:0,0:0:0:0:
340,192,52411,1,0,0:0:0:0:
176,192,52811,1,8,0:0:0:0:
96,192,53011,6,0,P|196:188|268:184,1,160,0|0,0:0|0:0,0:0:0:0:
344,192,53611,1,0,0:0:0:0:
148,192,54011,1,0,0:0:0:0:
240,192,54211,2,0,L|284:112,2,80,8|8|0,0:3|0:0|0:0,0:0:0:0:
344,192,54811,6,0,L|524:192,1,160,8|8,0:3|0:0,0:0:0:0:
432,112,55411,1,0,0:0:0:0:
332,112,55611,2,0,L|224:112,2,80,0|8|8,0:0|0:3|0:0,0:0:0:0:
440,112,56211,1,0,0:0:0:0:
268,192,56611,5,0,0:0:0:0:
176,192,56811,1,8,0:0:0:0:
360,192,57211,2,0,L|376:112,1,80,8|8,0:3|0:0,0:0:0:0:
292,192,57611,2,0,L|276:113,1,80,8|8,0:0|0:0,0:0:0:0:
164,192,58011,5,12,0:1:0:0:
292,192,58311,1,12,0:1:0:0:
152,192,58611,1,12,0:1:0:0:
384,192,59386,6,0,L|200:192,1,160,12|0,0:1|0:0,0:0:0:0:
48,192,60211,1,8,0:0:0:0:
224,192,60611,1,8,0:0:0:0:
48,192,61011,1,8,0:3:0:0:
136,192,61211,6,0,L|312:168,1,160,12|8,0:1|0:0,0:0:0:0:
384,192,61811,2,0,L|472:192,2,80,0|0|8,0:0|0:0|0:3,0:0:0:0:
300,192,62411,1,8,0:0:0:0:
200,192,62611,6,0,P|164:272|200:344,1,160,0|8,0:0|0:3,0:0:0:0:
292,192,63211,1,8,0:0:0:0:
116,192,63611,1,8,0:0:0:0:
292,192,64011,2,0,L|372:192,1,80,8|8,0:0|0:0,0:0:0:0:
272,288,64411,6,0,L|93:288,1,160,12|8,0:1|0:0,0:0:0:0:
272,192,65211,1,0,0:0:0:0:
112,192,65611,1,8,0:0:0:0:
208,192,65811,6,0,L|384:176,1,160,0|0,0:0|0:0,0:0:0:0:
464,192,66411,1,8,0:0:0:0:
304,192,66811,1,8,0:0:0:0:
464,192,67211,1,8,0:0:0:0:
388,192,67411,1,0,0:0:0:0:
312,192,67611,6,0,L|140:176,1,160,8|8,0:3|0:0,0:0:0:0:
316,192,68411,1,0,0:0:0:0:
480,192,68811,1,8,0:0:0:0:
408,192,69011,6,0,L|248:156,1,160,0|8,0:0|0:3,0:0:0:0:
160,192,69611,1,12,0:0:0:0:
316,192,70011,2,0,L|332:108,1,80,8|8,0:3|0:0,0:0:0:0:
248,112,70411,2,0,L|233:33,1,80,8|8,0:3|0:0,0:0:0:0:
144,192,70811,6,0,L|308:192,1,160,12|8,0:1|0:0,0:0:0:0:
144,112,71611,2,0,L|68:76,2,80,8|8|8,0:3|0:3|0:0,0:0:0:0:
288,192,72411,5,8,0:3:0:0:
448,192,72811,1,8,0:0:0:0:
372,192,73011,1,0,0:0:0:0:
464,192,73211,2,0,L|512:120,2,80,0|8|0,0:0|0:3|0:0,0:0:0:0:
280,192,74011,6,0,L|168:168,1,80
112,192,74411,1,8,0:0:0:0:
264,192,74811,2,0,L|320:132,2,80,8|8|8,0:3|0:3|0:0,0:0:0:0:
104,192,75611,5,8,0:3:0:0:
276,192,76011,1,8,0:0:0:0:
116,192,76386,2,0,L|36:192,1,80,0|0,0:3|0:3,0:0:0:0:
116,192,76786,1,8,0:0:0:0:
296,192,77186,6,0,L|472:168,1,160,12|8,0:1|0:0,0:0:0:0:
280,192,77986,2,0,L|224:124,2,80,8|8|8,0:3|0:3|0:0,0:0:0:0:
436,192,78786,5,8,0:3:0:0:
288,192,79186,1,8,0:0:0:0:
136,192,79586,2,0,L|116:88,1,80,8|8,0:3|0:3,0:0:0:0:
196,192,79986,2,0,L|216:88,1,80,8|0,0:0|0:0,0:0:0:0:
304,192,80386,6,0,L|480:192,1,160,12|0,0:1|0:0,0:0:0:0:
296,192,81186,2,0,L|248:108,2,80,8|8|8,0:3|0:3|0:0,0:0:0:0:
152,192,81986,5,8,0:3:0:0:
316,192,82386,1,8,0:0:0:0:
140,192,82786,1,8,0:3:0:0:
96,124,82986,1,0,0:0:0:0:
96,40,83186,1,0,0:0:0:0:
160,0,83386,1,2,0:3:0:0:
264,192,83586,6,0,L|436:192,1,160,0|0,0:0|0:0,0:0:0:0:
332,192,84211,2,0,P|296:120|356:44,1,160,8|0,0:3|0:0,0:0:0:0:
428,192,84811,1,8,0:0:0:0:
264,192,85211,6,0,L|88:184,1,160,8|8,0:3|0:0,0:0:0:0:
188,192,85811,2,0,L|364:184,1,160,8|8,0:3|0:3,0:0:0:0:
448,192,86411,1,8,0:0:0:0:
