osu file format v14

[General]
AudioFilename: audio.mp3
AudioLeadIn: 0
PreviewTime: 44000
Countdown: 0
SampleSet: Soft
StackLeniency: 0.3
Mode: 0
LetterboxInBreaks: 0
WidescreenStoryboard: 1

[Editor]
DistanceSpacing: 0.5
BeatDivisor: 4
GridSize: 4
TimelineZoom: 2.599999

[Metadata]
Title:Kamiiro Awase (TV Size)
TitleUnicode:カミイロアワセ (TV Size)
Artist:binaria
ArtistUnicode:binaria
Creator:[Mad]
Version:Hope
Source:ダンガンロンパ3-The End of 希望ヶ峰学園- 絶望編
Tags:Anime Pop Japanese Kibougamine Gakuen Zetsubou Hen danganronpa hope's peak academy side despair opening yanaginagi やなぎ なぎ annabel Mononymous Some Hero Bongo Shogud
BeatmapID:2516463
BeatmapSetID:1208600

[Difficulty]
HPDrainRate:5
CircleSize:4
OverallDifficulty:9
ApproachRate:9.3
SliderMultiplier:2
SliderTickRate:1

[Events]
//Background and Video events
Video,-100,"Video.mp4"
0,0,"play these games.jpg",0,0
//Break Periods
//Storyboard Layer 0 (Background)
//Storyboard Layer 1 (Fail)
//Storyboard Layer 2 (Pass)
//Storyboard Layer 3 (Foreground)
//Storyboard Layer 4 (Overlay)
//Storyboard Sound Samples

[TimingPoints]
0,400,4,2,1,55,1,0
0,-200,4,2,1,55,0,0
6400,-133.333333333333,4,2,1,55,0,0
32000,-200,4,2,1,40,0,0
41600,-1000,4,2,1,35,0,0
41900,-1000,4,2,1,5,0,0
42100,-1000,4,2,1,35,0,0
42700,-1000,4,2,1,5,0,0
42900,-1000,4,2,1,35,0,0
44000,-100,4,2,1,50,0,0
44800,-66.6666666666667,4,2,1,70,0,1
45000,-66.6666666666667,4,2,1,70,0,0
57600,-50,4,2,1,80,0,1
57800,-50,4,2,1,80,0,0
57900,-50,4,2,1,80,0,1
58100,-50,4,2,1,80,0,0
58200,-98.0392156862745,4,2,1,60,0,1
58400,387.096774193548,4,2,1,60,1,0
58980,404.721753794266,4,2,1,80,1,1
58980,-50,4,2,1,80,0,1
59182,403.361344537815,4,2,1,80,1,0
59585,-66.6666666666667,4,2,1,70,0,0
60795,400,4,2,1,70,1,1
60795,-66.6666666666667,4,2,1,70,0,1
60995,-66.6666666666667,4,2,1,70,0,0
70395,-50,4,2,1,80,0,1
70795,-66.6666666666667,4,2,1,70,0,1
73595,397.350993377483,4,2,1,70,1,1
73595,-66.6666666666667,4,2,1,70,0,1
75184,398.671096345515,4,2,1,70,1,1
75184,-66.6666666666667,4,2,1,70,0,1
79978,405.405405405405,4,2,1,80,1,1
79978,-66.6666666666667,4,2,1,80,0,1
82613,392.156862745098,4,2,1,80,1,1
83200,400,4,2,1,55,1,0
83200,-133.333333333333,4,2,1,55,0,0
86000,375,4,2,1,60,1,0

[Colours]
Combo1 : 128,128,128
Combo2 : 255,128,255
Combo3 : 192,192,192
Combo4 : 128,128,255

[HitObjects]
110,128,0,6,0,P|89:105|85:61,2,66.6666666666667,2|2|2,0:0|0:0|0:0,0:0:0:0:
193,84,800,2,0,P|182:52|157:31,2,66.6666666666667,2|2|2,0:0|0:0|0:0,0:0:0:0:
161,195,1600,2,0,P|184:175|223:161,1,66.6666666666667,2|2,0:0|0:0,0:0:0:0:
294,190,2133,5,2,0:0:0:0:
110,128,2400,1,2,0:0:0:0:
434,103,3200,6,0,L|446:35,2,66.6666666666667,2|2|2,0:0|0:0|0:0,0:0:0:0:
380,175,4000,2,0,L|391:242,2,66.6666666666667,2|2|2,0:0|0:0|0:0,0:0:0:0:
380,175,5100,6,2,B|334:184|334:184|337:174|337:174|305:194|305:194|287:174|287:174|282:147|295:113|295:113|269:142|240:133,1,225,2|0,0:0|0:0,0:0:0:0:
129,264,6400,6,0,P|109:274|77:303,1,37.5000014305115,2|2,2:3|2:3,0:0:0:0:
182,317,6600,2,0,P|169:336|156:377,1,37.5000014305115,2|2,2:3|2:3,0:0:0:0:
204,243,6800,1,2,2:3:0:0:
35,166,7000,6,0,P|133:184|208:92,1,225.000008583069,0|0,1:2|1:2,0:0:0:0:
207,96,8000,6,8,P|203:76|191:59,1,37.5000014305115,2|2,2:3|2:3,0:0:0:0:
266,25,8200,2,8,P|252:9|233:0,1,37.5000014305115,2|2,2:3|2:3,0:0:0:0:
286,100,8400,1,2,2:3:0:0:
394,13,8600,6,0,B|436:21|436:21|417:150,1,150.000005722046,0|0,1:2|1:2,0:0:0:0:
425,237,9100,1,0,3:2:0:0:
412,246,9200,2,0,P|361:228|353:170,1,112.500004291535,10|0,0:0|0:0,0:0:0:0:
341,159,9600,6,0,P|328:179|292:206,1,37.5000014305115,2|2,2:3|2:3,0:0:0:0:
289,264,9800,2,0,P|267:274|223:280,1,37.5000014305115,2|2,2:3|2:3,0:0:0:0:
187,237,10000,1,2,2:3:0:0:
213,354,10200,6,0,B|276:375|329:335|329:335|379:299|436:316,1,225.000008583069,0|0,1:2|1:2,0:0:0:0:
425,314,11200,6,0,P|426:289|433:256,1,37.5000014305115,2|2,2:3|2:3,0:0:0:0:
376,214,11400,2,0,P|389:192|411:167,1,37.5000014305115,2|2,2:3|2:3,0:0:0:0:
473,213,11600,1,2,2:3:0:0:
339,126,11800,6,0,P|274:123|205:177,1,150.000005722046,0|0,1:2|1:2,0:0:0:0:
132,227,12300,1,0,3:2:0:0:
144,244,12400,2,0,B|187:276|187:276|274:254,1,112.500004291535,10|0,0:0|0:0,0:0:0:0:
254,276,12800,6,0,P|235:297|213:330,1,37.5000014305115,2|2,2:3|2:3,0:0:0:0:
307,339,13000,2,0,P|301:366|298:406,1,37.5000014305115,2|2,2:3|2:3,0:0:0:0:
333,263,13200,1,2,2:3:0:0:
164,348,13400,6,0,P|69:342|49:222,1,225.000008583069,0|0,1:2|1:2,0:0:0:0:
43,230,14400,6,0,P|54:208|57:187,1,37.5000014305115,2|2,2:3|2:3,0:0:0:0:
134,194,14600,2,0,P|132:169|124:149,1,37.5000014305115,2|2,2:3|2:3,0:0:0:0:
59,118,14800,1,2,2:3:0:0:
196,7,14999,6,0,B|89:-8|89:-8|50:9,1,150.000005722046,0|0,1:2|1:2,0:0:0:0:
188,110,15500,1,0,3:2:0:0:
202,95,15600,2,0,P|246:71|325:58,1,112.500004291535,10|0,0:0|0:0,0:0:0:0:
324,62,16000,6,0,P|334:88|334:107,1,37.5000014305115,2|2,2:3|2:3,0:0:0:0:
413,99,16200,2,0,P|408:126|399:142,1,37.5000014305115,2|2,2:3|2:3,0:0:0:0:
334,176,16400,1,2,2:3:0:0:
404,9,16600,6,0,P|454:18|483:173,1,225.000008583069,0|0,1:2|1:2,0:0:0:0:
489,165,17600,6,0,P|486:186|489:227,1,37.5000014305115,2|2,2:3|2:3,0:0:0:0:
408,225,17800,2,0,P|415:244|439:278,1,37.5000014305115,2|2,2:3|2:3,0:0:0:0:
499,279,18000,1,2,2:3:0:0:
344,279,18200,6,0,B|268:265|268:265|270:261|270:261|178:245,1,150.000005722046,0|0,1:2|1:2,0:0:0:0:
58,194,18700,1,0,3:2:0:0:
70,178,18800,2,0,P|109:160|188:182,1,112.500004291535,10|0,0:0|0:0,0:0:0:0:
193,173,19200,6,0,P|214:165|238:151,1,37.5000014305115,2|2,2:3|2:3,0:0:0:0:
304,170,19400,2,0,P|318:152|331:128,1,37.5000014305115,2|2,2:3|2:3,0:0:0:0:
264,84,19600,1,2,2:3:0:0:
428,138,19800,6,0,B|462:134|486:107|486:107|423:45|335:63,1,225.000008583069,0|0,1:2|1:2,0:0:0:0:
341,61,20800,6,0,P|323:70|283:75,1,37.5000014305115,2|2,2:3|2:3,0:0:0:0:
228,94,21000,2,0,P|207:92|170:77,1,37.5000014305115,2|2,2:3|2:3,0:0:0:0:
248,19,21200,1,2,2:3:0:0:
118,125,21400,6,0,P|66:111|37:74,1,75.0000028610231,0|0,1:2|0:0,0:0:0:0:
191,87,21800,1,0,1:2:0:0:
195,97,21900,1,0,3:2:0:0:
199,108,22000,2,0,B|217:171|217:171|196:212,1,112.500004291535,10|0,0:0|0:0,0:0:0:0:
181,220,22400,6,0,P|180:242|185:264,1,37.5000014305115,2|2,2:3|2:3,0:0:0:0:
110,287,22600,2,0,P|120:306|135:323,1,37.5000014305115,2|2,2:3|2:3,0:0:0:0:
102,210,22800,1,2,2:3:0:0:
212,336,23000,6,0,B|302:320|302:320|322:325|322:325|447:303,1,225.000008583069,0|0,1:2|1:2,0:0:0:0:
433,305,24000,6,0,P|448:324|471:338,1,37.5000014305115,2|2,2:3|2:3,0:0:0:0:
462,232,24200,2,0,P|484:240|511:241,1,37.5000014305115,2|2,2:3|2:3,0:0:0:0:
386,239,24400,1,2,2:3:0:0:
482,150,24600,6,0,P|449:108|338:113,1,150.000005722046,0|0,1:2|1:2,0:0:0:0:
302,217,25100,1,0,3:2:0:0:
287,233,25200,2,0,B|263:204|263:204|280:118,1,112.500004291535,10|0,0:0|0:0,0:0:0:0:
269,109,25600,6,0,P|271:90|280:63,1,37.5000014305115,2|2,2:3|2:3,0:0:0:0:
207,33,25800,2,0,P|218:17|239:-1,1,37.5000014305115,2|2,2:3|2:3,0:0:0:0:
192,106,26000,1,2,2:3:0:0:
45,134,26200,6,0,B|-2:83|24:-7|24:-7|88:9|107:47,1,225.000008583069,0|0,1:2|1:2,0:0:0:0:
91,25,27200,6,0,P|95:53|88:85,1,37.5000014305115,2|2,2:3|2:3,0:0:0:0:
152,114,27400,2,0,P|141:140|119:164,1,37.5000014305115,2|2,2:3|2:3,0:0:0:0:
78,203,27600,1,2,2:3:0:0:
235,240,27800,6,0,B|159:231,1,75.0000028610231,0|0,1:2|0:0,0:0:0:0:
75,380,28200,1,0,1:2:0:0:
63,376,28300,1,0,3:2:0:0:
52,372,28400,2,0,P|45:336|114:300,1,112.500004291535,10|0,0:0|0:0,0:0:0:0:
115,309,28800,6,0,P|132:326|155:335,1,37.5000014305115,2|2,2:3|2:3,0:0:0:0:
203,384,29000,2,0,P|226:377|245:362,1,37.5000014305115,2|2,2:3|2:3,0:0:0:0:
268,300,29200,1,2,2:3:0:0:
430,331,29400,6,0,B|451:348|482:358|482:358|422:371|364:339|348:278,1,225.000008583069,0|0,1:2|1:2,0:0:0:0:
366,171,30200,1,2,0:0:0:0:
349,284,30400,6,0,P|347:265|352:229,1,37.5000014305115,2|2,2:3|2:3,0:0:0:0:
271,221,30600,2,0,P|278:203|301:174,1,37.5000014305115,2|2,2:3|2:3,0:0:0:0:
366,171,30800,1,2,2:3:0:0:
203,141,31000,6,0,B|201:106|201:106|332:96,1,150.000005722046,0|0,1:2|1:2,0:0:0:0:
478,102,31500,1,0,3:2:0:0:
468,113,31600,2,0,P|425:111|393:49,1,112.500004291535,10|0,0:0|0:0,0:0:0:0:
400,38,32000,6,0,L|453:29,3,50,0|0|0|0,1:2|1:2|1:2|1:2,0:0:0:0:
112,38,33600,6,0,L|62:29,3,50,0|0|0|0,1:2|1:2|1:2|1:2,0:0:0:0:
256,300,35200,6,0,L|256:352,4,50,0|0|0|0|0,1:2|1:2|1:2|1:2|1:2,0:0:0:0:
174,294,36400,6,0,P|178:267|190:244,1,50,0|0,1:2|1:2,0:0:0:0:
200,235,36700,1,0,1:2:0:0:
212,222,36800,2,0,P|180:186|117:173,1,100,0|0,1:2|1:2,0:0:0:0:
0,294,37400,5,0,1:2:0:0:
48,366,37600,1,0,1:2:0:0:
122,367,37800,1,0,1:2:0:0:
140,342,38000,1,0,1:2:0:0:
130,314,38200,1,0,1:2:0:0:
123,308,38300,1,0,1:2:0:0:
116,303,38400,6,0,P|102:280|94:252,3,50,0|0|0|0,1:2|1:2|1:2|1:2,0:0:0:0:
423,352,40000,6,0,P|440:330|455:296,1,50,0|0,1:2|1:2,0:0:0:0:
471,299,40300,1,0,1:2:0:0:
471,299,40400,2,0,P|469:270|459:235,2,50,0|0|0,1:2|1:2|1:2,0:0:0:0:
256,188,41600,6,0,L|256:147,2,40,2|2|2,0:0|0:0|0:0,0:0:0:0:
284,269,44000,6,2,B|189:259|189:259|196:266|196:266|103:253|103:253|65:318|101:371|139:367|159:326,1,350,2|0,0:0|0:0,0:0:0:0:
371,238,44800,6,0,P|362:159|275:163,1,150.000005722046,4|0,1:2|1:2,0:0:0:0:
231,121,45100,1,0,1:2:0:0:
210,136,45200,1,10,0:0:0:0:
462,170,45400,2,0,P|482:144|490:87,1,75.0000028610231,2|2,2:3|2:3,0:0:0:0:
383,9,45600,2,0,P|395:83|424:142,1,75.0000028610231,2|2,2:3|2:3,0:0:0:0:
451,255,45800,1,2,1:2:0:0:
390,317,46000,2,0,B|356:325|318:298|318:298|281:272|244:284,1,150.000005722046,10|2,0:0|2:2,0:0:0:0:
85,311,46300,1,0,1:2:0:0:
21,353,46400,6,0,P|88:340|142:270,1,150.000005722046,0|2,1:2|1:2,0:0:0:0:
315,200,46800,2,0,P|277:201|242:188,1,75.0000028610231,10|0,0:0|0:0,0:0:0:0:
40,133,47000,1,2,2:3:0:0:
76,126,47100,1,2,2:3:0:0:
112,135,47200,1,2,2:3:0:0:
140,159,47300,1,2,2:3:0:0:
156,193,47400,1,0,1:2:0:0:
0,219,47600,2,0,L|133:200,1,75.0000028610231,10|8,0:0|0:0,0:0:0:0:
242,188,47800,2,0,L|375:169,1,75.0000028610231,2|0,1:2|0:0,0:0:0:0:
393,321,48000,6,0,P|343:219|394:112,1,225.000008583069,2|2,1:2|1:2,0:0:0:0:
474,15,48400,2,0,B|405:27|405:27|394:36|394:36|312:50,1,150.000005722046,10|2,0:0|0:0,0:0:0:0:
243,26,48700,1,8,0:0:0:0:
225,5,48800,1,2,1:2:0:0:
461,97,49000,1,2,1:2:0:0:
261,187,49200,2,0,P|269:150|297:105,1,75.0000028610231,10|0,0:0|0:0,0:0:0:0:
329,47,49400,1,2,0:0:0:0:
117,107,49600,6,0,B|108:119|90:128|90:128|156:143|197:97,1,150.000005722046,0|2,1:2|1:2,0:0:0:0:
484,366,50000,2,0,B|463:335|463:335|410:311|336:318,1,150.000005722046,8|0,0:0|0:0,0:0:0:0:
285,277,50300,1,8,0:0:0:0:
260,284,50400,6,0,P|233:315|227:356,1,75.0000028610231,2|8,1:2|2:2,0:0:0:0:
100,324,50600,2,0,P|113:362|145:388,1,75.0000028610231,2|0,1:2|1:2,0:0:0:0:
363,237,50800,6,0,P|355:201|314:161,1,75.0000028610231,2|8,1:2|0:0,0:0:0:0:
117,107,51000,2,0,P|125:71|166:31,1,75.0000028610231,2|0,1:2|1:2,0:0:0:0:
225,212,51200,6,0,B|187:222|154:201|154:201|120:179|78:183,1,150.000005722046,6|0,0:0|0:0,0:0:0:0:
16,273,51500,1,0,1:2:0:0:
29,300,51600,2,0,P|108:287|135:196,1,150.000005722046,10|0,0:0|0:0,0:0:0:0:
203,135,51900,1,8,0:0:0:0:
195,111,52000,1,2,1:2:0:0:
31,119,52200,1,0,1:2:0:0:
9,197,52400,2,0,P|46:195|96:172,1,75.0000028610231,10|0,0:0|0:0,0:0:0:0:
147,43,52600,2,0,P|181:29|219:27,1,75.0000028610231,2|0,2:2|1:2,0:0:0:0:
352,111,52800,5,0,1:2:0:0:
403,281,53000,1,2,1:2:0:0:
301,334,53200,2,0,B|312:269|312:269|323:259|323:259|337:180,1,150.000005722046,8|0,0:0|0:0,0:0:0:0:
421,163,53500,1,8,0:0:0:0:
448,174,53600,1,0,1:2:0:0:
248,215,53800,1,0,1:2:0:0:
364,37,54000,2,0,L|345:146,1,75.0000028610231,10|0,0:0|0:0,0:0:0:0:
335,191,54200,2,0,L|316:300,1,75.0000028610231,2|0,0:0|0:0,0:0:0:0:
115,340,54400,6,0,P|186:296|280:325,1,150.000005722046,2|0,1:2|0:0,0:0:0:0:
381,357,54700,1,0,1:2:0:0:
454,338,54800,2,0,P|448:264|393:287,1,150.000005722046,10|0,0:0|1:2,0:0:0:0:
246,185,55100,1,8,2:2:0:0:
221,193,55200,1,2,2:3:0:0:
250,215,55300,1,2,2:3:0:0:
286,225,55400,1,0,1:2:0:0:
323,219,55500,1,2,2:3:0:0:
354,200,55600,2,0,L|375:37,1,150.000005722046,10|10,0:0|0:0,0:0:0:0:
290,3,55900,1,0,1:2:0:0:
266,13,56000,6,0,P|258:55|302:112,1,75.0000028610231,2|0,1:2|0:0,0:0:0:0:
458,100,56200,2,0,P|479:63|458:-5,1,75.0000028610231,2|0,1:2|0:0,0:0:0:0:
354,200,56400,1,8,0:0:0:0:
460,247,56600,2,0,P|455:209|431:169,1,75.0000028610231,2|10,0:0|0:0,0:0:0:0:
234,309,56800,5,2,1:2:0:0:
218,319,56900,1,2,1:2:0:0:
201,326,57000,1,10,0:0:0:0:
183,331,57100,1,10,0:0:0:0:
87,281,57200,5,8,0:0:0:0:
160,295,57300,1,8,0:0:0:0:
234,309,57400,1,8,0:0:0:0:
307,323,57500,1,8,0:0:0:0:
381,337,57600,6,0,B|424:328|448:297|448:297|457:239|430:207|430:207|406:266,1,200,4|0,0:0|0:0,0:0:0:0:
178,182,57900,6,0,B|157:176|133:158|133:158|147:215|209:234|276:206,1,200,4|0,0:0|0:0,0:0:0:0:
485,90,58200,6,0,B|494:51|470:27|470:27|323:45,1,200,4|0,0:0|1:2,0:0:0:0:
146,74,58690,5,0,1:2:0:0:
132,75,58786,1,0,3:3:0:0:
119,78,58883,1,0,3:3:0:0:
45,34,58980,6,0,B|144:2|224:80|224:80|226:69|226:69|255:193|344:236|392:140|319:124,1,400,4|0,3:2|1:2,0:0:0:0:
481,318,59585,2,0,P|444:249|376:263,1,150.000005722046,8|0,0:0|0:0,0:0:0:0:
295,265,59887,1,8,0:0:0:0:
280,285,59988,6,0,P|250:308|203:312,1,75.0000028610231,0|0,1:2|1:2,0:0:0:0:
65,279,60190,5,8,0:0:0:0:
17,217,60291,1,8,0:0:0:0:
22,130,60392,5,0,1:2:0:0:
41,140,60492,1,0,1:2:0:0:
108,195,60593,5,0,3:2:0:0:
94,203,60694,1,0,3:2:0:0:
121,166,60795,6,0,B|149:149|149:149|282:173,1,150.000005722046,6|0,1:2|1:2,0:0:0:0:
465,374,61195,2,0,P|406:289|452:225,1,150.000005722046,10|0,0:0|0:0,0:0:0:0:
416,170,61495,1,8,0:0:0:0:
442,155,61595,1,2,1:2:0:0:
327,296,61795,1,2,1:2:0:0:
254,87,61995,1,10,0:0:0:0:
344,20,62195,2,0,P|344:60|326:107,1,75.0000028610231,2|0,0:0|1:2,0:0:0:0:
168,230,62395,5,0,1:2:0:0:
272,355,62595,1,2,1:2:0:0:
470,271,62795,2,0,B|431:260|398:282|398:282|362:305|326:295,1,150.000005722046,10|0,0:0|0:0,0:0:0:0:
227,170,63095,1,8,0:0:0:0:
240,194,63195,6,0,P|276:216|323:212,1,75.0000028610231,10|8,1:2|2:2,0:0:0:0:
396,192,63395,2,0,P|433:171|453:129,1,75.0000028610231,2|2,1:2|2:3,0:0:0:0:
258,31,63595,6,0,P|256:73|283:111,1,75.0000028610231,10|8,0:2|0:2,0:0:0:0:
110,286,63795,2,0,P|146:308|193:304,1,75.0000028610231,2|0,2:2|2:2,0:0:0:0:
172,98,63995,6,0,P|121:39|0:66,1,150.000005722046,6|0,1:2|0:0,0:0:0:0:
8,143,64295,1,0,1:2:0:0:
24,165,64395,2,0,B|85:175|85:175|101:171|101:171|177:185,1,150.000005722046,10|0,0:0|0:0,0:0:0:0:
240,230,64695,1,8,0:0:0:0:
267,214,64795,1,2,1:2:0:0:
172,98,64995,1,0,1:2:0:0:
92,273,65195,2,0,P|129:274|164:261,1,75.0000028610231,10|0,0:0|0:0,0:0:0:0:
247,135,65395,2,0,P|284:133|319:146,1,75.0000028610231,2|0,0:0|1:2,0:0:0:0:
454,299,65595,5,0,1:2:0:0:
298,352,65795,1,2,1:2:0:0:
391,170,65995,2,0,L|370:332,1,150.000005722046,8|0,0:0|0:0,0:0:0:0:
299,272,66295,1,8,0:0:0:0:
289,241,66395,1,0,1:2:0:0:
467,147,66595,1,0,1:2:0:0:
294,27,66795,1,10,0:0:0:0:
257,29,66895,1,8,0:0:0:0:
226,49,66995,1,2,2:3:0:0:
209,82,67095,1,2,2:3:0:0:
214,122,67195,6,0,B|251:132|288:111|288:111|322:91|360:100,1,150.000005722046,6|0,1:2|0:0,0:0:0:0:
465,172,67495,1,0,1:2:0:0:
487,249,67595,2,0,P|440:216|442:112,1,150.000005722046,10|0,0:0|0:0,0:0:0:0:
358,261,67895,1,8,0:0:0:0:
359,283,67995,2,0,P|334:313|287:335,1,75.0000028610231,2|0,1:2|0:0,0:0:0:0:
195,283,68195,2,0,P|228:263|280:258,1,75.0000028610231,0|0,1:2|0:0,0:0:0:0:
439,315,68395,1,10,0:0:0:0:
335,176,68595,6,0,P|293:153|239:143,1,75.0000028610231,10|8,0:0|0:0,0:0:0:0:
105,188,68795,2,0,B|77:207|77:207|141:225|187:174,1,150.000005722046,0|2,1:2|1:2,0:0:0:0:
465,37,69195,2,0,P|360:43|337:90,1,150.000005722046,8|0,0:0|0:0,0:0:0:0:
414,218,69495,1,8,0:0:0:0:
433,196,69595,6,0,P|437:156|406:115,1,75.0000028610231,2|0,1:2|0:0,0:0:0:0:
235,96,69795,2,0,P|230:59|247:26,1,75.0000028610231,2|8,2:2|0:0,0:0:0:0:
330,216,69995,5,0,1:2:0:0:
256,197,70095,1,8,0:0:0:0:
183,178,70195,1,8,0:0:0:0:
110,160,70295,1,8,0:0:0:0:
100,126,70395,6,0,B|148:95|148:95|181:226|181:226|192:270|129:321|105:273,1,300,6|2,1:2|2:3,0:0:0:0:
29,261,70795,2,0,P|66:256|116:283,1,75.0000028610231,10|2,0:0|2:3,0:0:0:0:
220,334,70995,1,2,1:2:0:0:
233,342,71095,1,0,1:2:0:0:
247,350,71195,6,0,P|284:355|334:328,1,75.0000028610231,2|0,1:2|0:0,0:0:0:0:
388,209,71395,2,0,P|359:229|314:285,1,75.0000028610231,2|0,1:2|0:0,0:0:0:0:
399,356,71595,6,0,P|430:336|451:283,1,75.0000028610231,10|0,0:0|0:0,0:0:0:0:
416,131,71795,2,0,P|384:115|313:104,1,75.0000028610231,2|0,0:0|0:0,0:0:0:0:
152,206,71995,6,0,B|213:195|213:195|224:185|224:185|301:171,1,150.000005722046,2|2,1:2|0:0,0:0:0:0:
408,40,72295,1,0,0:0:0:0:
438,42,72395,2,0,P|475:60|504:101,1,75.0000028610231,10|0,0:0|0:0,0:0:0:0:
493,190,72595,1,2,1:2:0:0:
478,199,72695,1,0,1:2:0:0:
462,207,72795,6,0,P|426:220|387:227,1,75.0000028610231,2|0,1:2|0:0,0:0:0:0:
225,152,72995,2,0,P|262:159|298:172,1,75.0000028610231,2|0,1:2|0:0,0:0:0:0:
463,88,73195,6,0,P|438:117|408:142,1,75.0000028610231,10|0,0:0|0:0,0:0:0:0:
246,335,73395,1,2,1:2:0:0:
226,340,73495,1,0,1:2:0:0:
199,328,73595,6,0,P|205:258|273:246,1,150.000005722046,6|2,1:2|0:0,0:0:0:0:
389,226,73893,1,0,0:0:0:0:
390,243,73992,2,0,P|380:269|335:298,1,75.0000028610231,10|0,0:0|0:0,0:0:0:0:
296,172,74191,1,2,1:2:0:0:
297,155,74290,1,0,1:2:0:0:
301,139,74389,6,0,P|312:101|336:63,1,75.0000028610231,2|0,1:2|0:0,0:0:0:0:
217,192,74588,2,0,P|189:196|141:171,1,75.0000028610231,2|0,1:2|0:0,0:0:0:0:
66,67,74787,6,0,P|30:79|0:100,1,75.0000028610231,10|0,0:0|0:0,0:0:0:0:
8,235,74985,2,0,P|44:238|77:220,1,75.0000028610231,2|0,0:0|0:0,0:0:0:0:
198,30,75184,6,0,P|158:67|154:180,1,150.000005722046,2|2,1:2|0:0,0:0:0:0:
77,220,75483,1,0,0:0:0:0:
84,241,75582,2,0,P|106:268|158:285,1,75.0000028610231,10|0,0:0|0:0,0:0:0:0:
229,115,75782,2,0,P|266:115|303:125,1,75.0000028610231,2|0,0:0|0:0,0:0:0:0:
350,300,75981,5,2,1:2:0:0:
361,309,76081,1,0,1:2:0:0:
372,318,76180,2,0,P|409:313|433:276,1,75.0000028610231,2|0,1:2|1:2,0:0:0:0:
478,125,76380,1,10,0:0:0:0:
464,130,76480,1,0,1:2:0:0:
451,135,76579,2,0,P|425:170|415:202,1,75.0000028610231,2|0,1:2|1:2,0:0:0:0:
228,310,76778,6,0,B|222:327|226:343|226:343|276:314|281:230,1,150.000005722046,6|2,1:2|0:0,0:0:0:0:
336,181,77077,1,0,0:0:0:0:
340,155,77177,2,0,P|318:117|279:98,1,75.0000028610231,10|0,0:0|0:0,0:0:0:0:
205,209,77376,1,2,1:2:0:0:
195,222,77476,1,0,1:2:0:0:
185,236,77576,6,0,P|156:258|100:278,1,75.0000028610231,2|0,1:2|0:0,0:0:0:0:
84,92,77775,2,0,P|127:115|156:181,1,75.0000028610231,2|0,1:2|0:0,0:0:0:0:
45,322,77974,6,0,P|33:286|36:249,1,75.0000028610231,10|0,0:0|0:0,0:0:0:0:
225,131,78174,2,0,P|236:95|233:58,1,75.0000028610231,2|0,0:0|0:0,0:0:0:0:
2,172,78373,6,0,L|178:149,1,150.000005722046,2|2,1:2|0:0,0:0:0:0:
311,186,78672,1,0,0:0:0:0:
335,198,78772,2,0,P|369:187|394:148,1,75.0000028610231,10|0,0:0|0:0,0:0:0:0:
290,16,78971,2,0,P|256:27|231:66,1,75.0000028610231,2|0,0:0|0:0,0:0:0:0:
183,272,79170,6,0,P|212:251|239:195,1,75.0000028610231,2|0,1:2|0:0,0:0:0:0:
152,29,79370,2,0,P|123:50|96:106,1,75.0000028610231,2|0,1:2|0:0,0:0:0:0:
312,278,79569,6,0,B|351:286|384:265|384:265|421:240|465:253,1,150.000005722046,10|2,0:0|0:0,0:0:0:0:
486,353,79868,1,0,0:0:0:0:
465,370,79978,6,0,P|428:370|390:348,1,75.0000028610231,6|0,1:2|0:0,0:0:0:0:
235,357,80180,2,0,P|216:324|216:281,1,75.0000028610231,2|0,1:2|0:0,0:0:0:0:
29,230,80383,6,0,P|66:230|104:208,1,75.0000028610231,10|0,0:0|0:0,0:0:0:0:
259,217,80585,2,0,P|277:184|277:141,1,75.0000028610231,2|0,0:0|0:0,0:0:0:0:
457,33,80788,6,0,P|414:47|394:109,1,75.0000028610231,2|0,1:2|0:0,0:0:0:0:
198,84,80991,2,0,P|188:128|232:176,1,75.0000028610231,2|0,1:2|2:3,0:0:0:0:
473,189,81194,6,0,P|439:165|367:149,1,75.0000028610231,10|0,0:0|0:0,0:0:0:0:
332,268,81396,2,0,P|301:290|266:303,1,75.0000028610231,2|0,0:0|0:0,0:0:0:0:
102,109,81599,6,0,P|107:70|161:7,1,75.0000028610231,2|0,1:2|0:0,0:0:0:0:
375,0,81802,2,0,P|391:33|396:70,1,75.0000028610231,2|0,0:0|0:0,0:0:0:0:
146,204,82005,6,0,P|169:172|248:145,1,75.0000028610231,10|0,0:0|0:0,0:0:0:0:
490,117,82207,2,0,P|487:154|473:188,1,75.0000028610231,2|0,0:0|0:0,0:0:0:0:
110,360,82410,5,0,1:2:0:0:
145,319,82511,1,0,1:2:0:0:
221,289,82613,5,8,0:0:0:0:
234,305,82711,1,8,0:0:0:0:
285,371,82809,5,0,1:2:0:0:
320,330,82907,1,0,1:2:0:0:
396,300,83005,5,8,0:0:0:0:
409,316,83103,1,8,0:0:0:0:
419,330,83200,6,0,P|393:276|312:279,1,150.000005722046,0|8,1:2|0:0,0:0:0:0:
103,210,83800,2,0,B|144:197|178:219|178:219|210:241|248:230,1,150.000005722046,0|0,1:2|0:0,0:0:0:0:
297,135,84400,2,0,P|259:136|226:153,1,75.0000028610231,8|0,0:0|0:0,0:0:0:0:
128,284,84700,1,0,0:0:0:0:
113,303,84800,6,0,P|67:307|34:202,1,150.000005722046,0|8,1:2|0:0,0:0:0:0:
82,68,85400,2,0,B|132:76|132:76|140:72|140:72|194:82,1,112.500004291535,0|0,1:2|0:0,0:0:0:0:
209,69,85800,2,0,P|230:60|256:59,1,37.5000014305115,0|0,1:2|1:2,0:0:0:0:
433,115,86000,5,8,0:0:0:0:
386,140,86093,1,8,0:0:0:0:
351,72,86187,1,8,0:0:0:0:
398,47,86280,1,8,0:0:0:0:
