osu file format v14

[General]
AudioFilename: Despair.mp3
AudioLeadIn: 0
PreviewTime: 45111
Countdown: 0
SampleSet: Normal
StackLeniency: 0.7
Mode: 1
LetterboxInBreaks: 0
WidescreenStoryboard: 0

[Editor]
Bookmarks: 411,6812,19612,32612,45212,58012,61212,83612,86612
DistanceSpacing: 0.5
BeatDivisor: 4
GridSize: 32
TimelineZoom: 0.7999995

[Metadata]
Title:Kamiiro Awase
TitleUnicode:カミイロアワセ
Artist:binaria
ArtistUnicode:binaria
Creator:Stefan
Version:Ayyri's Futsuu
Source:ダンガンロンパ3 -The End of 希望ヶ峰学園- <絶望編>
Tags:danganronpa danganronpa3 hope's peak academy kibō hō gakuen side despair zetsubou-hen tv size yanaginagi annabel ayyri thenutritiousguy tng
BeatmapID:1065614
BeatmapSetID:500710

[Difficulty]
HPDrainRate:6
CircleSize:2
OverallDifficulty:4
ApproachRate:10
SliderMultiplier:1.4
SliderTickRate:1

[Events]
//Background and Video events
0,0,"mayybee.png",0,-90
//Break Periods
//Storyboard Layer 0 (Background)
//Storyboard Layer 1 (Fail)
//Storyboard Layer 2 (Pass)
//Storyboard Layer 3 (Foreground)
//Storyboard Sound Samples

[TimingPoints]
411,400,4,1,0,40,1,0
411,-133.333333333333,4,1,0,40,0,0
6611,-133.333333333333,4,1,0,70,0,0
6811,-100,4,1,0,70,0,0
32411,-100,4,1,0,60,0,0
44211,-100,4,1,0,70,0,0
45211,-100,4,1,0,70,0,1
58011,-100,4,1,0,70,0,0
61211,-100,4,1,0,70,0,1
70811,-100,4,1,0,70,0,0
83611,-100,4,1,0,70,0,0

[HitObjects]
256,192,6811,5,8,0:0:0:0:
256,192,7211,1,0,0:0:0:0:
256,192,7411,1,8,0:0:0:0:
256,192,8411,1,8,0:0:0:0:
256,192,9011,1,0,0:0:0:0:
256,192,9411,1,0,0:0:0:0:
256,192,9611,1,8,0:0:0:0:
256,192,10011,1,8,0:0:0:0:
256,192,10411,1,0,0:0:0:0:
256,192,10611,1,8,0:0:0:0:
256,192,11611,1,8,0:0:0:0:
256,192,12211,1,0,0:0:0:0:
256,192,12611,1,0,0:0:0:0:
256,192,12811,1,8,0:0:0:0:
256,192,13211,1,8,0:0:0:0:
256,192,13611,1,0,0:0:0:0:
256,192,13811,1,8,0:0:0:0:
256,192,14811,1,8,0:0:0:0:
256,192,15411,1,0,0:0:0:0:
256,192,15811,1,0,0:0:0:0:
256,192,16011,1,8,0:0:0:0:
256,192,16411,1,8,0:0:0:0:
256,192,16811,1,0,0:0:0:0:
256,192,17011,1,8,0:0:0:0:
256,192,18011,1,8,0:0:0:0:
256,192,18611,1,0,0:0:0:0:
256,192,19011,1,0,0:0:0:0:
256,192,19211,1,8,0:0:0:0:
256,192,19611,1,8,0:0:0:0:
256,192,19811,1,0,0:0:0:0:
256,192,20011,1,0,0:0:0:0:
256,192,20411,1,8,0:0:0:0:
256,192,20811,1,8,0:0:0:0:
256,192,21211,1,0,0:0:0:0:
256,192,22011,1,0,0:0:0:0:
256,192,22811,1,8,0:0:0:0:
256,192,23211,1,0,0:0:0:0:
256,192,23411,1,0,0:0:0:0:
256,192,24011,1,8,0:0:0:0:
256,192,24411,1,8,0:0:0:0:
256,192,25011,1,0,0:0:0:0:
256,192,25411,1,0,0:0:0:0:
256,192,25611,1,8,0:0:0:0:
256,192,26011,1,8,0:0:0:0:
256,192,26411,1,0,0:0:0:0:
256,192,26611,1,8,0:0:0:0:
256,192,26811,1,0,0:0:0:0:
256,192,27211,1,8,0:0:0:0:
256,192,27611,1,8,0:0:0:0:
256,192,28411,1,0,0:0:0:0:
256,192,29211,1,8,0:0:0:0:
256,192,29611,1,0,0:0:0:0:
256,192,29811,1,0,0:0:0:0:
256,192,30611,1,8,0:0:0:0:
256,192,30811,1,8,0:0:0:0:
256,192,31411,1,0,0:0:0:0:
256,192,31811,1,0,0:0:0:0:
256,192,32011,1,8,0:0:0:0:
256,192,32611,1,0,0:0:0:0:
256,192,32811,1,8,0:0:0:0:
256,192,33211,1,0,0:0:0:0:
256,192,34211,1,0,0:0:0:0:
256,192,34411,1,8,0:0:0:0:
256,192,34811,1,0,0:0:0:0:
256,192,35811,1,8,0:0:0:0:
256,192,36011,1,0,0:0:0:0:
256,192,36411,1,0,0:0:0:0:
256,192,36811,1,8,0:0:0:0:
256,192,37211,1,0,0:0:0:0:
256,192,38411,1,8,0:0:0:0:
256,192,39011,1,0,0:0:0:0:
256,192,39211,1,8,0:0:0:0:
256,192,39611,1,0,0:0:0:0:
256,192,40611,1,0,0:0:0:0:
256,192,40811,1,8,0:0:0:0:
256,192,41211,1,0,0:0:0:0:
256,192,42011,1,4,0:0:0:0:
256,192,42811,1,4,0:0:0:0:
256,192,43611,1,12,0:0:0:0:
256,192,44411,1,0,0:0:0:0:
256,192,44611,1,0,0:0:0:0:
256,192,44811,1,8,0:0:0:0:
256,192,45211,1,4,0:0:0:0:
256,192,45611,1,0,0:0:0:0:
256,192,46011,1,8,0:0:0:0:
256,192,46411,1,0,0:0:0:0:
256,192,46611,1,8,0:0:0:0:
256,192,47011,1,0,0:0:0:0:
256,192,47211,1,0,0:0:0:0:
256,192,47411,1,8,0:0:0:0:
256,192,48011,1,0,0:0:0:0:
256,192,48411,1,8,0:0:0:0:
256,192,48811,1,0,0:0:0:0:
256,192,49011,1,0,0:0:0:0:
256,192,49211,1,0,0:0:0:0:
256,192,49611,1,0,0:0:0:0:
256,192,49811,1,8,0:0:0:0:
256,192,50211,1,8,0:0:0:0:
256,192,51211,1,0,0:0:0:0:
256,192,51611,1,8,0:0:0:0:
256,192,52011,1,0,0:0:0:0:
256,192,52411,1,8,0:0:0:0:
256,192,52811,1,0,0:0:0:0:
256,192,53011,1,8,0:0:0:0:
256,192,53411,1,8,0:0:0:0:
256,192,54011,1,0,0:0:0:0:
256,192,54211,1,0,0:0:0:0:
256,192,54411,1,8,0:0:0:0:
256,192,54811,1,0,0:0:0:0:
256,192,55211,1,0,0:0:0:0:
256,192,55411,1,0,0:0:0:0:
256,192,55611,1,8,0:0:0:0:
256,192,56011,1,8,0:0:0:0:
256,192,56611,1,0,0:0:0:0:
256,192,56811,1,8,0:0:0:0:
256,192,57211,1,0,0:0:0:0:
256,192,57411,1,0,0:0:0:0:
256,192,57611,1,8,0:0:0:0:
256,192,58011,1,4,0:0:0:0:
256,192,58611,1,4,0:0:0:0:
256,192,59011,1,0,0:0:0:0:
256,192,59211,1,0,0:0:0:0:
256,192,59411,1,12,0:0:0:0:
256,192,60211,1,8,0:0:0:0:
256,192,60611,1,0,0:0:0:0:
256,192,60811,1,8,0:0:0:0:
256,192,61211,1,4,0:0:0:0:
256,192,61611,1,0,0:0:0:0:
256,192,61811,1,8,0:0:0:0:
256,192,62011,1,0,0:0:0:0:
256,192,62411,1,8,0:0:0:0:
256,192,62611,1,0,0:0:0:0:
256,192,63011,1,0,0:0:0:0:
256,192,63211,1,8,0:0:0:0:
256,192,64011,1,0,0:0:0:0:
256,192,64211,1,0,0:0:0:0:
256,192,64411,1,8,0:0:0:0:
256,192,64811,1,8,0:0:0:0:
256,192,65211,1,0,0:0:0:0:
256,192,65611,1,0,0:0:0:0:
256,192,65811,1,8,0:0:0:0:
256,192,66211,1,8,0:0:0:0:
256,192,66411,1,0,0:0:0:0:
256,192,67211,1,0,0:0:0:0:
256,192,67411,1,0,0:0:0:0:
256,192,67611,1,8,0:0:0:0:
256,192,68011,1,8,0:0:0:0:
256,192,68411,1,0,0:0:0:0:
256,192,68811,1,0,0:0:0:0:
256,192,69011,1,8,0:0:0:0:
256,192,69411,1,0,0:0:0:0:
256,192,69611,1,12,0:0:0:0:
256,192,70011,1,0,0:0:0:0:
256,192,70211,1,0,0:0:0:0:
256,192,70411,1,8,0:0:0:0:
256,192,70811,1,4,0:0:0:0:
256,192,71211,1,8,0:0:0:0:
256,192,72011,1,8,0:0:0:0:
256,192,72411,1,0,0:0:0:0:
256,192,72811,1,8,0:0:0:0:
256,192,73211,1,0,0:0:0:0:
256,192,73411,1,8,0:0:0:0:
256,192,73611,1,0,0:0:0:0:
256,192,74011,1,4,0:0:0:0:
256,192,74411,1,8,0:0:0:0:
256,192,75211,1,8,0:0:0:0:
256,192,75611,1,0,0:0:0:0:
256,192,76011,1,8,0:0:0:0:
256,192,76411,1,0,0:0:0:0:
256,192,76811,1,8,0:0:0:0:
256,192,77011,1,8,0:0:0:0:
256,192,77211,1,4,0:0:0:0:
256,192,77611,1,8,0:0:0:0:
256,192,78411,1,8,0:0:0:0:
256,192,78811,1,0,0:0:0:0:
256,192,79011,1,8,0:0:0:0:
256,192,79211,1,0,0:0:0:0:
256,192,79611,1,8,0:0:0:0:
256,192,80011,1,8,0:0:0:0:
256,192,80211,1,8,0:0:0:0:
256,192,80411,1,4,0:0:0:0:
256,192,80811,1,8,0:0:0:0:
256,192,81611,1,8,0:0:0:0:
256,192,82011,1,0,0:0:0:0:
256,192,82411,1,8,0:0:0:0:
256,192,82811,1,0,0:0:0:0:
256,192,83011,1,0,0:0:0:0:
256,192,83211,1,8,0:0:0:0:
256,192,83611,1,0,0:0:0:0:
256,192,84011,1,8,0:0:0:0:
256,192,84211,1,0,0:0:0:0:
256,192,84811,1,8,0:0:0:0:
256,192,85211,1,0,0:0:0:0:
256,192,85611,1,8,0:0:0:0:
256,192,85811,1,0,0:0:0:0:
256,192,86211,1,0,0:0:0:0:
256,192,86411,1,8,0:0:0:0:
