osu file format v14

[General]
AudioFilename: audio.mp3
AudioLeadIn: 1500
PreviewTime: 44478
Countdown: 0
SampleSet: Soft
StackLeniency: 0.3
Mode: 0
LetterboxInBreaks: 0
WidescreenStoryboard: 1

[Editor]
DistanceSpacing: 1.8
BeatDivisor: 4
GridSize: 16
TimelineZoom: 1

[Metadata]
Title:Kamiiro Awase
TitleUnicode:カミイロアワセ
Artist:binaria
ArtistUnicode:binaria
Creator:No_Gu
Version:Normal
Source:ダンガンロンパ3-The End of 希望ヶ峰学園- 絶望編
Tags:DANGANRONPA DANGANRONPA3 Kibougamine Kibou Gamine Gakuen Zetsubou Hen やなぎなぎ Annabel yanaginagi Fumika Netsukawa
BeatmapID:1031513
BeatmapSetID:483416

[Difficulty]
HPDrainRate:4
CircleSize:3
OverallDifficulty:4.5
ApproachRate:5
SliderMultiplier:1
SliderTickRate:1

[Events]
//Background and Video events
Video,0,"video.avi"
0,0,"BG.jpg",0,0
//Break Periods
//Storyboard Layer 0 (Background)
//Storyboard Layer 1 (Fail)
//Storyboard Layer 2 (Pass)
//Storyboard Layer 3 (Foreground)
//Storyboard Sound Samples

[TimingPoints]
478,400,4,2,1,35,1,0
478,-100,4,2,1,35,0,0
6878,-100,4,2,2,35,0,0
32478,-100,4,1,1,20,0,0
37278,-100,4,2,2,30,0,0
38878,-100,4,1,1,20,0,0
42078,-100,4,2,2,40,0,0
42878,-100,4,2,2,30,0,0
43678,-100,4,2,2,50,0,0
45278,-100,4,2,1,50,0,1
59453,400,4,2,1,50,1,1
60278,400,4,1,1,30,1,1
61278,400,4,2,1,50,1,1
70078,-100,4,1,1,30,0,1
70878,-100,4,2,1,50,0,1
76453,400,4,2,1,50,1,1
77053,352.941176470588,4,2,1,50,1,1
77253,400,4,2,1,50,1,1
83678,400,4,2,1,40,1,0
86553,400,4,2,1,40,1,0

[Colours]
Combo1 : 128,255,128
Combo2 : 255,255,128
Combo3 : 255,128,128
Combo4 : 128,255,255

[HitObjects]
58,109,478,6,0,L|48:34,2,66.6666666666667,2|0|0,0:0|0:0|0:0,0:0:0:0:
116,213,1278,2,0,L|106:288,2,66.6666666666667,2|0|0,0:0|0:0|0:0,0:0:0:0:
219,151,2078,2,0,P|252:145|287:149,1,66.6666666666667,2|0,0:0|0:0,0:0:0:0:
396,191,2611,2,0,P|429:197|464:193,1,66.6666666666667,2|2,0:0|0:0,0:0:0:0:
126,60,3678,6,0,P|91:63|57:85,1,66.6666666666667,2|0,0:0|0:0,0:0:0:0:
135,174,4211,2,0,P|155:202|191:221,1,66.6666666666667,0|2,0:0|0:0,0:0:0:0:
237,112,4744,2,0,P|251:80|249:39,1,66.6666666666667
469,265,6878,6,0,L|368:259,1,100,2|0,1:0|0:0,0:0:0:0:
300,317,7478,2,0,P|276:258|325:179,1,150,2|2,1:0|0:0,0:0:0:0:
133,185,8478,2,0,L|71:178,2,50,2|0|0,1:0|1:0|0:0,0:0:0:0:
215,149,9078,2,0,P|229:103|213:42,1,100,2|2,1:0|0:0,0:0:0:0:
137,14,9678,1,10,0:0:0:0:
313,46,10078,6,0,L|414:42,1,100,2|0,1:0|0:0,0:0:0:0:
478,104,10678,2,0,P|500:176|461:242,1,150,2|2,1:0|0:0,0:0:0:0:
298,303,11678,2,0,L|229:296,1,50,2|0,1:0|1:0,0:0:0:0:
70,333,12278,2,0,P|59:277|73:215,1,100,2|2,1:0|1:0,0:0:0:0:
109,156,12878,1,10,0:0:0:0:
266,68,13278,6,0,L|382:72,1,100,2|0,1:0|0:0,0:0:0:0:
436,16,13878,2,0,P|460:75|413:154,1,150,2|2,1:0|0:0,0:0:0:0:
246,186,14878,2,0,L|184:179,2,50,2|0|0,1:0|1:0|0:0,0:0:0:0:
314,244,15478,2,0,P|328:290|312:351,1,100,2|2,1:0|0:0,0:0:0:0:
233,370,16078,1,10,0:0:0:0:
72,288,16478,6,0,L|84:178,1,100,2|0,1:0|0:0,0:0:0:0:
138,118,17078,2,0,P|210:96|276:135,1,150,2|2,1:0|0:0,0:0:0:0:
366,286,18078,2,0,L|373:217,1,50,2|0,1:0|1:0,0:0:0:0:
429,65,18678,2,0,P|382:53|316:68,1,100,2|2,1:0|1:0,0:0:0:0:
272,129,19278,1,10,0:0:0:0:
202,295,19678,6,0,P|154:307|96:295,1,100,2|0,1:0|0:0,0:0:0:0:
39,236,20278,1,2,1:0:0:0:
82,156,20478,2,0,L|77:53,1,100,0|2,0:0|0:0,0:0:0:0:
230,149,21278,2,0,L|227:200,1,50,2|0,1:0|1:0,0:0:0:0:
373,304,21878,2,0,P|390:255|373:189,1,100,2|2,1:0|1:0,0:0:0:0:
339,129,22478,1,10,0:0:0:0:
240,279,22878,6,0,L|119:275,1,100,2|0,1:0|0:0,0:0:0:0:
76,339,23478,2,0,P|47:289|81:203,1,150,2|2,1:0|0:0,0:0:0:0:
217,95,24478,2,0,L|210:35,2,50,2|2|0,1:0|1:0|0:0,0:0:0:0:
290,147,25078,2,0,P|334:157|386:134,1,100,2|2,1:0|1:0,0:0:0:0:
441,67,25678,1,10,0:0:0:0:
504,235,26078,6,0,L|492:336,1,100,2|0,1:0|0:0,0:0:0:0:
406,363,26678,1,2,1:0:0:0:
332,310,26878,2,0,P|280:300|227:314,1,100,0|2,0:0|0:0,0:0:0:0:
62,360,27678,2,0,L|59:308,1,50,2|0,1:0|1:0,0:0:0:0:
145,151,28278,2,0,P|191:135|243:148,1,100,2|2,1:0|1:0,0:0:0:0:
306,207,28878,1,10,0:0:0:0:
186,341,29278,6,0,L|194:231,1,100,2|0,1:0|0:0,0:0:0:0:
142,166,29878,2,0,P|92:137|4:172,1,150,2|2,1:0|0:0,0:0:0:0:
167,78,30878,2,0,L|160:18,2,50,2|2|0,1:0|1:0|0:0,0:0:0:0:
237,134,31478,2,0,P|281:144|332:129,1,100,2|2,1:0|1:0,0:0:0:0:
412,87,32078,1,10,0:0:0:0:
358,258,32478,6,0,L|364:309,1,50
279,339,32878,2,0,L|273:288,1,50
246,76,34078,2,0,L|287:45,1,50
355,103,34478,2,0,L|313:133,1,50
135,250,35678,6,0,L|87:229,1,50
103,142,36078,2,0,L|150:162,1,50
223,211,36478,2,0,P|240:168|223:112,2,100,2|2|2,2:0|2:0|2:0,0:0:0:0:
491,179,37878,2,0,L|498:236,2,50,0|2|0,0:0|0:0|0:0,0:0:0:0:
477,89,38478,1,2,0:0:0:0:
319,179,38878,6,0,L|260:182,1,50
186,218,39278,2,0,L|127:215,1,50
318,49,40478,2,0,L|377:52,1,50
451,88,40878,2,0,L|510:85,1,50
128,339,42078,5,2,0:0:0:0:
486,318,42878,1,2,0:0:0:0:
288,17,43678,1,2,0:0:0:0:
80,139,45278,6,0,P|95:192|82:244,1,100,4|8,0:0|0:0,0:0:0:0:
163,282,45878,1,0,0:0:0:0:
243,240,46078,2,0,L|236:177,2,50,2|0|8,0:0|0:0|0:0,0:0:0:0:
318,290,46678,2,0,P|361:308|415:292,1,100,2|0,0:0|0:0,0:0:0:0:
460,219,47278,1,8,0:0:0:0:
370,214,47478,2,0,L|374:102,1,100,2|0,0:0|0:0,0:0:0:0:
380,24,48078,1,8,0:0:0:0:
241,139,48478,6,0,P|193:153|142:135,1,100,2|8,0:0|0:0,0:0:0:0:
70,89,49078,1,0,0:0:0:0:
58,178,49278,2,0,L|-10:173,2,50,2|0|8,0:0|0:0|0:0,0:0:0:0:
132,229,49878,2,0,P|147:275|131:321,1,100,2|2,0:0|0:0,0:0:0:0:
219,337,50478,2,0,L|327:344,2,100,8|0|8,0:0|0:0|0:0,0:0:0:0:
49,274,51678,6,0,P|38:228|53:174,1,100,4|8,0:0|0:0,0:0:0:0:
116,115,52278,1,0,0:0:0:0:
196,155,52478,2,0,L|315:150,1,100,2|8,0:0|0:0,0:0:0:0:
357,85,53078,2,0,L|476:90,1,100,2|2,0:0|0:0,0:0:0:0:
506,12,53678,1,8,0:0:0:0:
460,186,54078,2,0,L|468:298,1,100,2|8,0:0|0:0,0:0:0:0:
406,351,54678,1,0,0:0:0:0:
327,306,54878,6,0,P|273:293|216:314,1,100,2|8,0:0|0:0,0:0:0:0:
146,337,55478,1,0,0:0:0:0:
61,304,55678,2,0,L|60:193,1,100,2|8,0:0|0:0,0:0:0:0:
142,167,56278,2,0,L|143:56,1,100,2|2,0:0|0:0,0:0:0:0:
219,20,56878,1,8,0:0:0:0:
367,122,57278,2,0,L|366:177,1,50,2|0,0:0|0:0,0:0:0:0:
300,232,57678,2,0,L|299:287,1,50,2|0,0:0|0:0,0:0:0:0:
221,327,58078,6,0,P|181:328|139:324,2,75,8|8|8,0:0|0:0|0:0,0:0:0:0:
270,158,59078,2,0,P|299:153|337:160,1,50,0|2,0:0|0:0,0:0:0:0:
300,232,59453,2,0,L|303:336,1,100,4|2,0:0|0:0,0:0:0:0:
430,189,60278,2,0,P|435:142|426:82,2,100
345,220,61278,6,0,L|233:215,1,100,4|8,0:0|0:0,0:0:0:0:
156,231,61878,1,0,0:0:0:0:
96,163,62078,2,0,L|87:103,2,50,0|0|8,0:0|0:0|0:0,0:0:0:0:
70,249,62678,2,0,P|60:297|68:347,1,100,2|2,0:0|0:0,0:0:0:0:
152,378,63278,1,8,0:0:0:0:
324,327,63678,1,0,0:0:0:0:
499,364,64078,2,0,L|505:306,1,50,8|0,0:0|0:0,0:0:0:0:
456,237,64478,6,0,P|414:216|361:221,1,100,4|8,0:0|0:0,0:0:0:0:
285,266,65078,1,0,0:0:0:0:
212,212,65278,2,0,L|218:108,1,100,2|8,0:0|0:0,0:0:0:0:
159,42,65878,2,0,P|115:29|62:35,1,100,2|2,0:0|0:0,0:0:0:0:
0,99,66478,1,8,0:0:0:0:
90,254,66878,2,0,L|87:306,2,50,2|0|8,0:0|0:0|0:0,0:0:0:0:
252,175,67678,6,0,P|300:168|350:190,1,100,4|8,0:0|0:0,0:0:0:0:
406,255,68278,1,0,0:0:0:0:
472,194,68478,2,0,L|480:83,1,100,2|8,0:0|0:0,0:0:0:0:
414,32,69078,2,0,P|361:22|300:35,1,100,2|0,0:0|0:0,0:0:0:0:
240,79,69678,1,12,0:0:0:0:
145,232,70078,2,0,L|146:296,1,50
235,286,70478,2,0,L|234:222,1,50
298,172,70878,6,0,P|257:146|192:156,1,100,4|12,0:0|0:0,0:0:0:0:
54,244,71678,2,0,L|5:236,2,50,0|0|8,0:0|0:0|0:0,0:0:0:0:
234,236,72478,2,0,P|248:290|226:349,1,100,0|8,0:0|0:0,0:0:0:0:
405,269,73278,2,0,L|474:275,2,50,0|0|8,0:0|0:0|0:0,0:0:0:0:
269,151,74078,6,0,P|259:101|271:48,1,100,4|8,0:0|0:0,0:0:0:0:
440,107,74878,2,0,L|497:102,2,50,0|0|8,0:0|0:0|0:0,0:0:0:0:
307,228,75678,2,0,P|250:238|208:212,1,100,0|8,0:0|0:0,0:0:0:0:
83,111,76453,2,0,L|22:118,2,50,0|0|8,0:0|0:0|0:0,0:0:0:0:
144,277,77253,6,0,P|153:329|120:377,1,100,4|8,0:0|0:0,0:0:0:0:
308,339,78053,2,0,L|361:346,2,50,0|0|8,0:0|0:0|0:0,0:0:0:0:
357,165,78853,2,0,P|334:121|343:73,1,100,0|8,0:0|0:0,0:0:0:0:
180,135,79653,2,0,L|130:141,2,50,0|0|8,0:0|0:0|0:0,0:0:0:0:
256,192,80453,12,2,83678,0:0:0:0:
256,192,84878,5,8,0:0:0:0:
93,114,85278,2,0,P|73:159|77:209,1,100,2|8,0:0|0:0,0:0:0:0:
131,280,85878,2,0,L|234:276,1,100,2|0,0:0|0:0,0:0:0:0:
309,319,86478,1,8,0:0:0:0:
