osu file format v14

[General]
AudioFilename: audio.mp3
AudioLeadIn: 1500
PreviewTime: 44478
Countdown: 0
SampleSet: Soft
StackLeniency: 0.3
Mode: 0
LetterboxInBreaks: 0
WidescreenStoryboard: 1

[Editor]
DistanceSpacing: 1.2
BeatDivisor: 6
GridSize: 16
TimelineZoom: 1

[Metadata]
Title:Kamiiro Awase
TitleUnicode:カミイロアワセ
Artist:binaria
ArtistUnicode:binaria
Creator:No_Gu
Version:Easy
Source:ダンガンロンパ3-The End of 希望ヶ峰学園- 絶望編
Tags:DANGANRONPA DANGANRONPA3 Kibougamine Kibou Gamine Gakuen Zetsubou Hen やなぎなぎ Annabel yanaginagi Fumika Netsukawa
BeatmapID:1031501
BeatmapSetID:483416

[Difficulty]
HPDrainRate:3
CircleSize:3
OverallDifficulty:3
ApproachRate:4
SliderMultiplier:0.8
SliderTickRate:1

[Events]
//Background and Video events
Video,0,"video.avi"
0,0,"BG.jpg",0,0
//Break Periods
//Storyboard Layer 0 (Background)
//Storyboard Layer 1 (Fail)
//Storyboard Layer 2 (Pass)
//Storyboard Layer 3 (Foreground)
//Storyboard Sound Samples

[TimingPoints]
478,400,4,2,1,35,1,0
478,-100,4,2,1,35,0,0
6878,-100,4,2,2,35,0,0
32478,-100,4,2,1,20,0,0
37278,-100,4,2,2,30,0,0
38878,-100,4,2,1,20,0,0
42078,-100,4,2,2,40,0,0
42878,-100,4,2,2,30,0,0
43678,-100,4,2,2,50,0,0
44878,-100,4,2,2,15,0,0
45278,-100,4,2,1,50,0,1
59453,400,4,2,1,50,1,1
60278,400,4,1,1,30,1,1
61278,400,4,2,1,50,1,1
61278,-100,4,2,1,50,0,1
70078,-100,4,1,1,40,0,1
70878,-100,4,2,1,50,0,1
76453,400,4,2,1,50,1,1
77053,352.941176470588,4,2,1,50,1,1
77253,400,4,2,1,50,1,1
83678,400,4,2,1,40,1,0
86553,400,4,2,1,40,1,0

[Colours]
Combo1 : 128,255,128
Combo2 : 255,255,128
Combo3 : 255,128,128
Combo4 : 128,255,255

[HitObjects]
79,105,478,6,0,L|71:39,2,53.3333333333333,2|0|0,0:0|0:0|0:0,0:0:0:0:
168,77,1278,2,0,L|229:103,2,53.3333333333333,2|0|0,0:0|0:0|0:0,0:0:0:0:
151,169,2078,2,0,L|97:208,1,53.3333333333333,2|0,0:0|0:0,0:0:0:0:
66,280,2611,2,0,L|12:319,1,53.3333333333333,2|2,0:0|0:0,0:0:0:0:
301,258,3678,6,0,P|304:296|300:332,2,53.3333333333333,2|0|0,0:0|0:0|0:0,0:0:0:0:
259,174,4478,2,0,P|256:136|260:100,2,53.3333333333333,2|0|0,0:0|0:0|0:0,0:0:0:0:
151,42,6878,6,0,L|21:33,2,120,2|2|2,1:0|1:0|0:0,0:0:0:0:
239,80,8478,2,0,P|262:136|235:193,1,120,2|2,1:0|1:0,0:0:0:0:
160,242,9478,2,0,L|166:288,1,40,2|10,1:0|0:0,0:0:0:0:
245,335,10078,6,0,P|307:312|367:334,2,120,2|2|2,1:0|1:0|0:0,0:0:0:0:
155,368,11678,2,0,L|24:359,1,120,2|2,1:0|1:0,0:0:0:0:
77,275,12678,2,0,L|71:217,1,40,2|10,1:0|0:0,0:0:0:0:
140,166,13278,6,0,P|151:103|123:50,2,120,2|2|2,1:0|1:0|2:0,0:0:0:0:
234,151,14878,2,0,P|287:155|336:215,1,120,2|2,1:0|1:0,0:0:0:0:
360,292,15878,2,0,L|351:346,1,40,2|10,1:0|0:0,0:0:0:0:
446,308,16478,6,0,L|439:186,2,120,2|2|2,1:0|1:0|0:0,0:0:0:0:
365,360,18078,2,0,P|302:362|251:321,1,120,2|2,1:0|1:0,0:0:0:0:
212,244,19078,2,0,L|209:188,1,40,2|10,1:0|0:0,0:0:0:0:
183,111,19678,6,0,P|137:88|57:105,1,120,2|2,1:0|1:0,0:0:0:0:
118,232,20878,2,0,L|124:324,1,80,2|2,0:0|1:0,0:0:0:0:
254,371,21878,2,0,P|273:319|249:253,1,120,2|10,1:0|0:0,0:0:0:0:
301,175,22878,6,0,P|282:123|306:57,2,120,2|2|2,1:0|1:0|0:0,0:0:0:0:
381,226,24478,2,0,L|504:218,1,120,2|2,1:0|1:0,0:0:0:0:
459,305,25478,2,0,L|467:359,1,40,2|10,1:0|0:0,0:0:0:0:
373,373,26078,6,0,P|323:347|258:362,1,120,2|2,1:0|1:0,0:0:0:0:
143,277,27278,2,0,P|138:232|145:189,1,80,2|2,0:0|1:0,0:0:0:0:
232,84,28278,2,0,L|362:80,1,120,2|10,1:0|0:0,0:0:0:0:
421,146,29278,6,0,P|449:100|431:31,2,120,2|2|2,1:0|1:0|0:0,0:0:0:0:
327,172,30878,2,0,L|335:292,1,120,2|2,1:0|1:0,0:0:0:0:
241,274,31878,2,0,L|191:278,1,40,2|10,1:0|0:0,0:0:0:0:
120,225,32478,6,0,P|95:193|206:179,1,240,0|0,1:0|0:0,0:0:0:0:
306,179,34078,2,0,P|389:126|392:225,1,240,0|0,1:0|0:0,0:0:0:0:
336,303,35678,6,0,P|256:295|165:305,1,160,0|0,1:0|0:0,0:0:0:0:
88,340,36878,1,0,0:0:0:0:
96,244,37278,1,2,0:0:0:0:
68,108,38878,6,0,P|156:161|206:59,1,240,0|0,1:0|0:0,0:0:0:0:
305,62,40478,2,0,P|350:159|444:108,1,240,0|0,1:0|0:0,0:0:0:0:
394,26,42078,5,2,0:0:0:0:
256,153,42878,1,2,0:0:0:0:
118,26,43678,1,2,0:0:0:0:
85,229,45278,6,0,L|170:227,1,80,4|8,0:0|0:0,0:0:0:0:
257,253,46078,1,0,0:0:0:0:
346,217,46478,2,8,P|372:150|340:67,1,160
253,36,47678,2,0,L|159:40,1,80,0|8,0:0|0:0,0:0:0:0:
95,95,48478,6,0,P|83:136|93:189,1,80,2|8,0:0|0:0,0:0:0:0:
146,248,49278,1,0,0:0:0:0:
239,225,49678,2,8,P|316:219|377:270,1,160
457,323,50878,2,0,P|472:283|464:236,1,80,0|8,0:0|0:0,0:0:0:0:
420,163,51678,5,4,0:0:0:0:
332,123,52078,2,0,L|244:129,1,80,8|0,0:0|0:0,0:0:0:0:
161,161,52878,2,8,P|124:237|165:305,1,160
239,346,54078,1,0,0:0:0:0:
320,295,54478,1,8,0:0:0:0:
407,333,54878,6,0,L|496:325,2,80,2|8|0,0:0|0:0|0:0,0:0:0:0:
320,295,56078,2,8,P|279:240|312:159,1,160
252,83,57278,2,0,P|214:68|166:71,1,80,0|8,0:0|0:0,0:0:0:0:
90,114,58078,6,8,L|82:37,2,60
153,288,59453,2,0,P|231:303|305:266,1,165,4|0,0:0|0:0,0:0:0:0:
394,300,60678,2,0,L|406:171,1,120,0|4,0:0|0:0,0:0:0:0:
481,123,61678,6,8,P|414:85|340:109,1,160
256,156,62878,1,0,0:0:0:0:
169,113,63278,2,0,L|80:119,2,80,8|0|8,0:0|0:0|0:0,0:0:0:0:
167,209,64478,6,0,P|160:247|164:291,1,80,4|8,0:0|0:0,0:0:0:0:
243,341,65278,1,0,0:0:0:0:
333,307,65678,2,8,P|409:294|480:339,1,160
494,240,66878,2,0,L|504:146,1,80,0|8,0:0|0:0,0:0:0:0:
441,86,67678,5,4,0:0:0:0:
400,173,68078,2,8,P|323:184|258:127,1,160
179,86,69278,2,0,L|93:93,1,80,0|12,0:0|0:0,0:0:0:0:
60,180,70078,2,0,L|146:187,1,80
213,247,70878,6,0,P|219:291|210:342,1,80,4|12,0:0|0:0,0:0:0:0:
309,308,71678,1,0,0:0:0:0:
397,345,72078,2,8,B|447:347|447:347|496:311|486:247,1,160
404,200,73278,2,0,L|410:109,1,80,0|8,0:0|0:0,0:0:0:0:
345,48,74078,5,4,0:0:0:0:
312,138,74478,2,8,P|236:159|168:123,1,160
94,60,75678,1,0,0:0:0:0:
69,152,76078,2,0,L|76:230,1,75,8|0,0:0|0:0,0:0:0:0:
145,293,76853,1,8,0:0:0:0:
232,253,77253,5,4,0:0:0:0:
304,315,77653,2,8,P|369:333|444:285,1,160
449,189,78853,2,0,L|443:101,1,80,0|8,0:0|0:0,0:0:0:0:
351,82,79653,2,0,L|345:170,1,80,0|8,0:0|0:0,0:0:0:0:
256,192,80453,12,2,83678,0:0:0:0:
256,192,85278,5,2,0:0:0:0:
167,228,85678,2,0,L|114:223,1,40,8|2,0:0|0:0,0:0:0:0:
45,173,86278,2,0,L|-8:178,1,40,2|8,0:0|0:0,0:0:0:0:
