osu file format v14

[General]
AudioFilename: audio.mp3
AudioLeadIn: 0
PreviewTime: 146850
Countdown: 1
SampleSet: Soft
StackLeniency: 0.7
Mode: 0
LetterboxInBreaks: 0
WidescreenStoryboard: 0

[Editor]
DistanceSpacing: 1.5
BeatDivisor: 4
GridSize: 4
TimelineZoom: 3.099999

[Metadata]
Title:Kamiiro Awase
TitleUnicode:カミイロアワセ
Artist:binaria
ArtistUnicode:binaria
Creator:MAH BASS CANNON
Version:Despair
Source:ダンガンロンパ3-The End of 希望ヶ峰学園- 絶望編
Tags:
BeatmapID:1407149
BeatmapSetID:664873

[Difficulty]
HPDrainRate:6
CircleSize:4
OverallDifficulty:8.5
ApproachRate:9
SliderMultiplier:0.8
SliderTickRate:1

[Events]
//Background and Video events
0,0,"vlcsnap-error247.png",0,0
//Break Periods
//Storyboard Layer 0 (Background)
//Storyboard Layer 1 (Fail)
//Storyboard Layer 2 (Pass)
//Storyboard Layer 3 (Foreground)
//Storyboard Sound Samples

[TimingPoints]
550,400,4,2,0,100,1,0
550,-100,4,2,0,100,0,0
6950,-66.6666666666667,4,2,0,100,0,0
32550,-100,4,2,0,100,0,0
44550,-100,4,2,0,100,0,0
44950,-66.6666666666667,4,2,0,100,0,0
45350,-50,4,2,0,100,0,1
83750,-66.6666666666667,4,2,0,100,0,0
84950,-200,4,2,0,100,0,0
85350,-66.6666666666667,4,2,0,100,0,0
91150,-50,4,2,0,100,0,0
92150,-66.6666666666667,4,2,0,100,0,0
96550,-50,4,2,0,100,0,0
102950,-66.6666666666667,4,2,0,100,0,0
134950,-100,4,2,0,100,0,0
146950,-50,4,2,0,100,0,1
186150,-100,4,2,0,100,0,0
214350,-50,4,2,0,100,0,0
214950,-50,4,2,0,100,0,1
253350,-66.6666666666667,4,2,0,100,0,0

[HitObjects]
124,88,550,6,0,L|80:36,2,53.3333333333333
124,88,1350,2,0,L|191:75,2,53.3333333333333
124,88,2150,2,0,L|100:152,2,53.3333333333333
124,88,2950,1,0,0:0:0:0:
388,296,3750,6,0,L|432:348,2,53.3333333333333
388,296,4550,2,0,L|320:308,2,53.3333333333333
388,296,5616,2,0,P|428:260|384:296,1,240
388,296,6950,6,0,L|408:264,1,30.0000011444092
411,210,7150,2,0,L|391:178,1,30.0000011444092
397,124,7350,1,0,0:0:0:0:
388,296,7550,1,0,0:0:0:0:
391,295,8150,2,0,L|377:296,1,15.0000005722046
286,91,8550,2,0,L|254:71,1,30.0000011444092
200,68,8750,2,0,L|168:88,1,30.0000011444092
200,68,9150,2,0,L|168:88,1,30.0000011444092
286,91,9550,2,0,L|254:111,1,30.0000011444092
181,150,9750,1,0,0:0:0:0:
372,295,10150,6,0,P|394:286|408:257,1,30.0000011444092
402,221,10350,2,0,P|380:212|366:183,1,30.0000011444092
375,147,10550,1,0,0:0:0:0:
372,295,10750,1,0,0:0:0:0:
375,147,11350,2,0,L|390:147,1,15.0000005722046
222,305,11750,2,0,P|213:283|184:269,1,30.0000011444092
148,276,11950,2,0,P|139:298|110:312,1,30.0000011444092
135,302,12350,2,0,P|144:290|148:275,1,30.0000011444092
209,279,12750,2,0,P|218:290|222:305,1,30.0000011444092
311,308,12950,1,0,0:0:0:0:
388,88,13350,6,0,L|408:120,1,30.0000011444092
411,174,13550,2,0,L|391:206,1,30.0000011444092
397,260,13750,1,0,0:0:0:0:
388,88,13950,1,0,0:0:0:0:
391,89,14550,2,0,L|375:89,1,15.0000005722046
286,293,14950,2,0,L|254:313,1,30.0000011444092
200,316,15150,2,0,L|168:296,1,30.0000011444092
200,316,15550,2,0,L|168:296,1,30.0000011444092
286,293,15950,2,0,L|254:273,1,30.0000011444092
181,234,16150,1,0,0:0:0:0:
372,89,16550,6,0,P|394:98|408:127,1,30.0000011444092
402,163,16750,2,0,P|380:172|366:201,1,30.0000011444092
375,237,16950,1,0,0:0:0:0:
372,89,17150,1,0,0:0:0:0:
375,237,17750,2,0,L|390:237,1,15.0000005722046
222,79,18150,2,0,P|213:101|184:115,1,30.0000011444092
148,108,18350,2,0,P|139:86|110:72,1,30.0000011444092
135,82,18750,2,0,P|144:93|148:108,1,30.0000011444092
209,105,19150,2,0,P|218:93|222:78,1,30.0000011444092
311,76,19350,1,0,0:0:0:0:
416,291,19750,5,0,0:0:0:0:
416,291,19850,1,0,0:0:0:0:
416,291,19950,2,0,P|384:293|352:287,1,60.0000022888184
238,311,20350,1,0,0:0:0:0:
152,226,20550,2,0,P|150:194|156:162,1,60.0000022888184
238,81,20950,2,0,P|265:76|239:80,1,60.0000022888184
160,53,21350,6,0,L|140:85,1,30.0000011444092
137,139,21550,2,0,L|157:171,1,30.0000011444092
151,225,21750,1,0,0:0:0:0:
160,53,21950,1,0,0:0:0:0:
151,225,22150,1,0,0:0:0:0:
160,53,22350,2,0,L|180:85,1,30.0000011444092
222,156,22550,1,0,0:0:0:0:
267,267,22750,6,0,P|299:269|331:263,1,60.0000022888184
351,248,23050,1,0,0:0:0:0:
373,228,23150,1,0,0:0:0:0:
391,204,23250,1,0,0:0:0:0:
413,183,23350,2,0,P|415:151|409:119,1,60.0000022888184
58,45,24150,2,0,L|58:60,1,15.0000005722046
190,235,24550,5,0,0:0:0:0:
190,205,24650,1,0,0:0:0:0:
190,176,24750,1,0,0:0:0:0:
190,146,24850,1,0,0:0:0:0:
191,117,24950,2,0,P|189:85|195:53,1,60.0000022888184
193,57,25550,2,0,L|213:89,1,30.0000011444092
255,160,25750,1,0,0:0:0:0:
479,74,26150,5,0,0:0:0:0:
479,74,26250,1,0,0:0:0:0:
479,74,26350,2,0,P|447:72|415:78,1,60.0000022888184
311,128,26750,1,0,0:0:0:0:
219,50,26950,2,0,P|217:82|223:114,1,60.0000022888184
150,205,27350,2,0,P|122:208|111:181,1,60.0000022888184
212,248,27750,6,0,P|234:239|248:210,1,30.0000011444092
242,174,27950,2,0,P|220:165|206:136,1,30.0000011444092
215,100,28150,1,0,0:0:0:0:
212,248,28350,1,0,0:0:0:0:
215,100,28550,1,0,0:0:0:0:
212,248,28750,2,0,P|190:239|176:210,1,30.0000011444092
111,183,28950,1,0,0:0:0:0:
158,72,29150,6,0,P|187:74|217:69,1,60.0000022888184
241,87,29450,1,0,0:0:0:0:
264,106,29550,1,0,0:0:0:0:
287,124,29650,1,0,0:0:0:0:
303,148,29750,2,0,P|300:177|305:207,1,60.0000022888184
158,72,30750,5,0,0:0:0:0:
305,207,30950,1,0,0:0:0:0:
438,86,31150,1,0,0:0:0:0:
438,86,31250,1,0,0:0:0:0:
438,86,31350,1,0,0:0:0:0:
381,256,31550,1,0,0:0:0:0:
438,86,31950,2,0,L|426:118,1,30.0000011444092
381,256,32150,1,0,0:0:0:0:
227,302,32550,6,0,P|196:300|175:286,1,40
126,244,32950,1,0,0:0:0:0:
98,168,33150,1,0,0:0:0:0:
102,88,33350,1,0,0:0:0:0:
126,244,33750,1,0,0:0:0:0:
268,315,34150,6,0,P|299:313|320:299,1,40
369,257,34550,1,0,0:0:0:0:
397,181,34750,1,0,0:0:0:0:
393,101,34950,1,0,0:0:0:0:
369,257,35350,1,0,0:0:0:0:
228,334,35750,6,0,L|203:295,1,40
165,231,36150,1,0,0:0:0:0:
125,161,36350,1,0,0:0:0:0:
88,89,36550,1,0,0:0:0:0:
228,334,36950,1,0,0:0:0:0:
88,89,37350,1,0,0:0:0:0:
443,34,37950,5,0,0:0:0:0:
325,58,38150,1,0,0:0:0:0:
259,158,38350,1,0,0:0:0:0:
141,181,38550,1,0,0:0:0:0:
84,286,38750,2,0,L|120:298,1,20
221,315,38950,6,0,P|252:313|273:299,1,40
322,257,39350,1,0,0:0:0:0:
350,181,39550,1,0,0:0:0:0:
346,101,39750,1,0,0:0:0:0:
322,257,40150,1,0,0:0:0:0:
180,328,40550,6,0,P|149:326|128:312,1,40
79,270,40950,1,0,0:0:0:0:
51,194,41150,1,0,0:0:0:0:
55,114,41350,1,0,0:0:0:0:
79,270,41750,1,0,0:0:0:0:
220,347,42150,6,0,B|227:317|227:317|253:317|253:317|261:286,1,80
408,145,42950,6,0,B|378:154|378:154|365:132|365:132|334:140,1,80,0|0,0:3|0:3,0:3:0:0:
139,83,43750,6,0,B|162:104|162:104|149:126|149:126|172:149,1,80,0|0,0:3|0:3,0:3:0:0:
292,239,44550,6,0,P|323:237|344:223,1,40
371,120,44950,2,0,P|339:118|307:124,1,60.0000022888184
168,193,45350,1,0,0:0:0:0:
475,281,45750,5,0,0:0:0:0:
361,69,45950,1,0,0:0:0:0:
221,264,46150,1,0,0:0:0:0:
434,154,46350,1,0,0:0:0:0:
204,83,46550,1,0,0:0:0:0:
346,276,46750,2,0,P|367:243|371:176,1,80
213,25,47150,1,0,0:0:0:0:
107,240,47350,1,0,0:0:0:0:
307,108,47550,2,0,P|328:141|332:207,1,80
166,352,47950,1,0,0:0:0:0:
99,306,48150,1,0,0:0:0:0:
68,231,48350,1,0,0:0:0:0:
55,151,48550,6,0,P|50:112|75:50,1,80
134,39,48950,2,0,L|208:72,1,80
208,151,49350,2,0,L|282:184,1,80
289,263,49750,1,0,0:0:0:0:
419,61,49950,1,0,0:0:0:0:
419,61,50050,1,0,0:0:0:0:
419,61,50150,1,0,0:0:0:0:
366,295,50350,2,0,P|326:291|269:256,1,80
62,195,50750,1,0,0:0:0:0:
244,38,50950,5,0,0:0:0:0:
227,74,51050,1,0,0:0:0:0:
211,110,51150,1,0,0:0:0:0:
198,147,51250,1,0,0:0:0:0:
184,184,51350,2,0,L|220:161,1,40
423,39,51550,2,0,L|398:74,1,40
255,263,51750,5,0,0:0:0:0:
137,154,51950,1,0,0:0:0:0:
255,263,52150,5,0,0:0:0:0:
375,157,52350,1,0,0:0:0:0:
255,263,52550,6,0,P|215:255|181:235,1,80
128,174,52950,1,0,0:0:0:0:
98,16,53150,2,0,P|56:0|17:0,2,80
158,68,53750,1,0,0:0:0:0:
257,193,53950,2,0,P|291:213|330:220,1,80
470,141,54350,1,0,0:0:0:0:
421,204,54550,1,0,0:0:0:0:
371,266,54750,1,0,0:0:0:0:
306,312,54950,6,0,P|266:304|232:284,1,80
176,133,55350,2,0,L|161:220,1,80
76,346,55750,2,0,L|61:259,1,80
46,188,56150,1,0,0:0:0:0:
112,42,56350,2,0,L|127:129,1,80
146,198,56750,1,0,0:0:0:0:
291,264,56950,1,0,0:0:0:0:
272,105,57150,1,0,0:0:0:0:
146,198,57350,5,0,0:0:0:0:
146,198,57450,1,0,0:0:0:0:
146,198,57550,2,0,L|186:219,1,40
403,313,57750,2,0,L|401:267,1,40
388,33,57950,2,0,L|349:57,1,40
146,198,58150,5,0,0:0:0:0:
388,33,58450,1,0,0:0:0:0:
403,313,58750,1,0,0:0:0:0:
403,313,59150,5,0,0:0:0:0:
375,74,59350,1,0,0:0:0:0:
220,258,59550,2,0,B|182:281|182:281|139:250,1,80
97,202,59950,2,0,B|59:225|59:225|16:194,1,80
63,46,60350,2,0,B|101:23|101:23|144:54,1,80
186,102,60750,2,0,B|224:79|224:79|267:110,1,80
318,146,61150,1,0,0:0:0:0:
382,193,61350,6,0,P|415:214|439:246,1,80
286,199,61750,1,0,0:0:0:0:
346,347,61950,1,0,0:0:0:0:
359,205,62150,1,0,0:0:0:0:
272,340,62350,1,0,0:0:0:0:
395,270,62550,1,0,0:0:0:0:
236,275,62750,2,0,P|196:272|160:255,1,80
67,34,63150,1,0,0:0:0:0:
215,222,63350,1,0,0:0:0:0:
317,4,63550,1,0,0:0:0:0:
114,132,63750,5,0,0:0:0:0:
107,171,63850,1,0,0:0:0:0:
118,209,63950,1,0,0:0:0:0:
141,241,64050,1,0,0:0:0:0:
170,267,64150,2,0,L|210:284,1,40
430,188,64350,2,0,L|390:171,1,40
174,66,64550,2,0,P|140:44|116:12,1,80
174,66,64950,2,0,P|140:87|116:119,1,80
174,66,65350,2,0,P|207:87|231:119,2,80
16,36,65950,2,0,P|31:72|58:101,1,80
176,212,66350,2,0,P|214:200|245:176,1,80
314,30,66750,2,0,P|341:58|356:95,1,80
363,175,67150,5,0,0:0:0:0:
295,320,67350,1,0,0:0:0:0:
151,248,67550,1,0,0:0:0:0:
209,99,67750,2,0,P|234:129|247:166,1,80
354,46,68150,2,0,P|364:84|360:124,1,80
274,240,68550,2,0,P|253:205|247:166,1,80
200,12,68950,2,0,P|160:15|124:32,1,80
78,98,69350,5,0,0:0:0:0:
106,172,69550,1,0,0:0:0:0:
164,226,69750,1,0,0:0:0:0:
242,240,69950,1,0,0:0:0:0:
302,187,70150,2,0,L|344:170,1,40
148,26,70350,2,0,L|106:9,1,40
75,248,70550,2,0,L|117:265,1,40
347,216,70750,2,0,L|384:200,1,40
221,23,70950,5,0,0:0:0:0:
221,23,71050,1,0,0:0:0:0:
221,23,71150,1,0,0:0:0:0:
158,254,71350,1,0,0:0:0:0:
158,254,71450,1,0,0:0:0:0:
158,254,71550,1,0,0:0:0:0:
334,90,71750,1,0,0:0:0:0:
334,90,71850,1,0,0:0:0:0:
334,90,71950,1,0,0:0:0:0:
97,133,72150,1,0,0:0:0:0:
97,133,72250,1,0,0:0:0:0:
97,133,72350,1,0,0:0:0:0:
299,261,72550,6,0,L|333:309,2,40
191,46,72950,2,0,L|157:-2,2,40
395,171,73350,2,0,L|452:142,2,40
159,218,73750,2,0,L|102:247,2,40
368,31,74150,5,0,0:0:0:0:
368,31,74250,1,0,0:0:0:0:
368,31,74350,1,0,0:0:0:0:
292,300,74550,1,0,0:0:0:0:
292,300,74650,1,0,0:0:0:0:
292,300,74750,1,0,0:0:0:0:
202,34,74950,1,0,0:0:0:0:
202,34,75050,1,0,0:0:0:0:
202,34,75150,1,0,0:0:0:0:
365,261,75350,1,0,0:0:0:0:
365,261,75450,1,0,0:0:0:0:
365,261,75550,1,0,0:0:0:0:
447,48,75750,6,0,L|474:-9,2,40
356,312,76150,2,0,L|413:339,2,40
302,37,76550,2,0,L|359:9,2,40
185,291,76950,2,0,L|201:327,2,40
21,16,77350,5,0,0:0:0:0:
21,16,77450,1,0,0:0:0:0:
21,16,77550,1,0,0:0:0:0:
336,71,77750,1,0,0:0:0:0:
336,71,77850,1,0,0:0:0:0:
336,71,77950,1,0,0:0:0:0:
23,141,78150,1,0,0:0:0:0:
23,141,78250,1,0,0:0:0:0:
23,141,78350,1,0,0:0:0:0:
262,353,78550,1,0,0:0:0:0:
262,353,78650,1,0,0:0:0:0:
262,353,78750,1,0,0:0:0:0:
425,78,78950,6,0,L|461:58,2,40
201,308,79350,2,0,L|176:340,2,40
320,9,79750,2,0,L|372:-5,2,40
21,124,80150,2,0,L|-5:86,2,40
307,342,80550,5,0,0:0:0:0:
307,342,80650,1,0,0:0:0:0:
307,342,80750,1,0,0:0:0:0:
477,25,80950,1,0,0:0:0:0:
477,25,81050,1,0,0:0:0:0:
477,25,81150,1,0,0:0:0:0:
117,7,81350,1,0,0:0:0:0:
117,7,81450,1,0,0:0:0:0:
117,7,81550,1,0,0:0:0:0:
31,356,81750,1,0,0:0:0:0:
31,356,81850,1,0,0:0:0:0:
31,356,81950,1,0,0:0:0:0:
381,275,82150,6,0,L|427:249,2,40
45,139,82550,2,0,L|-1:113,2,40
404,144,82950,2,0,L|438:124,2,40
68,280,83349,2,0,L|33:260,2,40
337,238,83750,5,0,0:0:0:0:
195,43,84150,1,0,0:0:0:0:
195,43,84550,1,0,0:0:0:0:
107,266,84950,2,0,B|117:256|117:256|116:266|116:266|105:264,1,35
107,266,85350,5,0,0:0:0:0:
342,309,85750,1,0,0:0:0:0:
342,309,86150,1,0,0:0:0:0:
396,75,86550,1,0,0:0:0:0:
396,75,86750,6,0,L|358:75,1,30.0000011444092
244,75,86950,1,0,0:0:0:0:
244,75,87150,1,0,0:0:0:0:
124,77,87350,2,0,P|110:106|82:124,2,60.0000022888184
217,153,87950,2,0,P|231:182|259:200,2,60.0000022888184
113,215,88550,2,0,P|99:244|71:262,2,60.0000022888184
213,280,89150,2,0,P|227:309|255:327,3,60.0000022888184
370,301,89950,2,0,L|360:291,3,7.50000028610231
366,297,90050,2,0,L|375:287,3,7.50000028610231
362,295,90150,5,0,0:0:0:0:
490,304,90350,1,0,0:0:0:0:
370,305,90550,1,0,0:0:0:0:
283,81,90750,1,0,0:0:0:0:
284,200,90950,1,0,0:0:0:0:
183,75,91150,2,0,B|181:89|181:89|170:89|170:89|174:99|174:99|161:100|161:100|165:112|165:112|151:111|151:111|157:121|157:121|142:118|142:118|148:131|148:131|133:126|133:126|137:138|137:138|126:151|126:151|117:161,1,160
101,224,91750,6,0,P|166:277|251:292,1,160
278,289,92283,1,0,0:0:0:0:
314,272,92416,1,0,0:0:0:0:
344,246,92550,1,0,0:0:0:0:
252,114,92816,1,0,0:0:0:0:
227,82,92950,1,0,0:0:0:0:
141,31,93116,6,0,L|93:86,1,70.0000026702882
86,324,93750,1,0,0:0:0:0:
86,324,94150,1,0,0:0:0:0:
254,152,94550,1,0,0:0:0:0:
254,152,94950,1,0,0:0:0:0:
44,35,95350,1,0,0:0:0:0:
44,35,95750,1,0,0:0:0:0:
143,253,96150,1,0,0:0:0:0:
408,74,96550,6,0,P|442:109|452:176,1,100
422,183,96850,2,0,B|391:203|391:203|399:240|351:246,1,100
335,210,97150,2,0,B|314:178|257:194|242:207,1,100
207,223,97450,2,0,L|163:317,1,100
124,313,97750,2,0,L|80:219,1,100
83,182,98050,2,0,L|125:91,1,100
159,69,98350,2,0,B|197:38|197:38|238:91,1,100
225,119,98650,2,0,P|202:162|239:214,1,100
262,209,98950,2,0,P|285:252|248:304,1,100
303,302,99250,6,0,L|410:302,1,100
435,279,99550,2,0,B|485:251|485:251|485:191,1,100
446,194,99850,2,0,B|401:217|401:217|357:196,1,100
317,208,100150,2,0,B|317:250|317:250|367:278,1,100
326,283,100450,2,0,L|216:283,1,100
192,261,100750,2,0,B|157:231|157:231|157:208|157:208|190:172,1,100
203,154,101050,2,0,B|178:109|178:109|161:102|161:102|197:77,1,100
219,62,101350,2,0,L|133:119,1,100
131,157,101650,2,0,L|132:257,1,100
98,233,101950,6,0,L|186:297,1,100
215,308,102250,2,0,L|303:244,1,100
317,215,102550,2,0,B|342:187|323:169|293:112|296:87|332:65,1,160
240,150,103150,2,0,P|210:163|178:169,1,60.0000022888184
66,194,103550,1,0,0:0:0:0:
25,307,103750,2,0,P|54:320|86:326,1,60.0000022888184
199,351,104150,5,0,0:0:0:0:
202,111,104550,1,0,0:0:0:0:
324,317,104950,1,0,0:0:0:0:
439,285,105150,2,0,P|451:255|456:223,1,60.0000022888184
449,108,105550,1,0,0:0:0:0:
370,198,105750,2,0,P|354:223|333:245,1,60.0000022888184
223,293,106150,1,0,0:0:0:0:
270,182,106350,1,0,0:0:0:0:
317,71,106550,2,0,P|289:59|259:54,1,60.0000022888184
140,47,106950,5,0,0:0:0:0:
365,129,107350,1,0,0:0:0:0:
287,220,107550,1,0,0:0:0:0:
79,339,107950,1,0,0:0:0:0:
181,121,108350,1,0,0:0:0:0:
259,30,108550,1,0,0:0:0:0:
259,30,109350,6,0,P|279:50|305:66,1,60.0000022888184
412,123,109750,1,0,0:0:0:0:
304,176,109950,1,0,0:0:0:0:
160,67,110150,2,0,P|183:83|212:93,1,60.0000022888184
388,138,110550,2,0,P|364:154|335:164,1,60.0000022888184
163,222,110950,5,0,0:0:0:0:
257,68,111150,1,0,0:0:0:0:
257,68,111250,1,0,0:0:0:0:
257,68,111350,1,0,0:0:0:0:
330,232,111550,2,0,P|306:248|277:258,1,60.0000022888184
102,306,111950,6,0,L|95:266,1,30.0000011444092
67,97,112150,1,0,0:0:0:0:
238,151,112350,5,0,0:0:0:0:
394,62,112550,1,0,0:0:0:0:
394,62,112650,1,0,0:0:0:0:
394,62,112750,1,0,0:0:0:0:
400,241,112950,2,0,P|385:266|364:288,1,60.0000022888184
243,294,113350,5,0,0:0:0:0:
214,285,113450,1,0,0:0:0:0:
112,220,113650,1,0,0:0:0:0:
113,100,113850,1,0,0:0:0:0:
215,35,114050,1,0,0:0:0:0:
244,26,114150,1,0,0:0:0:0:
409,97,114350,1,0,0:0:0:0:
411,108,114750,1,0,0:0:0:0:
412,119,115150,6,0,L|391:154,1,30.0000011444092
302,298,115350,1,0,0:0:0:0:
122,294,115550,6,0,L|143:259,1,30.0000011444092
232,115,115750,1,0,0:0:0:0:
328,44,115950,6,0,P|342:70|363:91,1,60.0000022888184
200,168,116350,1,0,0:0:0:0:
406,334,116550,2,0,P|376:334|347:326,1,60.0000022888184
210,210,116950,2,0,P|180:209|151:217,1,60.0000022888184
34,355,117350,5,0,0:0:0:0:
84,182,117550,1,0,0:0:0:0:
84,182,117650,1,0,0:0:0:0:
84,182,117750,1,0,0:0:0:0:
34,355,117950,2,0,P|63:353|92:343,1,60.0000022888184
200,199,118350,6,0,L|239:185,1,30.0000011444092
396,121,118550,1,0,0:0:0:0:
255,8,118750,5,0,0:0:0:0:
200,179,118950,2,0,P|182:155|171:127,1,60.0000022888184
114,20,119350,1,0,0:0:0:0:
86,136,119550,1,0,0:0:0:0:
113,252,119750,5,0,0:0:0:0:
133,273,119850,1,0,0:0:0:0:
231,341,120050,1,0,0:0:0:0:
350,340,120250,1,0,0:0:0:0:
448,272,120450,1,0,0:0:0:0:
468,251,120550,1,0,0:0:0:0:
393,87,120750,1,0,0:0:0:0:
381,89,121150,1,0,0:0:0:0:
369,89,121550,6,0,L|353:115,1,30.0000011444092
261,269,121750,2,0,L|264:238,1,30.0000011444092
284,60,121950,2,0,L|268:86,1,30.0000011444092
177,240,122150,1,0,0:0:0:0:
103,335,122350,6,0,P|85:311|74:283,1,60.0000022888184
61,163,122750,1,0,0:0:0:0:
197,280,122950,2,0,P|210:253|217:224,1,60.0000022888184
290,59,123350,2,0,P|303:85|310:114,1,60.0000022888184
385,278,123750,5,0,0:0:0:0:
463,115,123950,1,0,0:0:0:0:
463,115,124050,1,0,0:0:0:0:
463,115,124150,1,0,0:0:0:0:
298,42,124350,2,0,P|268:38|238:43,1,60.0000022888184
71,111,124750,6,0,L|112:125,1,30.0000011444092
271,177,124950,1,0,0:0:0:0:
164,31,125150,6,0,P|134:27|104:32,2,60.0000022888184
258,105,125750,1,0,0:0:0:0:
377,106,125950,1,0,0:0:0:0:
379,225,126150,5,0,0:0:0:0:
381,254,126250,1,0,0:0:0:0:
261,254,126450,1,0,0:0:0:0:
141,252,126650,1,0,0:0:0:0:
21,252,126850,1,0,0:0:0:0:
23,223,126950,5,0,0:0:0:0:
238,72,127250,5,0,0:0:0:0:
453,222,127550,5,0,0:0:0:0:
238,72,127950,6,0,L|238:104,1,30.0000011444092
238,271,128150,1,0,0:0:0:0:
238,271,128350,6,0,L|238:239,1,30.0000011444092
238,60,128550,1,0,0:0:0:0:
355,84,128750,6,0,P|382:94|406:112,1,60.0000022888184
488,201,129150,1,0,0:0:0:0:
332,291,129350,2,0,P|304:301|280:319,1,60.0000022888184
140,206,129750,2,0,P|127:178|108:155,1,60.0000022888184
257,53,130150,5,0,0:0:0:0:
315,223,130350,1,0,0:0:0:0:
315,223,130450,1,0,0:0:0:0:
315,223,130550,1,0,0:0:0:0:
136,199,130750,2,0,P|116:176|104:148,1,60.0000022888184
257,53,131150,6,0,L|269:91,1,30.0000011444092
321,252,131350,1,0,0:0:0:0:
395,88,131550,5,0,0:0:0:0:
461,255,131750,1,0,0:0:0:0:
294,323,131950,1,0,0:0:0:0:
294,323,132050,1,0,0:0:0:0:
294,323,132150,2,0,P|264:324|234:318,1,60.0000022888184
136,252,132550,1,0,0:0:0:0:
120,228,132650,1,0,0:0:0:0:
120,108,132850,1,0,0:0:0:0:
234,145,133050,1,0,0:0:0:0:
262,154,133150,1,0,0:0:0:0:
437,192,133350,5,0,0:0:0:0:
230,17,133650,6,0,L|212:47,1,30.0000011444092
112,191,133950,1,0,0:0:0:0:
112,191,134350,2,0,L|143:229,1,30.0000011444092
255,344,134550,2,0,L|266:313,1,30.0000011444092
323,143,134750,2,0,L|334:174,1,30.0000011444092
375,284,134950,6,0,P|398:263|406:239,1,40
437,184,135350,1,0,0:0:0:0:
444,104,135550,1,0,0:0:0:0:
444,24,135750,1,0,0:0:0:0:
437,184,136150,1,0,0:0:0:0:
375,284,136550,6,0,P|351:263|343:239,1,40
313,184,136950,1,0,0:0:0:0:
306,104,137150,1,0,0:0:0:0:
306,24,137350,1,0,0:0:0:0:
299,184,137750,1,0,0:0:0:0:
282,343,138150,6,0,P|258:322|250:298,1,40
221,241,138550,1,0,0:0:0:0:
160,292,138750,1,0,0:0:0:0:
98,343,138950,1,0,0:0:0:0:
221,241,139350,1,0,0:0:0:0:
344,139,139750,1,0,0:0:0:0:
437,63,139950,2,0,P|455:79|469:110,1,40
486,210,140350,5,0,0:0:0:0:
428,305,140550,1,0,0:0:0:0:
324,291,140750,1,0,0:0:0:0:
248,231,140950,1,0,0:0:0:0:
196,159,141150,1,0,0:0:0:0:
175,81,141350,2,0,L|163:78,1,10
184,84,141450,6,0,P|199:89|219:89,1,30
281,106,141750,2,0,P|300:100|317:90,2,40
204,131,142350,2,0,B|167:148|167:148|188:170|222:176|236:165,1,100
220,170,142900,6,0,L|236:175,1,10
346,201,143150,1,0,0:0:0:0:
463,174,143350,1,0,0:0:0:0:
381,86,143550,1,0,0:0:0:0:
346,201,143750,1,0,0:0:0:0:
463,174,143950,1,0,0:0:0:0:
346,201,144150,1,0,0:0:0:0:
381,86,144350,1,0,0:0:0:0:
346,201,144550,6,0,L|391:209,1,40
229,174,144950,2,0,L|197:204,1,40
311,87,145350,2,0,L|296:38,1,40
346,201,145750,1,0,0:0:0:0:
200,201,145950,2,0,L|188:201,4,10
172,120,146950,6,0,B|248:88|248:88|228:44|228:44|268:132|268:132|316:120|354:173,1,320
509,343,147950,1,0,0:0:0:0:
471,106,148150,1,0,0:0:0:0:
263,226,148350,1,0,0:0:0:0:
369,11,148550,1,0,0:0:0:0:
461,232,148750,1,0,0:0:0:0:
369,11,148950,1,0,0:0:0:0:
256,222,149150,6,0,P|217:210|170:161,1,80
18,12,149550,1,0,0:0:0:0:
28,251,149750,1,0,0:0:0:0:
181,66,149950,2,0,P|213:43|252:34,1,80
173,260,150350,1,0,0:0:0:0:
249,235,150550,1,0,0:0:0:0:
311,185,150750,1,0,0:0:0:0:
362,123,150950,6,0,P|325:109|285:110,1,80
230,169,151350,2,0,L|185:99,1,80
112,131,151750,2,0,L|67:61,1,80
111,131,152150,1,0,0:0:0:0:
237,334,152350,2,0,P|243:295|264:261,1,80
413,73,152750,5,0,0:0:0:0:
496,298,152950,1,0,0:0:0:0:
323,131,153150,1,0,0:0:0:0:
91,195,153350,1,0,0:0:0:0:
78,157,153450,1,0,0:0:0:0:
78,117,153550,1,0,0:0:0:0:
96,82,153650,1,0,0:0:0:0:
126,57,153750,2,0,L|168:48,1,40
405,21,153950,2,0,L|368:72,1,40
253,260,154150,5,0,0:0:0:0:
138,147,154350,1,0,0:0:0:0:
253,260,154550,1,0,0:0:0:0:
368,147,154750,1,0,0:0:0:0:
253,258,154950,2,0,B|212:300|212:300|182:300,1,80
128,249,155350,1,0,0:0:0:0:
52,21,155550,2,0,P|87:3|127:1,2,80
20,94,156150,1,0,0:0:0:0:
163,286,156350,2,0,P|201:275|232:251,1,80
334,32,156750,6,0,P|372:42|403:66,1,80
408,146,157150,1,0,0:0:0:0:
238,316,157350,2,0,P|199:305|168:281,1,80
50,72,157750,2,0,P|88:61|119:37,1,80
191,72,158150,2,0,P|222:96|260:106,1,80
336,132,158550,1,0,0:0:0:0:
464,334,158750,5,0,0:0:0:0:
228,289,158950,1,0,0:0:0:0:
463,244,159150,5,0,0:3:0:0:
266,107,159350,1,0,0:3:0:0:
504,79,159550,5,0,0:0:0:0:
296,200,159750,2,0,L|261:171,1,40
78,23,159950,2,0,L|105:68,1,40
229,256,160150,2,0,L|191:221,1,40
58,53,160350,2,0,L|106:57,1,40
336,78,160550,6,0,P|374:88|405:112,1,80
491,338,160950,2,0,P|452:327|421:303,1,80
361,69,161350,1,0,0:0:0:0:
176,224,161550,2,0,B|216:224|216:224|176:284|176:284|228:284,2,160
300,20,162550,1,0,0:0:0:0:
340,256,162750,2,0,L|340:336,1,80
412,332,163150,2,0,B|384:299|384:299|432:244,1,80
433,240,163450,1,0,0:0:0:0:
458,209,163550,2,0,L|419:167,1,40
256,15,163750,6,0,P|217:26|186:50,1,80
142,116,164150,1,0,0:0:0:0:
46,336,164350,1,0,0:0:0:0:
246,203,164550,1,0,0:0:0:0:
437,347,164750,2,0,P|476:336|507:312,1,80
348,131,165150,2,0,P|353:171|343:209,2,80
126,37,165750,5,0,0:0:0:0:
55,266,165950,1,0,0:0:0:0:
55,266,166050,1,0,0:0:0:0:
55,266,166150,1,0,0:0:0:0:
89,285,166250,1,0,0:0:0:0:
126,299,166350,1,0,0:0:0:0:
165,306,166450,1,0,0:0:0:0:
204,307,166550,2,0,L|235:272,1,40
346,64,166750,2,0,L|359:106,1,40
415,337,166950,1,0,0:0:0:0:
455,100,167150,1,0,0:0:0:0:
455,100,167250,1,0,0:0:0:0:
455,100,167350,1,0,0:0:0:0:
283,268,167550,1,0,0:0:0:0:
283,268,167650,1,0,0:0:0:0:
283,268,167750,6,0,P|323:264|358:246,1,80
475,36,168150,1,0,0:0:0:0:
395,30,168350,2,0,P|354:33|319:51,1,80
193,256,168750,1,0,0:0:0:0:
154,186,168950,2,0,P|139:147|141:108,1,80
255,319,169350,1,0,0:0:0:0:
255,319,169450,1,0,0:0:0:0:
255,319,169550,1,0,0:0:0:0:
255,319,169650,1,0,0:0:0:0:
255,319,169750,2,0,L|277:282,1,40
387,72,169950,2,0,L|404:109,1,40
505,325,170150,6,0,P|496:286|473:253,1,80
238,301,170550,2,0,P|246:262|269:229,1,80
501,292,170950,2,0,P|492:253|469:220,1,80
306,43,171350,1,0,0:0:0:0:
209,262,171550,1,0,0:0:0:0:
150,29,171750,1,0,0:0:0:0:
327,190,171950,2,0,L|278:189,1,40
48,168,172150,1,0,0:0:0:0:
327,190,172350,1,0,0:0:0:0:
54,170,172550,2,0,L|86:214,1,40
233,384,172750,2,0,L|277:351,1,40
459,215,172950,2,0,L|426:171,1,40
274,1,173150,2,0,L|230:33,1,40
52,176,173350,5,0,0:0:0:0:
52,176,173450,1,0,0:0:0:0:
52,176,173550,1,0,0:0:0:0:
279,100,173750,1,0,0:0:0:0:
279,100,173850,1,0,0:0:0:0:
279,100,173950,1,0,0:0:0:0:
148,301,174150,1,0,0:0:0:0:
148,301,174250,1,0,0:0:0:0:
148,301,174350,1,0,0:0:0:0:
372,215,174550,1,0,0:0:0:0:
372,215,174650,1,0,0:0:0:0:
372,215,174750,1,0,0:0:0:0:
497,10,174950,6,0,L|539:-3,2,40
277,109,175350,2,0,L|319:120,2,40
44,46,175750,2,0,L|32:3,2,40
112,276,176150,2,0,L|100:318,2,40
183,3,176550,5,0,0:0:0:0:
183,3,176650,1,0,0:0:0:0:
183,3,176750,1,0,0:0:0:0:
413,161,176950,1,0,0:0:0:0:
413,161,177050,1,0,0:0:0:0:
413,161,177150,1,0,0:0:0:0:
136,114,177350,1,0,0:0:0:0:
136,114,177450,1,0,0:0:0:0:
136,114,177550,1,0,0:0:0:0:
368,269,177750,1,0,0:0:0:0:
368,269,177850,1,0,0:0:0:0:
368,269,177950,1,0,0:0:0:0:
272,5,178150,6,0,L|219:-1,2,40
470,202,178550,2,0,L|523:196,2,40
231,53,178950,2,0,L|237:0,2,40
35,251,179350,2,0,L|41:304,2,40
345,172,179750,5,0,0:0:0:0:
345,172,179850,1,0,0:0:0:0:
345,172,179950,1,0,0:0:0:0:
54,37,180150,1,0,0:0:0:0:
54,37,180250,1,0,0:0:0:0:
54,37,180350,1,0,0:0:0:0:
373,39,180550,1,0,0:0:0:0:
373,39,180650,1,0,0:0:0:0:
373,39,180750,1,0,0:0:0:0:
259,338,180950,1,0,0:0:0:0:
259,338,181050,1,0,0:0:0:0:
259,338,181150,1,0,0:0:0:0:
256,18,181350,6,0,L|302:6,2,40
95,296,181750,2,0,L|49:284,2,40
367,127,182150,2,0,L|413:139,2,40
61,27,182550,2,0,L|15:39,2,40
204,356,182950,5,0,0:0:0:0:
204,356,183050,1,0,0:0:0:0:
204,356,183150,1,0,0:0:0:0:
428,74,183350,1,0,0:0:0:0:
428,74,183450,1,0,0:0:0:0:
428,74,183550,1,0,0:0:0:0:
70,32,183750,1,0,0:0:0:0:
70,32,183850,1,0,0:0:0:0:
70,32,183950,1,0,0:0:0:0:
343,266,184150,1,0,0:0:0:0:
343,266,184250,1,0,0:0:0:0:
343,266,184350,1,0,0:0:0:0:
0,375,184550,6,0,L|46:375,2,40
179,63,184950,2,0,L|179:17,2,40
456,292,185350,2,0,L|410:292,2,40
96,300,185750,2,0,L|96:346,2,40
38,129,186150,6,0,P|73:102|120:88,1,80
185,78,186950,1,0,0:0:0:0:
263,93,187350,2,0,P|295:122|317:166,1,80
233,165,188150,2,0,P|200:194|178:238,1,80
262,234,188950,2,0,P|294:263|316:307,1,80
368,351,189750,1,0,0:0:0:0:
426,296,190150,6,0,L|458:265,3,40
429,237,190950,2,0,L|397:206,3,40
340,156,191750,1,0,0:0:0:0:
245,82,192050,1,0,0:0:0:0:
224,116,192150,1,0,0:0:0:0:
179,182,192350,1,0,0:0:0:0:
122,238,192550,6,0,P|117:141|228:119,1,230
228,119,193750,2,0,L|217:192,1,70
217,188,194150,2,0,P|241:216|280:217,1,70
292,215,194550,2,0,P|325:219|347:246,1,70
347,246,194950,2,0,P|336:213|305:197,1,70
347,246,195350,2,0,P|359:214|346:182,1,70
347,246,195750,6,0,L|388:257,1,40
423,242,196150,2,0,L|439:203,1,40
417,170,196550,2,0,L|400:131,1,40
362,142,196950,2,0,L|354:183,1,40
346,220,197350,2,0,L|338:261,1,40
265,292,197750,2,0,L|271:252,1,40
183,286,198150,2,0,L|176:246,1,40
105,291,198550,2,0,L|85:256,1,40
114,181,198950,6,0,P|146:151|168:107,1,80
122,51,199750,2,0,P|160:42|200:46,1,80
270,85,200550,1,0,0:0:0:0:
301,158,200950,6,0,P|332:133|354:99,1,80
314,30,201750,2,0,P|352:21|392:25,1,80
452,80,202550,1,0,0:0:0:0:
452,120,202750,2,0,L|452:167,1,40
452,200,203150,1,0,0:0:0:0:
452,240,203350,2,0,L|452:287,1,40
412,280,203750,1,0,0:0:0:0:
372,280,203950,1,0,0:0:0:0:
332,280,204150,1,0,0:0:0:0:
292,280,204350,1,0,0:0:0:0:
252,280,204550,6,0,P|236:264|228:240,1,40
232,208,204950,2,0,P|223:189|209:176,1,40
156,120,205350,1,0,0:0:0:0:
152,80,205550,1,0,0:0:0:0:
172,44,205750,1,0,0:0:0:0:
212,32,205950,1,0,0:0:0:0:
292,32,206150,5,0,0:0:0:0:
332,44,206350,1,0,0:0:0:0:
352,80,206550,1,0,0:0:0:0:
348,120,206750,1,0,0:0:0:0:
306,188,206950,1,0,0:0:0:0:
230,213,207150,5,0,0:0:0:0:
230,213,207350,1,0,0:0:0:0:
156,244,207550,1,0,0:0:0:0:
81,215,207750,5,0,0:0:0:0:
49,141,207950,2,0,P|51:121|60:103,1,40
256,192,208350,12,0,211750,0:0:0:0:
51,35,214350,6,0,L|89:278,1,240
315,351,215150,5,0,0:0:0:0:
477,172,215350,1,0,0:0:0:0:
266,57,215550,1,0,0:0:0:0:
505,60,215750,1,0,0:0:0:0:
284,155,215950,1,0,0:0:0:0:
77,32,216150,1,0,0:0:0:0:
114,268,216350,6,0,P|146:245|185:236,1,80
414,305,216750,1,0,0:0:0:0:
484,75,216950,1,0,0:0:0:0:
316,247,217150,2,0,P|284:224|245:215,1,80
70,50,217550,1,0,0:0:0:0:
149,39,217750,1,0,0:0:0:0:
228,28,217950,1,0,0:0:0:0:
463,72,218150,6,0,P|454:110|432:143,1,80
275,327,218550,1,0,0:0:0:0:
153,120,218750,1,0,0:0:0:0:
275,327,218950,1,0,0:0:0:0:
153,120,219150,1,0,0:0:0:0:
145,359,219350,1,0,0:0:0:0:
267,152,219550,1,0,0:0:0:0:
57,35,219750,1,0,0:0:0:0:
96,271,219950,6,0,P|104:309|126:342,1,80
362,296,220350,1,0,0:0:0:0:
230,95,220550,1,0,0:0:0:0:
197,71,220650,1,0,0:0:0:0:
158,59,220750,1,0,0:0:0:0:
122,40,220850,1,0,0:0:0:0:
83,29,220950,2,0,L|72:76,1,40
22,304,221150,2,0,L|68:295,1,40
298,246,221350,5,0,0:0:0:0:
435,101,221550,1,0,0:0:0:0:
298,246,221750,1,0,0:0:0:0:
161,101,221950,1,0,0:0:0:0:
298,246,222150,2,0,P|270:275|234:291,1,80
155,301,222550,1,0,0:0:0:0:
88,256,222750,2,0,P|115:226|151:210,1,80
329,48,223150,1,0,0:0:0:0:
461,248,223350,1,0,0:0:0:0:
232,174,223550,1,0,0:0:0:0:
431,41,223750,1,0,0:0:0:0:
286,229,223950,6,0,P|252:206|231:173,1,80
63,1,224350,1,0,0:0:0:0:
33,239,224550,2,0,P|54:272|87:294,1,80
231,100,224950,1,0,0:0:0:0:
341,313,225150,1,0,0:0:0:0:
182,130,225350,1,0,0:0:0:0:
395,242,225550,1,0,0:0:0:0:
160,184,225750,1,0,0:0:0:0:
398,151,225950,2,0,P|429:127|450:93,1,80
508,326,226350,1,0,0:0:0:0:
285,234,226550,1,0,0:0:0:0:
201,9,226750,1,0,0:0:0:0:
53,198,226950,6,0,L|79:235,1,40
300,139,227150,2,0,L|274:176,1,40
47,100,227350,2,0,L|73:137,1,40
294,41,227550,2,0,L|268:78,1,40
53,198,227750,5,0,0:0:0:0:
358,8,228050,1,0,0:0:0:0:
476,347,228350,1,0,0:0:0:0:
476,347,228750,5,0,0:0:0:0:
448,318,228850,1,0,0:0:0:0:
423,286,228950,1,0,0:0:0:0:
398,254,229050,1,0,0:0:0:0:
369,225,229150,2,0,B|333:245|333:245|289:225,1,80
159,32,229550,2,0,B|123:12|123:12|79:32,1,80
226,225,229950,2,0,B|262:245|262:245|306:225,1,80
436,32,230350,2,0,B|472:12|472:12|516:32,1,80
373,227,230750,1,0,0:0:0:0:
137,272,230950,6,0,P|100:255|74:225,1,80
229,41,231350,1,0,0:0:0:0:
288,273,231550,1,0,0:0:0:0:
229,41,231750,1,0,0:0:0:0:
137,272,231950,2,0,P|176:265|210:245,1,80
407,105,232350,2,0,P|429:72|437:33,2,80
275,305,232950,1,0,0:0:0:0:
78,166,233150,6,0,L|141:136,1,40
325,34,233350,1,0,0:0:0:0:
357,57,233450,1,0,0:0:0:0:
384,86,233550,1,0,0:0:0:0:
403,120,233650,1,0,0:0:0:0:
416,157,233750,2,0,L|409:199,1,40
228,357,233950,2,0,L|189:337,1,40
101,114,234150,5,0,0:0:0:0:
283,29,234350,1,0,0:0:0:0:
101,114,234550,5,0,0:0:0:0:
283,199,234750,1,0,0:0:0:0:
101,114,234950,6,0,P|78:146|70:185,1,80
229,366,235350,1,0,0:0:0:0:
351,159,235550,2,0,P|373:126|381:87,2,80
166,313,236150,2,0,P|136:286|118:250,1,80
84,12,236550,2,0,P|121:0|161:2,1,80
397,45,236950,2,0,L|355:68,1,40
130,126,237150,2,0,L|172:149,1,40
397,214,237350,5,0,0:0:0:0:
199,350,237550,1,0,0:0:0:0:
92,135,237750,5,0,0:0:0:0:
290,271,237950,1,0,0:0:0:0:
399,57,238150,5,0,0:0:0:0:
201,193,238350,1,0,0:0:0:0:
32,21,238550,2,0,P|13:56|10:95,2,80
263,85,239150,1,0,0:0:0:0:
466,331,239350,1,0,0:0:0:0:
437,92,239550,1,0,0:0:0:0:
200,134,239750,2,0,L|230:162,1,40
429,292,239950,2,0,L|373:283,1,40
158,221,240150,2,0,L|187:187,1,40
339,8,240350,2,0,L|346:52,1,40
378,285,240550,5,0,0:0:0:0:
378,285,240650,1,0,0:0:0:0:
378,285,240750,1,0,0:0:0:0:
217,106,240950,1,0,0:0:0:0:
217,106,241050,1,0,0:0:0:0:
217,106,241150,1,0,0:0:0:0:
104,317,241350,1,0,0:0:0:0:
104,317,241450,1,0,0:0:0:0:
104,317,241550,1,0,0:0:0:0:
327,229,241750,1,0,0:0:0:0:
327,229,241850,1,0,0:0:0:0:
327,229,241950,1,0,0:0:0:0:
137,81,242150,6,0,L|120:29,2,40
363,159,242550,2,0,L|408:129,2,40
123,188,242950,2,0,L|77:217,2,40
351,259,243350,2,0,L|381:289,2,40
227,7,243750,5,0,0:0:0:0:
227,7,243850,1,0,0:0:0:0:
227,7,243950,1,0,0:0:0:0:
498,75,244150,1,0,0:0:0:0:
498,75,244250,1,0,0:0:0:0:
498,75,244350,1,0,0:0:0:0:
229,153,244550,1,0,0:0:0:0:
229,153,244650,1,0,0:0:0:0:
229,153,244750,1,0,0:0:0:0:
41,360,244950,1,0,0:0:0:0:
41,360,245050,1,0,0:0:0:0:
41,360,245150,1,0,0:0:0:0:
311,287,245350,6,0,L|352:253,2,40
65,151,245750,2,0,L|24:117,2,40
344,153,246150,2,0,L|303:119,2,40
94,282,246550,2,0,L|135:248,2,40
295,31,246950,5,0,0:0:0:0:
295,31,247050,1,0,0:0:0:0:
295,31,247150,1,0,0:0:0:0:
455,308,247350,1,0,0:0:0:0:
455,308,247450,1,0,0:0:0:0:
455,308,247550,1,0,0:0:0:0:
196,119,247750,1,0,0:0:0:0:
196,119,247850,1,0,0:0:0:0:
196,119,247950,1,0,0:0:0:0:
497,12,248150,1,0,0:0:0:0:
497,12,248250,1,0,0:0:0:0:
497,12,248350,1,0,0:0:0:0:
334,287,248550,6,0,L|334:332,2,40
106,62,248950,2,0,L|144:39,2,40
197,303,249350,2,0,L|235:325,2,40
425,78,249750,2,0,L|425:33,2,40
68,30,250150,5,0,0:0:0:0:
68,30,250250,1,0,0:0:0:0:
68,30,250350,1,0,0:0:0:0:
420,104,250550,1,0,0:0:0:0:
420,104,250650,1,0,0:0:0:0:
420,104,250750,1,0,0:0:0:0:
134,323,250950,1,0,0:0:0:0:
134,323,251050,1,0,0:0:0:0:
134,323,251150,1,0,0:0:0:0:
335,24,251350,1,0,0:0:0:0:
335,24,251450,1,0,0:0:0:0:
335,24,251550,1,0,0:0:0:0:
204,359,251750,6,0,L|155:369,2,40
461,107,252150,2,0,L|510:97,2,40
109,30,252550,2,0,L|127:65,1,40
256,358,252750,2,0,L|281:313,1,40
413,34,252950,2,0,L|370:59,1,40
118,241,253150,2,0,L|147:194,1,40
255,8,253350,5,0,0:0:0:0:
301,45,253550,1,0,0:0:0:0:
349,80,253750,1,0,0:0:0:0:
255,8,253950,1,0,0:0:0:0:
255,8,254550,2,0,L|255:30,1,15.0000005722046
256,128,254950,5,0,0:0:0:0:
203,156,255150,1,0,0:0:0:0:
205,96,255350,1,0,0:0:0:0:
256,128,255550,1,0,0:0:0:0:
203,156,255750,1,0,0:0:0:0:
205,96,255950,2,0,L|235:115,1,30.0000011444092
306,161,256150,1,0,0:0:0:0:
359,189,256350,1,0,0:0:0:0:
408,222,256550,5,0,0:0:0:0:
370,269,256750,1,0,0:0:0:0:
337,320,256950,1,0,0:0:0:0:
408,222,257150,1,0,0:0:0:0:
408,222,257750,2,0,L|419:211,1,15.0000005722046
420,106,258150,5,0,0:0:0:0:
462,64,258350,1,0,0:0:0:0:
420,22,258550,1,0,0:0:0:0:
377,64,258750,1,0,0:0:0:0:
420,106,258950,1,0,0:0:0:0:
462,64,259150,2,0,L|427:64,1,30.0000011444092
341,64,259350,1,0,0:0:0:0:
255,91,259550,1,0,0:0:0:0:
257,1,259750,5,0,0:0:0:0:
211,38,259950,1,0,0:0:0:0:
163,73,260150,1,0,0:0:0:0:
257,1,260350,1,0,0:0:0:0:
257,1,260950,2,0,L|257:23,1,15.0000005722046
256,121,261350,5,0,0:0:0:0:
309,149,261550,1,0,0:0:0:0:
307,89,261750,1,0,0:0:0:0:
256,121,261950,1,0,0:0:0:0:
309,149,262150,1,0,0:0:0:0:
307,89,262350,2,0,L|277:108,1,30.0000011444092
206,154,262550,1,0,0:0:0:0:
153,182,262750,1,0,0:0:0:0:
104,215,262950,5,0,0:0:0:0:
142,262,263150,1,0,0:0:0:0:
175,313,263350,1,0,0:0:0:0:
104,215,263550,1,0,0:0:0:0:
104,215,264150,2,0,L|93:204,1,15.0000005722046
92,99,264550,5,0,0:0:0:0:
50,57,264750,1,0,0:0:0:0:
92,15,264950,1,0,0:0:0:0:
135,57,265150,1,0,0:0:0:0:
92,99,265350,1,0,0:0:0:0:
50,57,265550,2,0,L|85:57,1,30.0000011444092
171,57,265750,5,0,0:0:0:0:
216,57,265850,5,0,0:0:0:0:
216,102,265950,5,0,0:0:0:0:
171,102,266050,5,0,0:0:0:0:
