osu file format v14

[General]
AudioFilename: audio.mp3
AudioLeadIn: 0
PreviewTime: 70335
Countdown: 0
SampleSet: Soft
StackLeniency: 0.2
Mode: 0
LetterboxInBreaks: 0
WidescreenStoryboard: 1

[Editor]
Bookmarks: 42620
DistanceSpacing: 1.2
BeatDivisor: 4
GridSize: 4
TimelineZoom: 1

[Metadata]
Title:bad guy
TitleUnicode:bad guy
Artist:billie eilish
ArtistUnicode:billie eilish
Creator:DeadlyMffin
Version:bad guy
Source:
Tags:chest always so puffed guy make your mama sad type might seduce your dad type im the bad guy
BeatmapID:2034934
BeatmapSetID:971935

[Difficulty]
HPDrainRate:8.4
CircleSize:4
OverallDifficulty:8.4
ApproachRate:9.3
SliderMultiplier:1.4
SliderTickRate:1

[Events]
//Background and Video events
0,0,"billie-eilish-bad-guy-vid-2019-billboard-1548.jpg",0,0
//Break Periods
2,88979,98892
//Storyboard Layer 0 (Background)
//Storyboard Layer 1 (Fail)
//Storyboard Layer 2 (Pass)
//Storyboard Layer 3 (Foreground)
//Storyboard Sound Samples

[TimingPoints]
14113,444.444444444444,4,2,0,30,1,0
28335,-100,4,2,0,60,0,0
42140,-100,4,2,0,5,0,0
42168,-83.3333333333333,4,2,0,60,0,0
56112,-125,4,2,0,60,0,0
56779,-80,4,2,0,70,0,1
69668,-80,4,2,0,70,0,0
70779,-80,4,2,0,5,0,0
70890,-80,4,2,0,60,0,0
71224,-80,4,2,0,5,0,0
72779,-80,4,2,0,70,0,0
74112,-66.6666666666667,4,2,0,70,0,1
74335,-80,4,2,0,70,0,0
74557,-80,4,2,0,80,0,1
87001,-222.222222222221,4,2,0,70,0,0
103446,-83.3333333333333,4,2,0,70,0,0
116335,-200,4,2,0,75,0,0
117446,-83.3333333333333,4,2,0,75,0,0

[HitObjects]
250,168,14113,5,0,0:0:0:0:
450,250,14557,1,0,0:0:0:0:
231,295,15001,1,0,0:0:0:0:
376,141,15446,1,0,0:0:0:0:
379,350,15890,1,0,0:0:0:0:
250,168,16335,1,0,0:0:0:0:
450,250,16779,1,0,0:0:0:0:
231,295,17224,1,0,0:0:0:0:
292,139,17668,6,0,P|288:203|360:267,2,140
414,48,19001,2,0,L|386:188,1,140
288,349,19890,2,0,L|249:200,1,140
215,56,20779,1,0,0:0:0:0:
87,164,21224,5,0,0:0:0:0:
287,367,21668,2,0,B|287:290|287:290|240:240,1,140
375,230,22557,1,0,0:0:0:0:
251,41,23001,2,0,B|250:117|250:117|297:184,1,140
446,257,23890,1,0,0:0:0:0:
217,246,24335,1,0,0:0:0:0:
214,88,24779,6,0,P|233:140|314:97,2,140
155,318,26112,2,0,P|195:265|259:310,2,140
409,236,27446,1,0,0:0:0:0:
307,48,28335,6,0,P|333:69|355:116,1,70
343,278,28779,2,0,P|310:240|299:210,1,70
351,100,29224,1,0,0:0:0:0:
182,269,29446,1,0,0:0:0:0:
174,101,29668,5,0,0:0:0:0:
343,278,29890,1,0,0:0:0:0:
372,93,30112,2,0,P|369:142|381:173,1,70
343,346,30557,2,0,P|347:297|342:275,1,70
258,148,31001,1,0,0:0:0:0:
245,348,31224,1,0,0:0:0:0:
148,117,31446,1,0,0:0:0:0:
347,199,31668,1,0,0:0:0:0:
113,213,31890,6,0,P|148:237|175:239,1,70
327,289,32335,2,0,P|280:305|239:301,1,70
250,121,32779,2,0,L|269:189,1,70
187,329,33224,2,0,L|202:251,1,70
260,117,33668,1,0,0:0:0:0:
354,287,33890,1,0,0:0:0:0:
352,115,34112,1,0,0:0:0:0:
308,328,34335,2,0,P|296:284|266:254,1,70
195,142,34779,2,0,P|205:183|232:219,1,70
373,294,35224,1,0,0:0:0:0:
195,142,35446,6,0,P|231:150|279:148,1,70
417,223,35890,2,0,P|375:233|344:229,1,70
167,242,36335,1,0,0:0:0:0:
350,144,36557,1,0,0:0:0:0:
258,322,36779,1,0,0:0:0:0:
257,110,37001,1,0,0:0:0:0:
110,236,37224,2,0,P|154:228|192:238,1,70
354,307,37668,2,0,P|303:313|270:304,1,70
109,336,38112,2,0,P|109:300|128:262,1,70
212,137,38557,2,0,P|213:179|200:211,1,70
310,335,39001,5,0,0:0:0:0:
68,249,39224,1,0,0:0:0:0:
308,210,39446,1,0,0:0:0:0:
111,133,39668,2,0,P|147:123|184:144,1,70
308,210,40112,2,0,P|256:221|231:201,1,70
94,128,40557,1,0,0:0:0:0:
305,298,41001,1,0,0:0:0:0:
280,119,41224,1,0,0:0:0:0:
80,99,42112,5,8,0:0:0:0:
341,289,42557,5,0,0:0:0:0:
274,78,42779,1,0,0:0:0:0:
251,288,43001,1,8,0:0:0:0:
439,155,43224,2,0,P|392:166|358:198,1,83.9999974365235
251,288,43668,2,0,P|289:318|336:323,1,83.9999974365235,0|8,0:0|0:0,0:0:0:0:
494,338,44112,2,0,P|479:289|450:259,1,83.9999974365235
317,166,44557,1,0,0:0:0:0:
130,268,44779,2,0,P|192:281|221:270,1,83.9999974365235,8|0,0:0|0:0,0:0:0:0:
317,166,45224,1,0,0:0:0:0:
457,264,45446,2,0,L|452:174,1,83.9999974365235,0|8,0:0|0:0,0:0:0:0:
254,321,46112,6,0,P|262:280|294:242,1,83.9999974365235
268,127,46557,2,0,B|322:132|283:164|343:172,1,83.9999974365235,8|0,0:0|0:0,0:0:0:0:
469,119,47001,2,0,P|472:170|450:213,1,83.9999974365235
405,356,47446,2,0,P|363:322|341:271,1,83.9999974365235,8|0,0:0|0:0,0:0:0:0:
219,243,47890,2,0,P|264:222|286:191,1,83.9999974365235
82,147,48335,2,0,P|135:145|168:164,1,83.9999974365235,8|0,0:0|0:0,0:0:0:0:
116,245,48779,1,0,0:0:0:0:
298,283,49001,1,0,0:0:0:0:
285,110,49224,2,0,P|214:115|192:88,1,83.9999974365235,8|0,0:0|0:0,0:0:0:0:
101,19,49668,5,0,0:0:0:0:
144,199,49890,1,0,0:0:0:0:
234,37,50112,2,0,P|284:53|305:82,1,83.9999974365235,8|0,0:0|0:0,0:0:0:0:
356,215,50557,1,0,0:0:0:0:
382,94,50779,2,0,P|340:76|279:83,1,83.9999974365235,0|8,0:0|0:0,0:0:0:0:
153,264,51224,2,0,P|210:243|259:246,1,83.9999974365235
426,267,51668,2,0,P|412:220|381:190,1,83.9999974365235,0|8,0:0|0:0,0:0:0:0:
219,228,52112,2,0,P|275:242|306:229,1,83.9999974365235
362,76,52557,1,0,0:0:0:0:
217,231,52779,1,8,0:0:0:0:
167,71,53224,6,0,P|184:129|199:149,1,83.9999974365235
223,300,53668,2,0,P|280:278|305:259,1,83.9999974365235,8|0,0:0|0:0,0:0:0:0:
347,106,54112,2,0,P|387:128|414:167,1,83.9999974365235
163,73,54557,1,8,0:0:0:0:
284,178,54779,1,0,0:0:0:0:
314,17,55001,1,0,0:0:0:0:
401,171,55224,1,0,0:0:0:0:
285,180,55446,1,8,0:0:0:0:
294,122,56112,6,0,P|238:114|292:114,1,167.999994873047
439,281,57001,1,0,0:0:0:0:
403,55,57224,5,8,0:0:0:0:
334,280,57446,1,0,0:0:0:0:
499,152,57668,5,0,0:0:0:0:
206,200,57890,1,0,0:0:0:0:
404,18,58112,1,8,0:0:0:0:
317,286,58335,1,0,0:0:0:0:
155,121,58557,2,0,P|211:110|252:119,1,87.5
411,169,59001,2,0,P|350:181|314:177,1,87.5,8|0,0:0|0:0,0:0:0:0:
139,67,59446,5,0,0:0:0:0:
328,338,59668,1,0,0:0:0:0:
374,32,59890,1,8,0:0:0:0:
83,258,60112,1,0,0:0:0:0:
456,238,60335,2,0,L|340:232,1,87.5
224,172,60779,2,0,L|337:157,1,87.5,8|0,0:0|0:0,0:0:0:0:
477,26,61224,5,0,0:0:0:0:
352,359,61446,1,0,0:0:0:0:
329,44,61668,1,8,0:0:0:0:
477,235,61890,1,0,0:0:0:0:
215,194,62112,2,0,P|274:196|301:176,1,87.5
61,146,62557,2,0,P|109:135|167:166,1,87.5,8|0,0:0|0:0,0:0:0:0:
321,42,63890,5,0,0:0:0:0:
448,342,64112,1,0,0:0:0:0:
216,213,64335,1,8,0:0:0:0:
482,31,64557,1,0,0:0:0:0:
109,202,64779,2,0,P|160:229|207:224,1,87.5
446,215,65224,2,0,P|372:211|324:227,1,87.5,8|0,0:0|0:0,0:0:0:0:
200,81,65668,1,0,0:0:0:0:
317,324,65890,1,0,0:0:0:0:
323,69,66112,1,8,0:0:0:0:
102,170,66335,5,0,0:0:0:0:
121,333,66557,2,0,P|170:322|195:284,1,87.5
174,114,67002,2,0,P|155:164|165:204,1,87.5,8|0,0:0|0:0,0:0:0:0:
347,256,67446,2,0,P|282:235|239:248,1,87.5
217,28,67890,1,8,0:0:0:0:
263,238,68113,1,0,0:0:0:0:
138,76,68335,6,0,P|174:113|226:131,1,87.5
387,191,68779,2,0,P|342:215|301:220,1,87.5,8|0,0:0|0:0,0:0:0:0:
94,230,69224,1,0,0:0:0:0:
466,352,69446,1,0,0:0:0:0:
235,65,69668,1,8,0:0:0:0:
101,118,70557,6,0,P|152:146|214:128,1,87.5
336,75,71112,2,0,B|352:43|385:55|399:95|384:128|335:146|335:146|342:152|342:152|336:155|336:155|341:161|341:161|336:167|336:167|339:174|339:174|335:180|335:180|339:187|339:187|335:194|335:194|339:201|339:201|335:208|335:208|339:215|339:215|335:222|335:222|339:230|339:230|335:237|335:237|339:242|339:242|335:248|335:248|340:253|340:253|335:257|335:257|339:262|339:262|335:266|335:266|340:270|340:270|335:273|335:273|339:279|339:279|335:283|335:283|339:288|339:288|335:293|335:293|340:299|340:299|335:304|335:304|341:310|341:310|335:313|335:313|341:319|341:319|335:324|335:324|340:330|340:330|335:349|268:365|229:331|229:331|232:324|232:324|228:319|228:319|234:311|234:311|227:308|227:308|233:302|233:302|228:295|228:295|233:289|233:289|228:282|228:282|232:274|232:274|228:266|228:266|232:232,1,612.5
239,134,74112,2,0,P|195:126|208:187,1,105.000004005432
45,62,74557,5,0,0:0:0:0:
438,213,74779,1,0,0:0:0:0:
63,281,75001,1,8,0:0:0:0:
470,10,75224,1,0,0:0:0:0:
214,337,75446,2,0,P|214:278|192:239,1,87.5
164,20,75890,2,0,P|155:92|170:121,1,87.5,8|0,0:0|0:0,0:0:0:0:
332,353,76335,5,0,0:0:0:0:
329,6,76557,1,0,0:0:0:0:
109,301,76779,1,8,0:0:0:0:
469,11,77001,1,0,0:0:0:0:
159,106,77224,2,0,P|214:118|258:158,1,87.5
430,250,77668,2,8,P|371:235|346:217,1,87.5,8|0,0:0|0:0,0:0:0:0:
132,32,78112,5,0,0:0:0:0:
462,326,78335,1,0,0:0:0:0:
108,178,78557,1,8,0:0:0:0:
471,12,78779,1,0,0:0:0:0:
240,329,79001,2,0,L|261:229,1,87.5
111,19,79446,2,0,L|137:109,1,87.5,8|0,0:0|0:0,0:0:0:0:
242,319,79890,5,0,0:0:0:0:
304,36,80112,1,0,0:0:0:0:
395,351,80335,6,0,P|380:309|350:279,1,87.5,8|0,0:0|0:0,0:0:0:0:
167,244,80779,2,0,P|228:251|264:240,1,87.5
497,114,81224,1,8,0:0:0:0:
166,243,81446,1,0,0:0:0:0:
41,25,81668,6,0,P|87:50|125:48,1,87.5
481,111,82112,2,0,P|421:135|370:131,1,87.5,8|0,0:0|0:0,0:0:0:0:
41,142,82557,1,0,0:0:0:0:
460,335,82779,1,0,0:0:0:0:
114,316,83001,1,8,0:0:0:0:
364,97,83224,1,0,0:0:0:0:
315,349,83446,6,0,P|301:296|274:260,1,87.5
182,97,83890,2,0,P|203:155|232:189,1,87.5,8|0,0:0|0:0,0:0:0:0:
437,297,84335,1,0,0:0:0:0:
315,24,84557,1,0,0:0:0:0:
152,279,84779,1,8,0:0:0:0:
483,116,85001,1,0,0:0:0:0:
349,315,85224,5,0,0:0:0:0:
174,195,85446,1,0,0:0:0:0:
320,29,85668,1,8,0:0:0:0:
477,156,85890,1,0,0:0:0:0:
294,288,86112,2,0,P|346:266|392:271,1,87.5
12,182,86557,2,0,P|68:204|114:197,1,87.5,8|0,0:0|0:0,0:0:0:0:
382,269,87001,1,0,0:0:0:0:
12,182,87446,1,8,0:0:0:0:
382,269,87890,1,0,0:0:0:0:
340,5,88335,1,8,0:0:0:0:
276,318,88779,5,0,0:0:0:0:
256,192,99446,12,0,101668,0:0:0:0:
403,186,102112,6,2,L|406:207,4,15.7499995193482
269,258,102779,2,0,L|262:281,2,15.7499995193482
194,122,103446,5,8,0:0:0:0:
297,331,103668,1,0,0:0:0:0:
319,33,103890,1,0,0:0:0:0:
174,276,104112,1,0,0:0:0:0:
461,156,104335,1,8,0:0:0:0:
107,215,104557,2,0,P|152:206|197:173,1,83.9999974365235
348,338,105001,1,0,0:0:0:0:
103,39,105224,1,8,0:0:0:0:
388,108,105446,6,0,P|373:168|386:204,1,83.9999974365235
237,340,105890,2,0,P|246:278|227:230,1,83.9999974365235,0|8,0:0|0:0,0:0:0:0:
161,25,106557,5,0,0:0:0:0:
265,278,106779,1,0,0:0:0:0:
358,15,107001,2,8,L|370:122,1,83.9999974365235,8|0,0:0|0:0,0:0:0:0:
333,338,107446,2,0,L|316:233,1,83.9999974365235
199,85,107890,1,8,0:0:0:0:
137,284,108112,2,0,P|188:292|240:273,1,83.9999974365235
428,182,108557,2,0,P|382:172|317:193,1,83.9999974365235,0|8,0:0|0:0,0:0:0:0:
181,324,109001,1,0,0:0:0:0:
209,105,109224,1,0,0:0:0:0:
325,334,109446,1,0,0:0:0:0:
130,179,109668,1,8,0:0:0:0:
332,341,110112,5,0,0:0:0:0:
208,44,110335,1,0,0:0:0:0:
170,348,110557,1,8,0:0:0:0:
333,34,110779,2,0,P|375:76|378:114,1,83.9999974365235
79,221,111224,2,0,P|136:173|177:160,1,83.9999974365235,0|8,0:0|0:0,0:0:0:0:
352,107,111668,1,0,0:0:0:0:
225,366,111890,1,0,0:0:0:0:
203,57,112112,2,0,P|241:97|286:106,1,83.9999974365235,0|8,0:0|0:0,0:0:0:0:
454,266,112557,2,0,P|436:202|407:174,1,83.9999974365235
201,53,113001,1,0,0:0:0:0:
307,326,113224,1,8,0:0:0:0:
46,178,113668,6,0,P|93:189|157:175,1,83.9999974365235
304,128,114112,1,8,0:0:0:0:
192,347,114335,2,0,P|191:284|172:249,1,83.9999974365235
141,11,114779,2,0,P|146:80|161:113,1,83.9999974365235,0|8,0:0|0:0,0:0:0:0:
214,302,115224,1,0,0:0:0:0:
285,66,115446,1,0,0:0:0:0:
399,300,115668,2,0,P|365:271|323:251,1,83.9999974365235,0|8,0:0|0:0,0:0:0:0:
392,62,116557,6,0,P|361:49|392:63,1,105
435,316,117446,1,0,0:0:0:0:
246,18,117668,5,8,0:0:0:0:
255,345,117890,1,0,0:0:0:0:
98,52,118112,5,0,0:0:0:0:
462,156,118335,1,0,0:0:0:0:
103,269,118557,1,8,0:0:0:0:
415,57,118779,1,0,0:0:0:0:
308,353,119001,2,8,B|298:246,1,83.9999974365235,0|0,0:0|0:0,0:0:0:0:
181,103,119446,2,0,P|225:82|281:83,1,83.9999974365235,8|0,0:0|0:0,0:0:0:0:
485,73,119890,5,0,0:0:0:0:
255,355,120112,1,0,0:0:0:0:
297,44,120335,1,8,0:0:0:0:
437,331,120557,2,0,P|424:276|390:246,1,83.9999974365235
69,170,121001,2,0,P|131:184|172:176,1,83.9999974365235,0|8,0:0|0:0,0:0:0:0:
406,82,121446,1,0,0:0:0:0:
227,318,121668,5,0,0:0:0:0:
197,100,121890,2,0,P|242:80|279:89,1,83.9999974365235,0|8,0:0|0:0,0:0:0:0:
