osu file format v14

[General]
AudioFilename: write-a-song-on-the-count-of-3.mp3
AudioLeadIn: 0
PreviewTime: 75687
Countdown: 0
SampleSet: Normal
StackLeniency: 0.8
Mode: 0
LetterboxInBreaks: 0
WidescreenStoryboard: 0

[Editor]
DistanceSpacing: 0.9
BeatDivisor: 4
GridSize: 4
TimelineZoom: 1

[Metadata]
Title:write a song on the count of 3
TitleUnicode:write a song on the count of 3
Artist:bill wurtz
ArtistUnicode:bill wurtz
Creator:The Fire Tiger
Version:three [wip]
Source:
Tags:bill wurtz write a song on the count of 3 random indie vocal improv fire tiger silly
BeatmapID:906867
BeatmapSetID:419024

[Difficulty]
HPDrainRate:7
CircleSize:4.5
OverallDifficulty:8
ApproachRate:9.1
SliderMultiplier:0.999999999999999
SliderTickRate:1

[Events]
//Background and Video events
0,0,"123.png",0,0
//Break Periods
2,12347,18568
2,42553,138582
2,141866,148018
//Storyboard Layer 0 (Background)
//Storyboard Layer 1 (Fail)
//Storyboard Layer 2 (Pass)
//Storyboard Layer 3 (Foreground)
//Storyboard Sound Samples

[TimingPoints]
1375,555.555555555556,4,1,1,70,1,0
19013,-66.6666666666667,4,1,1,50,0,0
30263,556.844547563805,6,1,1,50,1,0
30541,-153.846153846153,6,1,1,50,0,0
33465,-100,6,1,1,50,0,0
33604,555.555555555556,4,1,1,50,1,0
39992,-76.9230769230769,4,1,1,50,0,0
41381,-58.8235294117647,4,1,1,50,0,0
42354,-100,4,1,1,50,0,0
75826,-100,4,1,1,50,0,1
91104,-100,4,1,1,50,0,0
115826,555.555555555556,6,1,1,50,1,0
119159,555.555555555556,4,1,1,50,1,1
139159,555.555555555556,5,1,1,50,1,0
141936,555.555555555556,4,2,1,50,1,0
145269,-100,4,2,1,50,0,1
148324,-100,4,2,1,50,0,0

[Colours]
Combo1 : 255,255,0
Combo2 : 255,0,0
Combo3 : 255,128,0

[HitObjects]
168,256,10541,5,0,0:0:0:0:
252,124,10958,1,0,0:0:0:0:
332,256,11375,1,0,0:0:0:0:
73,130,19152,22,0,P|70:83|101:59,1,75.000002861023
150,117,19708,2,0,P|153:164|122:188,1,75.000002861023
52,196,20263,2,0,L|32:236,1,37.5000014305115
36,266,20541,1,0,0:0:0:0:
36,266,20680,2,0,P|76:313|149:319,1,112.500004291534
123,324,21236,1,0,0:0:0:0:
116,236,21375,22,0,P|136:188|184:144,1,112.500004291534
179,146,21930,2,0,L|255:170,1,75.000002861023
250,168,22347,1,0,0:0:0:0:
329,201,22486,2,0,L|377:219,2,37.5000014305115
249,238,22902,1,0,0:0:0:0:
327,286,23041,2,0,L|378:270,2,37.5000014305115
196,318,23597,22,0,P|156:271|165:197,1,112.500004291534
154,222,24152,2,0,L|178:150,1,75.000002861023
240,237,24569,1,0,0:0:0:0:
73,209,24986,2,0,P|57:259|99:349,1,150.000005722046
115,355,25680,1,0,0:0:0:0:
154,362,25819,6,0,B|193:357|216:325|287:315,1,112.500004291534
284,322,26375,1,0,0:0:0:0:
378,335,26652,2,0,P|351:291|373:221,1,112.500004291534
362,233,27208,2,0,L|411:164,1,75.000002861023
318,165,27625,1,0,0:0:0:0:
405,169,27763,2,0,L|438:125,1,37.5000014305115
366,88,28041,5,0,0:0:0:0:
366,88,28319,1,0,0:0:0:0:
273,134,28597,1,0,0:0:0:0:
273,134,28875,1,0,0:0:0:0:
277,38,29152,1,0,0:0:0:0:
277,38,29430,1,0,0:0:0:0:
177,84,29708,1,0,0:0:0:0:
149,108,29846,1,0,0:0:0:0:
132,142,29985,1,0,0:0:0:0:
129,179,30124,1,0,0:0:0:0:
253,240,30680,5,0,0:0:0:0:
253,240,30819,2,0,L|309:251,1,48.7499977684022
256,192,31389,12,0,33336,0:0:0:0:
136,119,33604,5,0,0:0:0:0:
82,160,33881,1,0,0:0:0:0:
136,119,34159,2,0,L|193:79,1,50
130,216,34715,6,0,L|101:239,1,25
69,263,35131,2,0,P|51:293|69:329,1,74.9999999999999
87,342,35687,1,0,0:0:0:0:
127,355,35826,2,0,L|191:368,1,50
229,332,36243,1,0,0:0:0:0:
176,305,36381,1,0,0:0:0:0:
175,364,36520,1,0,0:0:0:0:
227,278,36798,2,0,P|258:255|271:226,1,50
278,226,37215,5,0,0:0:0:0:
293,206,37353,1,0,0:0:0:0:
301,182,37492,1,0,0:0:0:0:
300,157,37631,1,0,0:0:0:0:
291,134,37770,1,0,0:0:0:0:
275,116,37909,1,0,0:0:0:0:
187,83,38048,6,0,P|153:85|132:92,1,50
117,102,38465,1,0,0:0:0:0:
77,144,38604,2,0,L|51:167,2,25
132,134,39020,1,0,0:0:0:0:
164,132,39158,1,0,0:0:0:0:
196,138,39297,1,0,0:0:0:0:
225,151,39436,1,0,0:0:0:0:
250,172,39575,1,0,0:0:0:0:
270,197,39714,1,0,0:0:0:0:
283,227,39853,1,0,0:0:0:0:
288,259,39992,1,0,0:0:0:0:
286,298,40131,6,0,L|258:333,1,32.4999985122681
241,337,40409,2,0,P|176:335|156:315,1,97.4999955368043
215,263,41104,1,0,0:0:0:0:
400,303,41520,5,0,0:0:0:0:
434,279,41658,1,0,0:0:0:0:
460,245,41797,1,0,0:0:0:0:
473,205,41936,1,0,0:0:0:0:
474,162,42075,1,0,0:0:0:0:
456,126,42215,2,0,L|425:76,1,42.5000008106231
256,192,139166,12,0,141666,0:0:0:0:
256,192,148602,12,0,153047,0:0:0:0:
