osu file format v14

[General]
AudioFilename: audio.mp3
AudioLeadIn: 0
PreviewTime: 16545
Countdown: 0
SampleSet: Soft
StackLeniency: 0.6
Mode: 0
LetterboxInBreaks: 0
WidescreenStoryboard: 1

[Editor]
DistanceSpacing: 1.6
BeatDivisor: 4
GridSize: 4
TimelineZoom: 1

[Metadata]
Title:the summertime
TitleUnicode:the summertime
Artist:bill wurtz
ArtistUnicode:bill wurtz
Creator:Ancelysia
Version:renumi's summertime
Source:
Tags:Renumi -Jordan- youtube internet
BeatmapID:1395383
BeatmapSetID:603619

[Difficulty]
HPDrainRate:5
CircleSize:3
OverallDifficulty:6
ApproachRate:7
SliderMultiplier:2
SliderTickRate:1

[Events]
//Background and Video events
0,0,"summertime.png",0,0
//Break Periods
//Storyboard Layer 0 (Background)
//Storyboard Layer 1 (Fail)
//Storyboard Layer 2 (Pass)
//Storyboard Layer 3 (Foreground)
//Storyboard Sound Samples

[TimingPoints]
2054,508.474576271186,4,3,0,30,1,0
10189,-100,4,2,0,40,0,0
11715,-100,4,3,0,30,0,0
16926,-100,4,3,0,76,0,0
18325,-100,4,1,2,76,0,1
38409,-100,4,1,2,76,0,0
38664,-100,4,1,2,66,0,0
39172,-100,4,1,2,60,0,0
39681,-100,4,1,2,44,0,0
40189,-100,4,1,2,40,0,0
40698,-100,4,1,2,24,0,0
41206,-100,4,1,2,20,0,0
41715,-100,4,1,2,5,0,0
42223,-100,4,2,1,5,0,0

[Colours]
Combo1 : 255,94,55
Combo2 : 0,202,0
Combo3 : 18,124,255
Combo4 : 242,24,57
Combo5 : 17,254,176
Combo6 : 173,255,95
Combo7 : 255,88,100

[HitObjects]
240,156,2054,5,4,0:0:0:0:
120,52,2308,2,0,L|116:-16,2,50,2|2|2,2:0|2:0|2:0,2:0:0:0:
44,192,2816,1,2,2:0:0:0:
188,260,3070,2,0,L|184:328,1,50,2|2,2:0|2:0,0:0:0:0:
240,368,3325,1,2,2:0:0:0:
396,328,3579,2,0,L|445:330,2,50,2|2|2,2:0|2:0|2:0,2:0:0:0:
396,328,4087,6,0,L|401:228,1,100,4|2,2:0|0:0,0:0:0:0:
340,176,4469,2,0,L|335:95,1,50
212,11,4850,2,0,L|206:110,1,100,2|0,0:0|0:0,0:0:0:0:
187,258,5359,1,2,0:0:0:0:
44,192,5613,2,0,L|46:241,2,50,0|0|2,0:0|0:0|0:0,0:0:0:0:
44,192,6121,5,4,0:0:0:0:
129,69,6376,2,0,L|126:19,2,50,2|0|0,0:0|0:0|0:0,0:0:0:0:
250,190,6884,1,2,0:0:0:0:
126,291,7138,2,0,L|123:340,1,50,4|0,0:0|0:0,0:0:0:0:
192,380,7392,1,2,0:0:0:0:
324,304,7647,2,0,L|321:254,2,50,0|0|2,0:0|0:0|0:0,0:0:0:0:
324,304,8155,70,0,L|439:301,1,100,4|0,2:0|0:0,0:0:0:0:
457,228,8537,2,0,L|540:230,1,50,2|0,0:0|0:0,0:0:0:0:
430,88,8918,2,0,L|303:91,1,100
188,15,9426,1,2,0:0:0:0:
57,115,9681,2,0,L|-29:112,2,50,4|0|2,0:0|0:0|0:0,0:0:0:0:
57,115,10189,6,0,L|54:228,1,100,2|2,0:0|0:0,0:0:0:0:
95,283,10570,1,0,0:0:0:0:
157,335,10698,2,0,L|160:222,1,100,2|0,0:0|0:0,0:0:0:0:
226,190,11079,2,0,L|223:77,1,100,2|0,0:0|0:0,0:0:0:0:
318,116,11460,2,0,L|316:165,1,50,2|0,0:0|0:0,0:0:0:0:
367,228,11715,6,0,B|362:253|362:253|369:284,1,50,4|0,0:0|0:0,0:0:0:0:
386,355,11969,2,0,B|410:346|410:346|433:325,1,50,4|0,0:0|0:0,0:0:0:0:
448,252,12223,2,0,B|445:210|445:210|450:194|450:194|448:150,1,100,4|2,0:0|0:0,0:0:0:0:
396,88,12604,2,0,L|397:38,1,50,0|4,0:0|0:0,0:0:0:0:
240,60,12986,2,0,B|128:56|128:56|152:104,1,150,2|0,0:0|0:0,0:0:0:0:
196,152,13494,2,0,L|192:236,1,50,2|0,0:0|0:0,0:0:0:0:
137,259,13748,1,4,0:0:0:0:
252,370,14003,1,2,0:0:0:0:
373,265,14257,69,0,0:0:0:0:
373,265,14511,1,0,0:0:0:0:
318,116,14765,5,0,0:0:0:0:
318,116,15019,1,0,0:0:0:0:
193,201,15274,2,0,L|65:203,1,100
37,257,15655,2,0,L|165:259,1,100
193,315,16037,1,0,0:0:0:0:
304,200,16291,5,0,0:0:0:0:
304,200,17053,1,0,0:0:0:0:
438,112,17308,6,0,P|448:63|425:13,1,100,6|0,1:0|0:0,0:0:0:0:
429,18,17689,1,4,0:0:0:0:
429,18,17816,1,4,0:0:0:0:
281,78,18070,1,4,0:0:0:0:
139,1,18325,6,0,L|151:214,1,200,4|0,0:0|0:0,0:0:0:0:
242,330,19087,1,4,0:0:0:0:
344,204,19342,2,0,B|268:208|268:208|240:232|240:232|136:244,1,200,12|0,0:0|0:0,0:0:0:0:
26,339,20104,2,2,B|80:341|80:341|100:359|100:359|175:367,1,150,6|6,0:0|0:0,0:0:0:0:
242,330,20613,2,4,L|320:324,2,50,4|4|4,3:0|3:0|3:0,3:0:0:0:
102,251,21121,1,4,3:0:0:0:
209,131,21376,6,0,L|204:31,1,100,14|0,0:0|0:0,0:0:0:0:
348,104,21884,2,0,L|343:203,1,100
242,330,22392,6,0,P|290:264|417:276,1,200,4|4,0:0|0:0,0:0:0:0:
510,380,23155,1,0,0:0:0:0:
436,240,23409,2,0,B|402:132|482:173|452:40,1,200,8|0,0:0|0:0,0:0:0:0:
298,90,24172,2,2,B|165:98|165:98|229:162,1,200,6|2,0:0|0:0,0:0:0:0:
345,235,24935,2,0,B|439:240|439:240|394:286,1,150,4|0,1:0|0:0,0:0:0:0:
340,331,25443,6,0,L|236:342,1,100,10|0,0:0|0:0,0:0:0:0:
106,253,25952,2,0,L|6:242,1,100
99,111,26460,54,0,L|318:87,1,200,4|0,0:0|0:0,0:0:0:0:
452,134,27223,1,4,0:0:0:0:
343,19,27477,2,0,B|323:66|347:113|347:113|373:164|346:228,1,200,14|0,0:0|0:0,0:0:0:0:
204,276,28240,6,2,P|299:240|372:322,1,200,6|2,0:0|0:0,0:0:0:0:
220,363,29003,2,4,L|109:357,1,100,4|4,3:0|3:0,3:0:0:0:
6,245,29511,2,0,L|247:231,1,200,14|0,0:0|0:0,0:0:0:0:
317,111,30274,6,2,B|448:120|448:120|392:187,1,200,6|2,0:0|0:0,0:0:0:0:
244,154,31037,2,4,L|250:33,1,100,4|4,3:0|3:0,3:0:0:0:
94,16,31545,2,0,L|106:238,1,200,14|0,0:0|0:0,0:0:0:0:
2,339,32308,6,2,P|34:296|180:299,1,200,6|0,0:0|0:0,0:0:0:0:
308,372,33070,1,0,0:0:0:0:
395,237,33325,2,0,B|409:190|409:190|384:120,1,100,4|8,0:0|0:0,0:0:0:0:
246,76,33833,2,0,B|198:87|198:87|150:144,1,100
170,291,34342,6,2,B|268:284|213:333|321:337,1,150,6|2,0:0|0:0,0:0:0:0:
386,321,34850,1,4,3:0:0:0:
491,201,35104,1,4,3:0:0:0:
365,101,35359,1,4,3:0:0:0:
248,210,35613,2,0,L|129:204,1,100,14|0,0:0|0:0,0:0:0:0:
8,127,36121,1,0,0:0:0:0:
153,58,36376,6,2,L|304:50,1,150,14|2,0:0|0:0,0:0:0:0:
365,101,36884,1,0,0:0:0:0:
424,248,37138,1,0,0:0:0:0:
276,304,37392,2,0,B|223:308|223:308|178:273,1,100,6|0,0:0|0:0,0:0:0:0:
108,140,37901,2,0,B|130:92|130:92|183:70,1,100,6|0,0:0|0:0,0:0:0:0:
248,210,38409,5,4,0:0:0:0:
256,192,38537,12,0,42477,0:0:0:0:
