osu file format v14

[General]
AudioFilename: audio.mp3
AudioLeadIn: 0
PreviewTime: 321
Countdown: 0
SampleSet: Soft
StackLeniency: 0.5
Mode: 0
LetterboxInBreaks: 0
WidescreenStoryboard: 1

[Editor]
DistanceSpacing: 0.7
BeatDivisor: 8
GridSize: 4
TimelineZoom: 1.3

[Metadata]
Title:the moon is made of cheese, but i can't taste it
TitleUnicode:the moon is made of cheese, but i can't taste it
Artist:bill wurtz
ArtistUnicode:bill wurtz
Creator:skro
Version:salty's normal
Source:
Tags:featured artist fa billwurtz english pop Kirishima- Isnou SaltyLucario SaltKing AdeAAa armin swag sskro
BeatmapID:3453892
BeatmapSetID:1689938

[Difficulty]
HPDrainRate:3
CircleSize:3.6
OverallDifficulty:4
ApproachRate:5
SliderMultiplier:2.3
SliderTickRate:1

[Events]
//Background and Video events
0,0,"Moon.jpg",0,0
//Break Periods
//Storyboard Layer 0 (Background)
//Storyboard Layer 1 (Fail)
//Storyboard Layer 2 (Pass)
//Storyboard Layer 3 (Foreground)
//Storyboard Layer 4 (Overlay)
//Storyboard Sound Samples

[TimingPoints]
-796,638.297872340426,4,2,1,50,1,0
480,-142.857142857143,4,2,1,50,0,0
1757,638.297872340426,4,2,1,50,1,0
1757,-125,4,2,1,50,0,0
11171,-125,4,2,2,50,0,0
11331,-125,4,2,1,50,0,0
17076,-125,4,2,3,50,0,0
17555,-125,4,2,1,50,0,0
18671,-125,4,2,1,35,0,0
18831,-125,4,2,1,50,0,0
19150,-125,4,2,2,50,0,0
19310,-125,4,2,3,50,0,0
19629,-125,4,2,1,50,0,0
20427,-125,4,2,3,50,0,0
20746,-125,4,2,1,50,0,0
23938,-125,4,2,2,50,0,0
24975,-125,4,2,1,50,0,0
29523,-125,4,2,2,50,0,0
29842,-125,4,2,1,50,0,0
31438,-125,4,2,3,50,0,0
31597,-125,4,2,1,50,0,0
33193,-125,4,2,2,50,0,0
33672,-125,4,2,1,50,0,0
34629,-125,4,2,3,50,0,0
34948,-125,4,2,1,50,0,0
37182,-125,4,2,4,50,0,0
37501,-125,4,2,1,50,0,0
39735,-125,4,2,3,50,0,0
40055,-125,4,2,1,50,0,0
41969,-125,4,2,2,50,0,0
42209,-125,4,2,1,50,0,0
57927,-125,4,2,2,50,0,0
58724,-125,4,2,1,50,0,0
67023,-125,4,2,2,50,0,0
67501,638.297872340426,4,2,1,50,1,0
67501,-125,4,2,1,50,0,0
68618,-125,4,2,4,50,0,0

[Colours]
Combo1 : 100,159,172
Combo2 : 233,233,233
Combo3 : 210,169,91
Combo4 : 255,83,83
Combo5 : 50,156,35

[HitObjects]
65,246,480,6,0,P|53:189|28:95,2,120.749996315003,8|8|2,2:0|2:3|1:2,2:0:0:0:
136,304,1757,6,0,P|188:268|275:287,1,138,2|2,2:0|1:2,2:0:0:0:
287,319,2395,1,2,2:0:0:0:
287,319,2555,1,10,1:2:0:0:
373,288,2874,2,2,P|361:222|353:164,1,92,2|8,2:3|2:0,2:0:0:0:
412,124,3512,1,10,1:3:0:0:
356,57,3831,1,2,2:0:0:0:
356,57,3991,1,0,2:0:0:0:
272,94,4310,6,0,B|197:115|224:36|103:75,1,138,2|2,1:2|1:2,2:0:0:0:
62,111,5108,1,2,1:2:0:0:
121,180,5427,1,10,1:2:0:0:
44,230,5746,2,0,B|51:275|51:275|48:283|48:283|61:345,1,92,2|8,1:2|2:3,2:0:0:0:
136,374,6384,1,0,2:0:0:0:
136,374,6544,1,10,2:3:0:0:
195,303,6863,38,0,P|273:312|325:324,1,92,2|10,1:2|2:0,2:0:0:0:
325,290,7342,1,2,1:3:0:0:
273,213,7661,1,10,2:0:0:0:
302,126,7980,2,0,P|353:118|407:107,1,92,10|2,2:0|2:0,2:0:0:0:
461,171,8618,2,0,P|447:248|445:315,1,138,10|2,2:3|1:2,2:0:0:0:
419,347,9257,1,2,2:0:0:0:
419,347,9416,6,0,P|374:331|315:323,1,92,2|8,2:0|2:0,2:0:0:0:
258,265,10055,2,0,P|213:281|154:289,1,92,2|0,2:0|1:2,2:0:0:0:
133,315,10533,1,10,2:0:0:0:
133,315,10693,2,0,B|109:282|109:282|144:146,1,138,2|10,2:0|2:3,2:0:0:0:
99,156,11331,2,0,L|82:50,1,92,2|8,1:2|1:3,2:0:0:0:
167,21,11969,5,2,2:0:0:0:
167,21,12129,1,2,2:0:0:0:
234,83,12448,1,2,1:2:0:0:
315,37,12767,1,10,1:3:0:0:
315,37,12927,1,2,1:2:0:0:
370,110,13246,2,0,B|414:101|414:101|422:95|422:95|472:89,1,92,2|10,2:0|2:0,2:0:0:0:
488,125,13725,2,0,P|448:179|483:262,1,138,10|10,1:3|1:3,2:0:0:0:
426,328,14523,38,2,B|354:317|354:317|346:318|346:318|258:305,1,138,6|10,1:2|2:0,2:0:0:0:
226,186,15480,2,0,L|280:178,1,46,2|2,1:2|2:0,2:0:0:0:
317,172,15799,1,10,1:2:0:0:
248,52,16278,2,0,L|88:31,1,138,2|2,1:2|2:0,2:0:0:0:
54,107,17076,5,10,2:3:0:0:
20,240,17555,2,0,P|83:258|134:216,1,138,6|0,1:2|2:0,2:0:0:0:
164,129,18352,6,0,L|258:143,1,92,8|8,2:0|2:0,2:0:0:0:
285,176,18831,2,0,L|388:162,1,92,8|10,2:0|2:3,2:0:0:0:
379,117,19310,1,10,2:3:0:0:
469,133,19629,37,10,2:0:0:0:
456,227,19948,1,10,2:0:0:0:
456,227,20108,1,10,2:0:0:0:
446,318,20427,1,10,2:3:0:0:
361,281,20746,2,0,B|304:274|266:311,1,92,2|0,1:2|1:2,2:0:0:0:
206,250,21384,1,0,1:2:0:0:
206,250,21544,2,0,L|215:150,1,92,8|2,2:0|1:2,2:0:0:0:
212,66,22182,6,0,B|133:56|158:119|58:93,1,138,2|2,1:2|1:2,2:0:0:0:
42,74,22821,1,2,2:0:0:0:
42,74,22980,1,10,2:0:0:0:
0,164,23299,22,2,L|17:277,1,92,2|10,2:0|1:2,2:0:0:0:
25,346,23938,21,10,2:3:0:0:
110,312,24257,2,0,L|121:198,1,92,2|0,2:0|2:0,2:0:0:0:
151,188,24735,6,0,P|189:218|238:223,1,92,2|8,2:0|2:0,2:0:0:0:
264,191,25214,1,2,1:2:0:0:
293,103,25533,2,0,B|336:94|336:94|345:100|345:100|404:85,1,92,10|2,2:0|2:0,2:0:0:0:
422,69,26012,2,0,L|431:7,2,46,2|2|10,2:0|2:0|2:0,2:0:0:0:
457,98,26491,2,0,B|448:153|448:153|444:160|444:160|428:268,1,138,2|0,1:2|2:0,2:0:0:0:
455,322,27289,6,2,P|396:327|366:296,1,92,2|8,2:0|2:0,2:0:0:0:
365,262,27767,1,2,1:2:0:0:
275,284,28086,1,10,2:0:0:0:
188,307,28406,1,10,2:0:0:0:
188,307,28565,2,0,L|199:193,1,92,2|10,2:0|2:0,2:0:0:0:
233,187,29044,2,0,L|223:90,1,92,2|0,1:2|2:0,2:0:0:0:
238,51,29523,1,10,1:3:0:0:
150,21,29842,37,2,1:2:0:0:
84,85,30161,1,8,2:0:0:0:
122,168,30480,2,0,P|136:210|120:252,1,92,2|0,2:0|2:0,2:0:0:0:
93,290,30959,2,0,P|30:275|-33:274,2,92,10|10|8,1:2|2:0|1:2,2:0:0:0:
150,361,31916,1,2,1:2:0:0:
150,361,32076,1,10,2:0:0:0:
234,323,32395,6,0,L|216:143,1,138,6|10,1:2|2:0,2:0:0:0:
205,94,33193,1,8,1:3:0:0:
336,137,33672,2,0,L|349:0,2,138,10|8|10,1:2|2:3|2:3,2:0:0:0:
387,219,34948,5,14,1:2:0:0:
387,219,35108,1,2,2:0:0:0:
357,305,35427,2,0,P|286:312|219:327,1,138,0|0,2:0|2:0,2:0:0:0:
139,369,36225,38,0,B|120:328|120:328|148:212,1,138,14|10,1:2|2:0,2:0:0:0:
170,152,37023,1,10,1:2:0:0:
170,152,37182,1,10,2:3:0:0:
126,70,37501,6,0,P|82:102|-5:88,2,138,2|2|2,1:2|1:2|1:2,2:0:0:0:
201,15,38778,1,10,2:0:0:0:
201,15,38938,1,0,2:0:0:0:
277,65,39257,2,0,P|258:150|251:240,1,138,2|10,2:0|2:3,2:0:0:0:
307,274,40055,38,0,L|318:338,1,46,2|0,1:2|2:0,2:0:0:0:
85,95,41331,6,0,P|74:156|62:207,1,115,14|0,2:0|2:0,2:0:0:0:
27,229,41969,2,0,P|34:274|44:319,1,92,8|0,2:3|2:0,2:0:0:0:
134,341,42608,6,0,B|210:314|192:399|298:360,1,138,2|2,1:2|1:2,2:0:0:0:
303,348,43246,1,2,2:0:0:0:
303,348,43406,1,10,2:0:0:0:
254,269,43725,2,2,B|263:194|263:194|272:181|272:181|285:74,1,184,2|10,2:0|2:3,2:0:0:0:
316,57,44523,1,2,1:2:0:0:
316,57,44682,1,2,2:0:0:0:
446,102,45161,6,0,P|439:152|435:200,1,92,2|8,1:2|2:0,2:0:0:0:
470,223,45640,1,2,2:0:0:0:
412,294,45959,1,10,2:0:0:0:
333,245,46278,1,10,1:2:0:0:
265,307,46597,2,2,L|271:366,2,46,10|2|0,1:3|2:0|2:0,2:0:0:0:
228,279,47076,2,2,L|240:157,1,92,2|10,1:2|2:3,2:0:0:0:
291,113,47714,38,0,B|251:84|251:84|191:110,1,92,2|8,1:2|2:0,2:0:0:0:
172,124,48193,1,2,2:0:0:0:
105,68,48512,1,10,2:0:0:0:
105,68,48672,1,2,1:2:0:0:
34,126,48991,2,0,P|42:171|54:251,1,92,2|8,2:0|2:0,2:0:0:0:
35,260,49469,2,0,P|106:241|157:287,1,138,2|10,1:2|2:0,2:0:0:0:
211,355,50267,5,2,1:2:0:0:
211,355,50427,1,2,2:0:0:0:
285,300,50746,2,0,P|275:232|266:182,1,92,2|8,1:2|2:0,2:0:0:0:
201,148,51384,1,10,2:0:0:0:
260,77,51704,2,0,P|315:91|399:106,1,138,2|10,1:2|2:3,2:0:0:0:
462,168,52501,2,0,L|453:223,1,46,10|0,2:0|2:0,2:0:0:0:
467,257,52821,6,0,P|399:268|332:285,1,138,10|10,1:2|2:0,2:0:0:0:
218,329,53778,1,2,1:2:0:0:
151,265,54097,38,0,P|176:152|182:112,1,138,14|10,1:2|2:0,2:0:0:0:
172,84,54735,1,10,2:0:0:0:
87,45,55055,1,2,2:0:0:0:
20,107,55374,5,10,1:2:0:0:
20,107,55533,2,0,P|33:156|45:231,1,92,0|10,2:0|2:0,2:0:0:0:
48,288,56172,1,8,2:0:0:0:
48,288,56331,1,2,1:2:0:0:
136,264,56650,6,0,P|187:267|256:300,1,92,14|0,1:2|2:0,2:0:0:0:
262,308,57129,2,0,B|290:247|290:247|255:157,1,138,10|10,1:2|1:2,2:0:0:0:
226,163,57767,1,2,2:0:0:0:
226,163,57927,38,0,L|233:93,1,46,2|2,1:2|2:0,2:0:0:0:
259,81,58246,2,0,B|324:73|321:134|394:120,1,138,2|8,2:0|1:2,2:0:0:0:
424,95,58884,1,2,1:2:0:0:
482,166,59204,6,0,P|465:237|460:274,1,92,14|2,1:2|2:0,2:0:0:0:
474,299,59682,2,0,P|436:267|343:280,1,138,8|10,1:2|2:0,2:0:0:0:
256,192,60480,12,8,61757,2:0:0:0:
175,96,62555,6,0,P|101:81|95:81,2,69,2|2|2,2:0|2:0|2:0,2:0:0:0:
305,146,63512,2,0,P|284:86|372:136,1,230,2|2,1:2|2:0,2:0:0:0:
371,210,64629,2,0,B|326:255|267:235|267:229|267:222|214:177|133:243,1,230,2|0,1:2|2:0,2:0:0:0:
134,269,65586,1,0,2:0:0:0:
134,269,65746,1,0,2:0:0:0:
11,206,66225,38,0,L|27:56,1,138,10|0,2:0|2:0,2:0:0:0:
53,32,66863,2,0,L|113:38,1,46,0|8,0:0|2:3,0:0:0:0:
131,68,67182,1,10,1:3:0:0:
228,60,67501,6,2,P|215:122|259:194,1,138,2|2,1:2|2:0,2:0:0:0:
297,199,68140,1,2,1:2:0:0:
297,199,68299,1,10,2:0:0:0:
334,114,68618,1,10,1:3:0:0:
