osu file format v14

[General]
AudioFilename: audio.mp3
AudioLeadIn: 0
PreviewTime: 20161
Countdown: 0
SampleSet: Normal
StackLeniency: 0.7
Mode: 1
LetterboxInBreaks: 0
WidescreenStoryboard: 0

[Editor]
DistanceSpacing: 0.1
BeatDivisor: 4
GridSize: 32
TimelineZoom: 1

[Metadata]
Title:school
TitleUnicode:school
Artist:bill wurtz
ArtistUnicode:bill wurtz
Creator:Toofu
Version:futsuu
Source:
Tags:featured artist fa english pop mappers' guild mpg froskya revialink
BeatmapID:3654796
BeatmapSetID:1784539

[Difficulty]
HPDrainRate:9
CircleSize:5
OverallDifficulty:3
ApproachRate:5
SliderMultiplier:2.8
SliderTickRate:1

[Events]
//Background and Video events
0,0,"ivan-aleksic-PDRFeeDniCk-unsplash.jpg",0,60
//Break Periods
//Storyboard Layer 0 (Background)
//Storyboard Layer 1 (Fail)
//Storyboard Layer 2 (Pass)
//Storyboard Layer 3 (Foreground)
//Storyboard Layer 4 (Overlay)
//Storyboard Sound Samples

[TimingPoints]
1099,625,4,1,0,100,1,0
1099,-125,4,1,0,60,0,0
21099,-125,4,1,0,80,0,1
41099,-125,4,1,0,60,0,0

[HitObjects]
276,200,1099,5,8,0:0:0:0:
278,213,1724,1,0,0:0:0:0:
276,200,2349,1,8,0:0:0:0:
282,200,2817,1,0,0:0:0:0:
317,186,3286,1,8,0:0:0:0:
305,185,4224,1,0,0:0:0:0:
334,136,4849,1,8,0:0:0:0:
334,136,5161,1,0,0:0:0:0:
334,136,5317,1,0,0:0:0:0:
334,136,5474,1,8,0:0:0:0:
334,136,5786,1,0,0:0:0:0:
334,136,6099,1,8,0:0:0:0:
334,136,6411,1,8,0:0:0:0:
334,136,6724,1,0,0:0:0:0:
334,136,7036,1,0,0:0:0:0:
334,136,7192,1,0,0:0:0:0:
316,104,7349,1,8,0:0:0:0:
338,128,7974,1,8,0:0:0:0:
338,128,8130,1,0,0:0:0:0:
338,128,8286,1,8,0:0:0:0:
338,128,8599,1,0,0:0:0:0:
349,125,9224,1,8,0:0:0:0:
334,136,9849,1,8,0:0:0:0:
334,136,10161,1,0,0:0:0:0:
334,136,10317,1,8,0:0:0:0:
334,136,10474,1,0,0:0:0:0:
334,136,10786,1,0,0:0:0:0:
334,136,11099,1,8,0:0:0:0:
318,156,11255,1,0,0:0:0:0:
334,136,11411,1,8,0:0:0:0:
334,136,11724,1,0,0:0:0:0:
334,136,12036,1,0,0:0:0:0:
334,136,12349,1,8,0:0:0:0:
334,136,13286,1,0,0:0:0:0:
334,136,13599,1,8,0:0:0:0:
334,136,13755,1,8,0:0:0:0:
334,136,13911,1,0,0:0:0:0:
343,132,14224,1,0,0:0:0:0:
358,109,14536,1,0,0:0:0:0:
343,132,14849,1,8,0:0:0:0:
361,134,15474,1,0,0:0:0:0:
361,134,16099,1,8,0:0:0:0:
338,103,16255,1,0,0:0:0:0:
361,134,16411,1,0,0:0:0:0:
362,135,16724,1,8,0:0:0:0:
361,134,17036,1,0,0:0:0:0:
386,150,17192,1,8,0:0:0:0:
384,81,17661,1,0,0:0:0:0:
393,124,17974,1,0,0:0:0:0:
393,124,18286,1,8,0:0:0:0:
404,120,20161,1,8,0:0:0:0:
404,120,20317,1,0,0:0:0:0:
404,120,20474,1,8,0:0:0:0:
377,96,20786,1,0,0:0:0:0:
404,120,21099,1,12,0:0:0:0:
404,120,21411,1,0,0:0:0:0:
404,120,21567,1,8,0:0:0:0:
389,110,22036,1,0,0:0:0:0:
389,110,22349,1,8,0:0:0:0:
221,42,23286,1,4,0:0:0:0:
252,29,23911,1,0,0:0:0:0:
376,110,24067,1,8,0:0:0:0:
414,74,24536,1,0,0:0:0:0:
390,113,24849,1,8,0:0:0:0:
404,120,25161,1,0,0:0:0:0:
404,120,25317,1,8,0:0:0:0:
404,120,25474,1,0,0:0:0:0:
377,96,25786,1,8,0:0:0:0:
404,120,26099,1,8,0:0:0:0:
404,120,26411,1,0,0:0:0:0:
404,120,26567,1,8,0:0:0:0:
389,110,27036,1,0,0:0:0:0:
389,110,27349,1,12,0:0:0:0:
389,110,28286,1,12,0:0:0:0:
396,108,28599,1,0,0:0:0:0:
396,108,28911,1,0,0:0:0:0:
396,108,29067,1,8,0:0:0:0:
404,120,29536,1,0,0:0:0:0:
404,120,29692,1,0,0:0:0:0:
404,120,29849,1,8,0:0:0:0:
377,96,30161,1,8,0:0:0:0:
404,120,30474,1,8,0:0:0:0:
404,120,30786,1,0,0:0:0:0:
404,120,31099,1,12,0:0:0:0:
393,117,31411,1,0,0:0:0:0:
393,117,31567,1,8,0:0:0:0:
400,115,32036,1,0,0:0:0:0:
377,66,32349,1,12,0:0:0:0:
389,88,32661,1,0,0:0:0:0:
400,115,32974,1,0,0:0:0:0:
400,115,33286,1,12,0:0:0:0:
400,115,33911,1,8,0:0:0:0:
400,115,34067,1,0,0:0:0:0:
411,115,34536,1,8,0:0:0:0:
337,96,34692,1,0,0:0:0:0:
337,96,34849,1,0,0:0:0:0:
411,115,35161,1,0,0:0:0:0:
411,115,35474,1,0,0:0:0:0:
411,115,35786,1,12,0:0:0:0:
427,117,36411,1,0,0:0:0:0:
427,117,36724,5,8,0:0:0:0:
427,117,37349,1,0,0:0:0:0:
427,117,37817,1,8,0:0:0:0:
427,117,37974,1,0,0:0:0:0:
427,117,38286,1,8,0:0:0:0:
427,117,38911,1,8,0:0:0:0:
425,108,39067,1,0,0:0:0:0:
425,108,39849,1,8,0:0:0:0:
425,108,41099,5,8,0:0:0:0:
402,75,41724,1,8,0:0:0:0:
402,75,42036,1,0,0:0:0:0:
402,75,42349,1,8,0:0:0:0:
402,75,43130,1,0,0:0:0:0:
402,75,43286,1,0,0:0:0:0:
402,75,43599,1,8,0:0:0:0:
402,75,44224,1,0,0:0:0:0:
402,75,44536,1,0,0:0:0:0:
402,75,44849,1,8,0:0:0:0:
402,75,45317,1,8,0:0:0:0:
398,67,45630,1,0,0:0:0:0:
398,67,45786,1,0,0:0:0:0:
389,59,46099,1,8,0:0:0:0:
389,59,46724,1,8,0:0:0:0:
389,59,47036,1,0,0:0:0:0:
389,59,47349,1,8,0:0:0:0:
389,59,47817,1,0,0:0:0:0:
389,59,48130,1,0,0:0:0:0:
389,59,48286,1,0,0:0:0:0:
389,59,48599,1,8,0:0:0:0:
