osu file format v14

[General]
AudioFilename: audio.mp3
AudioLeadIn: 0
PreviewTime: -1
Countdown: 1
SampleSet: Normal
StackLeniency: 0.7
Mode: 0
LetterboxInBreaks: 0
WidescreenStoryboard: 0

[Editor]
DistanceSpacing: 0.6
BeatDivisor: 4
GridSize: 8
TimelineZoom: 1

[Metadata]
Title:notification
TitleUnicode:notification
Artist:bill wurtz
ArtistUnicode:bill wurtz
Creator:X4D
Version:vacation
Source:
Tags:bill wurtz riffs notification history of the entire world i guess history of japan
BeatmapID:1579570
BeatmapSetID:750000

[Difficulty]
HPDrainRate:7
CircleSize:4.2
OverallDifficulty:7.8
ApproachRate:9.3
SliderMultiplier:1.4
SliderTickRate:1

[Events]
//Background and Video events
Video,0,"Unled.avi"
//Break Periods
//Storyboard Layer 0 (Background)
//Storyboard Layer 1 (Fail)
//Storyboard Layer 2 (Pass)
//Storyboard Layer 3 (Foreground)
//Storyboard Sound Samples

[TimingPoints]
1232,379.746835443038,4,1,0,100,1,0

[HitObjects]
152,96,852,5,0,0:0:0:0:
152,96,1232,6,0,B|184:80|208:96|208:96|240:88|240:88|264:104|296:96,1,140
368,144,1801,2,0,P|384:200|376:240,1,70
342,341,2181,2,0,P|326:285|334:245,1,70
449,260,2561,6,0,P|409:292|321:268,1,140
304,152,3130,1,0,0:0:0:0:
384,208,3320,1,0,0:0:0:0:
144,176,3510,1,0,0:0:0:0:
232,96,3700,1,0,0:0:0:0:
160,312,3890,1,0,0:0:0:0:
136,168,4080,1,0,0:0:0:0:
336,232,4269,6,0,P|280:248|248:240,1,70
392,120,4649,1,0,0:0:0:0:
432,272,4839,2,0,L|424:360,1,70
336,296,5219,2,0,L|328:208,1,70
248,176,5599,6,0,B|224:168|192:184|192:184|160:176|160:176|128:192|104:184,1,140
48,264,6168,5,0,0:0:0:0:
112,80,6358,1,0,0:0:0:0:
184,304,6548,5,0,0:0:0:0:
128,136,6738,1,0,0:0:0:0:
360,184,6928,5,0,0:0:0:0:
200,168,7118,1,0,0:0:0:0:
304,320,7307,6,0,P|312:272|304:240,1,70
200,168,7687,1,0,0:0:0:0:
304,96,7877,2,0,P|360:88|392:96,1,70
424,168,8257,2,0,P|368:176|336:168,1,70
232,64,8637,6,0,P|208:136|232:208,1,140
296,248,9206,1,0,0:0:0:0:
384,264,9396,1,0,0:0:0:0:
448,160,9586,2,0,L|440:64,1,70
352,48,9966,2,0,L|344:144,1,70
272,192,10345,5,0,0:0:0:0:
224,80,10535,1,0,0:0:0:0:
184,240,10725,5,0,0:0:0:0:
232,64,10915,1,0,0:0:0:0:
288,224,11105,1,0,0:0:0:0:
152,120,11295,1,0,0:0:0:0:
328,104,11485,1,0,0:0:0:0:
160,248,11675,6,0,P|112:248|80:224,1,70
56,160,12054,1,0,0:0:0:0:
176,96,12244,2,0,P|224:88|256:96,1,70
336,144,12624,1,0,0:0:0:0:
272,336,12814,1,0,0:0:0:0:
248,176,13004,1,0,0:0:0:0:
384,264,13194,1,0,0:0:0:0:
216,280,13383,6,0,B|184:272|176:288|144:280,1,70
120,272,13668,1,0,0:0:0:0:
120,272,13763,6,0,B|104:248|120:216|120:216|112:184|112:184|120:152|112:128,1,140
160,64,14333,2,0,P|216:56|248:72,1,70
408,128,14713,6,0,P|344:152|272:104,1,140
350,71,15282,1,0,0:0:0:0:
431,237,15472,1,0,0:0:0:0:
246,224,15662,1,0,0:0:0:0:
457,122,15852,1,0,0:0:0:0:
335,303,16042,1,0,0:0:0:0:
239,107,16232,1,0,0:0:0:0:
344,80,16421,6,0,P|352:136|344:168,1,70
336,168,16706,2,0,P|288:208|248:208,1,105
160,152,17181,1,0,0:0:0:0:
112,248,17371,1,0,0:0:0:0:
160,336,17561,2,0,P|216:344|248:336,1,70
312,288,17940,5,0,0:0:0:0:
312,288,18130,1,0,0:0:0:0:
344,88,18320,6,0,P|328:152|296:184,1,105
272,192,18700,6,0,L|280:288,1,70
224,328,19080,2,0,P|184:352|112:336,1,105
112,336,19459,5,0,0:0:0:0:
96,192,19649,1,0,0:0:0:0:
96,192,19839,2,0,P|136:176|168:184,1,70
216,256,20219,1,0,0:0:0:0:
216,256,20409,2,0,P|256:272|288:264,1,70
352,80,20788,6,0,P|328:144|360:216,1,140
448,232,21358,1,0,0:0:0:0:
296,304,21548,2,0,P|256:320|208:312,1,70
152,256,21928,1,0,0:0:0:0:
152,256,22023,1,0,0:0:0:0:
152,256,22118,6,0,P|136:192|144:168,1,70
184,112,22402,1,0,0:0:0:0:
184,112,22497,2,0,L|272:112,1,70
376,160,22877,1,0,0:0:0:0:
248,280,23067,1,0,0:0:0:0:
312,80,23257,1,0,0:0:0:0:
336,328,23447,1,0,0:0:0:0:
208,192,23637,1,0,0:0:0:0:
432,240,23826,1,0,0:0:0:0:
