osu file format v14

[General]
AudioFilename: audio.mp3
AudioLeadIn: 0
PreviewTime: 9129
Countdown: 0
SampleSet: Soft
StackLeniency: 0.6
Mode: 0
LetterboxInBreaks: 1
WidescreenStoryboard: 1

[Editor]
Bookmarks: 17153,31153
DistanceSpacing: 0.9
BeatDivisor: 4
GridSize: 4
TimelineZoom: 1

[Metadata]
Title:no castle
TitleUnicode:no castle
Artist:bill wurtz
ArtistUnicode:bill wurtz
Creator:Endogemy
Version:Normal
Source:
Tags:bill wurtz short memes
BeatmapID:1420898
BeatmapSetID:672133

[Difficulty]
HPDrainRate:5
CircleSize:4.5
OverallDifficulty:5
ApproachRate:7
SliderMultiplier:1.3
SliderTickRate:1

[Events]
//Background and Video events
0,0,"maxresdefault.jpg",0,0
//Break Periods
//Storyboard Layer 0 (Background)
//Storyboard Layer 1 (Fail)
//Storyboard Layer 2 (Pass)
//Storyboard Layer 3 (Foreground)
//Storyboard Sound Samples

[TimingPoints]
1129,500,4,2,0,70,1,0
31180,476.190476190476,4,2,0,70,1,0
31180,-50,4,2,0,70,0,0
31656,582.52427184466,4,2,0,70,1,0
31656,-50,4,2,0,70,0,0
32238,-100,4,2,0,70,0,0

[Colours]
Combo1 : 255,255,255
Combo2 : 255,0,0

[HitObjects]
112,88,1129,6,0,L|112:132,2,32.5,2|0|0,0:0|0:0|0:0,0:0:0:0:
152,124,1629,2,0,L|152:164,2,32.5,2|0|0,0:0|0:0|0:0,0:0:0:0:
196,156,2129,2,0,L|196:192,2,32.5,2|0|0,0:0|0:0|0:0,0:0:0:0:
240,188,2629,1,2,0:0:0:0:
324,188,2879,1,0,0:0:0:0:
364,112,3129,6,0,L|416:112,2,32.5,2|0|0,0:0|0:0|0:0,0:0:0:0:
368,84,3629,2,0,L|324:84,2,32.5,2|0|0,0:0|0:0|0:0,0:0:0:0:
360,48,4129,2,0,L|404:48,2,32.5,2|0|0,0:0|0:0|0:0,0:0:0:0:
320,148,4629,1,2,0:0:0:0:
268,52,4879,1,0,0:0:0:0:
208,112,5129,5,2,0:0:0:0:
212,244,5629,1,2,0:0:0:0:
332,124,6129,1,2,0:0:0:0:
196,120,6629,1,2,0:0:0:0:
132,176,6879,1,0,0:0:0:0:
192,236,7129,5,2,0:0:0:0:
252,176,7379,1,0,0:0:0:0:
308,112,7629,2,0,P|336:136|352:184,1,65,2|0,0:0|0:0,0:0:0:0:
408,220,8129,2,0,P|392:276|380:288,1,65,2|0,0:0|0:0,0:0:0:0:
308,256,8629,2,0,P|284:292|252:304,1,65,2|0,0:0|0:0,0:0:0:0:
184,272,9129,6,0,P|156:248|140:180,1,97.5,8|0,0:0|0:0,0:0:0:0:
168,112,9629,2,0,P|204:128|232:188,1,97.5
248,256,10129,2,0,L|320:244,2,65,0|0|8,0:0|0:0|0:0,0:0:0:0:
280,112,11129,2,0,P|312:156|356:168,1,97.5,8|0,0:0|0:0,0:0:0:0:
408,116,11629,2,0,P|376:72|324:48,1,97.5
264,64,12129,2,0,L|200:96,2,65,0|0|8,0:0|0:0|0:0,0:0:0:0:
184,272,13129,6,0,P|156:248|140:180,1,97.5,8|0,0:0|0:0,0:0:0:0:
176,132,13629,2,0,P|212:148|240:208,1,97.5
264,260,14129,2,0,L|336:248,2,65,0|0|8,0:0|0:0|0:0,0:0:0:0:
300,112,15129,2,0,P|332:156|376:168,1,97.5,8|0,0:0|0:0,0:0:0:0:
408,116,15629,2,0,P|376:72|324:48,1,97.5
264,56,16129,2,0,L|200:88,2,65,0|0|8,0:0|0:0|0:0,0:0:0:0:
184,108,17129,5,8,0:0:0:0:
132,176,17379,1,0,0:0:0:0:
108,96,17629,1,8,0:0:0:0:
172,148,17879,1,0,0:0:0:0:
244,96,18129,1,8,0:0:0:0:
292,216,18629,1,8,0:0:0:0:
368,280,19129,5,8,0:0:0:0:
431,222,19379,1,0,0:0:0:0:
440,305,19629,1,8,0:0:0:0:
386,242,19879,1,0,0:0:0:0:
300,280,20129,1,8,0:0:0:0:
208,168,20629,1,8,0:0:0:0:
133,249,21129,5,8,0:0:0:0:
181,319,21379,1,0,0:0:0:0:
98,317,21629,1,8,0:0:0:0:
167,272,21879,1,0,0:0:0:0:
252,224,22129,1,8,0:0:0:0:
380,200,22629,1,8,0:0:0:0:
353,127,23129,5,8,0:0:0:0:
318,49,23379,1,0,0:0:0:0:
399,66,23629,1,8,0:0:0:0:
323,98,23879,1,0,0:0:0:0:
272,184,24129,1,8,0:0:0:0:
192,104,24629,1,8,0:0:0:0:
116,60,25129,5,8,0:0:0:0:
88,112,25379,1,0,0:0:0:0:
84,172,25629,1,8,0:0:0:0:
112,224,25879,1,0,0:0:0:0:
168,244,26129,1,8,0:0:0:0:
228,240,26379,1,0,0:0:0:0:
276,208,26629,1,8,0:0:0:0:
304,156,26879,1,2,0:0:0:0:
216,80,27129,5,8,0:0:0:0:
188,132,27379,1,0,0:0:0:0:
160,184,27629,1,8,0:0:0:0:
132,236,27879,1,0,0:0:0:0:
180,268,28129,1,8,0:0:0:0:
208,216,28379,1,0,0:0:0:0:
240,168,28629,1,8,0:0:0:0:
276,124,28879,1,2,0:0:0:0:
416,68,29129,5,8,0:0:0:0:
400,124,29379,1,0,0:0:0:0:
348,152,29629,1,8,0:0:0:0:
292,172,29879,1,0,0:0:0:0:
296,232,30129,1,8,0:0:0:0:
296,292,30379,1,0,0:0:0:0:
248,324,30629,1,8,0:0:0:0:
120,224,31180,6,0,P|176:276|224:172,1,195,4|0,0:0|0:0,0:0:0:0:
312,160,31656,2,0,P|260:112|180:192,1,195,4|0,0:0|0:0,0:0:0:0:
164,240,32238,2,0,B|164:344|164:344|200:312,1,130,4|4,0:0|0:0,0:0:0:0:
