osu file format v14

[General]
AudioFilename: audio.mp3
AudioLeadIn: 0
PreviewTime: 9129
Countdown: 0
SampleSet: Soft
StackLeniency: 0.6
Mode: 0
LetterboxInBreaks: 1
WidescreenStoryboard: 1

[Editor]
Bookmarks: 17129,31180
DistanceSpacing: 0.8
BeatDivisor: 4
GridSize: 4
TimelineZoom: 1

[Metadata]
Title:no castle
TitleUnicode:no castle
Artist:bill wurtz
ArtistUnicode:bill wurtz
Creator:Endogemy
Version:Insane
Source:
Tags:bill wurtz short memes
BeatmapID:1420897
BeatmapSetID:672133

[Difficulty]
HPDrainRate:5
CircleSize:4
OverallDifficulty:7
ApproachRate:9
SliderMultiplier:2.8
SliderTickRate:1

[Events]
//Background and Video events
0,0,"maxresdefault.jpg",0,0
//Break Periods
//Storyboard Layer 0 (Background)
//Storyboard Layer 1 (Fail)
//Storyboard Layer 2 (Pass)
//Storyboard Layer 3 (Foreground)
//Storyboard Sound Samples

[TimingPoints]
1129,500,4,2,0,70,1,0
31180,476.190476190476,4,2,0,70,1,0
31180,-50,4,2,0,70,0,0
31656,582.52427184466,4,2,0,70,1,0
31656,-50,4,2,0,70,0,0
32238,-100,4,2,0,70,0,0

[Colours]
Combo1 : 255,255,255
Combo2 : 255,0,0

[HitObjects]
120,136,1129,6,0,P|144:224|192:244,1,140
240,220,1629,2,0,P|216:136|164:96,1,140
120,136,2129,2,0,P|144:224|192:244,1,140
288,288,2629,1,0,0:0:0:0:
396,108,3129,6,0,L|328:64,1,70
360,184,3379,2,0,L|288:136,1,70
316,256,3629,2,0,L|252:208,1,70
208,280,4129,1,0,0:0:0:0:
136,212,4379,1,0,0:0:0:0:
240,168,4629,1,0,0:0:0:0:
392,136,5129,6,0,P|368:224|320:244,1,140
272,220,5629,2,0,P|296:136|348:96,1,140
392,136,6129,2,0,P|368:224|320:244,1,140
224,288,6629,1,0,0:0:0:0:
116,108,7129,6,0,L|184:64,1,70
152,184,7379,2,0,L|224:136,1,70
196,256,7629,2,0,L|260:208,1,70
304,280,8129,1,0,0:0:0:0:
376,212,8379,1,0,0:0:0:0:
272,168,8629,1,0,0:0:0:0:
376,76,9129,6,0,P|400:168|328:260,1,210
288,180,9629,2,0,L|236:256,1,70
172,204,9879,2,0,L|220:136,1,70
132,84,10129,1,0,0:0:0:0:
64,280,10379,1,0,0:0:0:0:
208,172,10629,1,0,0:0:0:0:
308,64,11129,6,0,P|344:140|472:160,1,210
416,252,11629,1,0,0:0:0:0:
268,232,11879,1,0,0:0:0:0:
264,88,12129,2,0,L|144:112,1,70
136,172,12379,1,0,0:0:0:0:
136,172,12629,1,0,0:0:0:0:
240,268,13129,6,0,P|304:304|360:196,1,210
364,132,13629,1,0,0:0:0:0:
268,76,13879,1,0,0:0:0:0:
152,88,14129,2,0,P|140:168|92:208,2,140
144,284,15129,6,0,L|296:320,1,140
340,244,15629,2,0,L|344:96,1,140
260,56,16129,2,0,L|116:52,1,140
184,316,16629,1,0,0:0:0:0:
320,284,17129,6,0,P|344:188|284:68,1,210
240,140,17629,2,0,P|256:220|224:276,1,140
96,164,18129,2,0,B|100:280|100:280|100:232,1,140
96,164,18629,1,0,0:0:0:0:
192,284,19129,6,0,P|168:188|228:68,1,210
272,140,19629,2,0,P|256:220|288:276,1,140
416,164,20129,2,0,B|412:280|412:280|412:232,1,140
416,164,20629,1,0,0:0:0:0:
312,80,21129,6,0,P|224:72|140:96,1,140
176,288,21629,2,0,P|296:312|332:296,1,140
252,144,22129,2,0,B|224:212|224:212|304:212,2,140
392,116,23129,6,0,P|400:200|280:240,1,210
320,116,23629,2,0,P|272:184|224:176,1,140
188,72,24129,1,0,0:0:0:0:
96,168,24379,1,0,0:0:0:0:
220,272,24629,1,0,0:0:0:0:
144,144,25129,5,0,0:0:0:0:
116,192,25254,1,0,0:0:0:0:
116,248,25379,1,0,0:0:0:0:
156,288,25504,1,0,0:0:0:0:
208,308,25629,1,0,0:0:0:0:
264,300,25754,1,0,0:0:0:0:
312,272,25879,1,0,0:0:0:0:
344,228,26004,1,0,0:0:0:0:
380,184,26129,1,0,0:0:0:0:
388,128,26254,1,0,0:0:0:0:
348,88,26379,1,0,0:0:0:0:
304,52,26504,1,0,0:0:0:0:
248,60,26629,1,0,0:0:0:0:
168,268,27129,5,0,0:0:0:0:
220,288,27254,1,0,0:0:0:0:
276,296,27379,1,0,0:0:0:0:
328,272,27504,1,0,0:0:0:0:
316,216,27629,1,0,0:0:0:0:
288,168,27754,1,0,0:0:0:0:
248,128,27879,1,0,0:0:0:0:
192,124,28004,1,0,0:0:0:0:
156,168,28129,1,0,0:0:0:0:
120,212,28254,1,0,0:0:0:0:
148,260,28379,1,0,0:0:0:0:
188,300,28504,1,0,0:0:0:0:
240,320,28629,1,0,0:0:0:0:
388,152,29129,5,0,0:0:0:0:
348,112,29254,1,0,0:0:0:0:
296,128,29379,1,0,0:0:0:0:
272,180,29504,1,0,0:0:0:0:
292,232,29629,1,0,0:0:0:0:
340,260,29754,1,0,0:0:0:0:
392,244,29879,1,0,0:0:0:0:
404,188,30004,1,0,0:0:0:0:
388,152,30129,1,0,0:0:0:0:
344,116,30254,1,0,0:0:0:0:
292,100,30379,1,0,0:0:0:0:
248,68,30504,1,0,0:0:0:0:
192,52,30629,1,0,0:0:0:0:
204,128,31180,6,0,P|156:316|164:340,1,140
288,304,31418,2,0,P|324:136|324:132,1,140
276,92,31656,1,0,0:0:0:0:
164,96,31801,1,0,0:0:0:0:
128,204,31947,1,0,0:0:0:0:
212,280,32092,1,0,0:0:0:0:
256,192,32238,1,4,0:0:0:0:
336,192,32821,2,0,P|300:116|304:272,1,560,4|0,0:0|0:0,0:0:0:0:
