osu file format v14

[General]
AudioFilename: audio.mp3
AudioLeadIn: 0
PreviewTime: 9129
Countdown: 0
SampleSet: Soft
StackLeniency: 0.6
Mode: 0
LetterboxInBreaks: 1
WidescreenStoryboard: 1

[Editor]
Bookmarks: 17129,31180
DistanceSpacing: 1.5
BeatDivisor: 4
GridSize: 4
TimelineZoom: 1

[Metadata]
Title:no castle
TitleUnicode:no castle
Artist:bill wurtz
ArtistUnicode:bill wurtz
Creator:Endogemy
Version:Hard
Source:
Tags:bill wurtz short memes
BeatmapID:1420896
BeatmapSetID:672133

[Difficulty]
HPDrainRate:7
CircleSize:4.6
OverallDifficulty:6
ApproachRate:7
SliderMultiplier:1.7
SliderTickRate:1

[Events]
//Background and Video events
0,0,"maxresdefault.jpg",0,0
//Break Periods
//Storyboard Layer 0 (Background)
//Storyboard Layer 1 (Fail)
//Storyboard Layer 2 (Pass)
//Storyboard Layer 3 (Foreground)
//Storyboard Sound Samples

[TimingPoints]
1129,500,4,2,0,70,1,0
31180,476.190476190476,4,2,0,70,1,0
31180,-50,4,2,0,70,0,0
31656,582.52427184466,4,2,0,70,1,0
31656,-50,4,2,0,70,0,0
32238,-100,4,2,0,70,0,0

[Colours]
Combo1 : 255,255,255
Combo2 : 255,0,0

[HitObjects]
68,84,1129,6,0,P|88:140|156:168,1,127.5
164,96,1629,2,0,P|220:104|256:172,1,127.5
272,212,2129,1,0,0:0:0:0:
376,180,2379,1,0,0:0:0:0:
304,96,2629,1,0,0:0:0:0:
276,204,2879,1,0,0:0:0:0:
336,268,3129,6,0,P|300:300|220:288,1,127.5
184,240,3629,2,0,P|156:288|68:292,1,127.5
80,248,4129,2,0,L|64:144,1,85
120,68,4629,2,0,L|140:156,1,85
240,112,5129,5,0,0:0:0:0:
348,80,5379,1,0,0:0:0:0:
428,156,5629,1,0,0:0:0:0:
320,180,5879,1,0,0:0:0:0:
220,228,6129,1,0,0:0:0:0:
240,44,6379,1,8,0:0:0:0:
136,152,6629,2,0,P|116:216|132:236,1,85
208,300,7129,6,0,L|300:304,1,85
416,216,7629,2,0,L|324:216,1,85
204,112,8129,2,0,L|308:116,1,85
256,40,8629,1,0,0:0:0:0:
156,88,9129,6,0,P|112:112|88:196,1,127.5
85,181,9629,2,0,P|92:248|188:304,1,170
172,192,10379,1,0,0:0:0:0:
172,304,10629,1,0,0:0:0:0:
352,92,11129,6,0,P|396:116|420:200,1,127.5
423,185,11629,2,0,P|416:251|320:307,1,170
336,196,12379,1,0,0:0:0:0:
336,308,12629,1,0,0:0:0:0:
373,112,13129,6,0,P|356:65|277:28,1,127.5
291,29,13629,2,0,P|225:24|155:110,1,170
268,112,14379,1,0,0:0:0:0:
157,94,14629,1,0,0:0:0:0:
338,305,15129,6,0,P|308:345|221:356,1,127.5
235,361,15629,2,0,P|171:345|131:241,1,170
238,273,16379,1,0,0:0:0:0:
128,256,16629,1,0,0:0:0:0:
144,120,17129,5,0,0:0:0:0:
176,108,17254,1,0,0:0:0:0:
208,104,17379,1,0,0:0:0:0:
240,116,17504,1,0,0:0:0:0:
264,140,17629,2,0,P|304:168|360:160,1,85
372,108,18129,2,0,P|328:92|284:88,1,85
304,188,18629,1,0,0:0:0:0:
232,276,19129,6,0,P|192:292|144:224,1,127.5
108,160,19629,2,0,P|164:160|208:220,1,127.5
276,216,20129,2,0,L|344:152,2,85
376,88,21129,6,0,L|384:228,1,127.5
316,200,21629,2,0,L|312:116,1,85
236,72,22129,1,0,0:0:0:0:
136,68,22379,1,0,0:0:0:0:
160,164,22629,1,0,0:0:0:0:
176,292,23129,6,0,P|224:312|268:248,1,127.5
208,224,23629,2,0,P|240:180|312:216,1,127.5
380,232,24129,1,0,0:0:0:0:
392,80,24379,1,0,0:0:0:0:
264,40,24629,1,0,0:0:0:0:
248,316,25129,5,0,0:0:0:0:
192,276,25379,1,0,0:0:0:0:
168,212,25629,1,0,0:0:0:0:
204,156,25879,1,0,0:0:0:0:
264,124,26129,1,0,0:0:0:0:
332,140,26379,1,0,0:0:0:0:
368,200,26629,1,0,0:0:0:0:
368,268,26879,1,0,0:0:0:0:
288,336,27129,6,0,P|240:312|232:264,1,85
228,144,27629,2,0,P|280:184|288:216,1,85
144,264,28129,1,0,0:0:0:0:
88,148,28379,1,0,0:0:0:0:
120,32,28629,1,0,0:0:0:0:
304,216,29129,6,0,P|284:172|248:148,1,85
200,56,29629,2,0,P|140:76|124:116,1,85
92,224,30129,2,0,P|96:284|124:304,2,85
204,248,31180,6,0,L|292:328,1,85
248,168,31418,2,0,L|188:104,1,85
328,140,31656,2,0,L|392:204,1,85
460,236,31947,2,0,P|468:332|460:340,1,85
376,308,32238,2,0,B|312:312|276:240|276:240,1,127.5
240,168,32821,2,0,B|208:108|164:80|136:68|104:80|56:100|40:140|44:212|84:276|184:284|196:292|192:324|160:344|72:344|32:324,1,510
