osu file format v14

[General]
AudioFilename: audio.mp3
AudioLeadIn: 0
PreviewTime: 12868
Countdown: 0
SampleSet: Normal
StackLeniency: 1
Mode: 1
LetterboxInBreaks: 0
WidescreenStoryboard: 1

[Editor]
DistanceSpacing: 6
BeatDivisor: 16
GridSize: 16
TimelineZoom: 1.199999

[Metadata]
Title:no brains
TitleUnicode:no brains
Artist:bill wurtz
ArtistUnicode:bill wurtz
Creator:mikku1
Version:no brains on my lane
Source:
Tags:dumb short song billwurtz brain
BeatmapID:0
BeatmapSetID:805069

[Difficulty]
HPDrainRate:6.2
CircleSize:2
OverallDifficulty:4
ApproachRate:0
SliderMultiplier:2.09999990463257
SliderTickRate:1

[Events]
//Background and Video events
0,0,"waaat.jpg",0,0
//Break Periods
//Storyboard Layer 0 (Background)
//Storyboard Layer 1 (Fail)
//Storyboard Layer 2 (Pass)
//Storyboard Layer 3 (Foreground)
//Storyboard Sound Samples

[TimingPoints]
1368,500,4,1,0,75,1,0
20930,-100,4,1,0,13,0,0
21305,-100,4,1,0,75,0,0
21399,-100,4,1,0,13,0,0
21461,-100,4,1,0,75,0,0
21524,-100,4,1,0,13,0,0
21586,-100,4,1,0,75,0,0
21774,-100,4,1,0,13,0,0
21836,-100,4,1,0,75,0,0
21899,-100,4,1,0,13,0,0
21961,-100,4,1,0,75,0,0
22024,-100,4,1,0,13,0,0
22243,-100,4,1,0,75,0,0

[Colours]
Combo1 : 255,0,0
Combo2 : 255,128,128
Combo3 : 255,255,128
Combo4 : 0,255,255

[HitObjects]
256,192,368,5,8,0:0:0:0:
256,192,868,1,8,0:0:0:0:
256,192,1118,1,0,0:0:0:0:
256,192,1201,1,0,0:0:0:0:
256,192,1284,1,0,0:0:0:0:
256,192,1368,1,12,0:0:0:0:
256,192,1493,1,8,0:0:0:0:
256,192,1618,1,0,0:0:0:0:
256,192,1743,1,8,0:0:0:0:
256,192,1993,1,0,0:0:0:0:
256,192,2118,1,8,0:0:0:0:
256,192,2368,1,12,0:0:0:0:
256,192,2618,1,0,0:0:0:0:
256,192,2743,1,0,0:0:0:0:
256,192,2868,1,8,0:0:0:0:
256,192,2993,1,0,0:0:0:0:
256,192,3118,1,8,0:0:0:0:
256,192,3243,1,0,0:0:0:0:
256,192,3368,1,8,0:0:0:0:
256,192,3493,1,8,0:0:0:0:
256,192,3618,1,8,0:0:0:0:
256,192,3743,1,8,0:0:0:0:
256,192,3868,1,0,0:0:0:0:
256,192,3993,1,8,0:0:0:0:
256,192,4118,1,8,0:0:0:0:
256,192,4368,1,8,0:0:0:0:
256,192,4493,1,0,0:0:0:0:
256,192,4618,1,0,0:0:0:0:
256,192,4743,1,8,0:0:0:0:
256,192,4993,1,0,0:0:0:0:
256,192,5118,1,8,0:0:0:0:
256,192,5243,1,0,0:0:0:0:
256,192,5368,1,8,0:0:0:0:
256,192,5493,1,8,0:0:0:0:
256,192,5618,1,0,0:0:0:0:
256,192,5743,1,8,0:0:0:0:
256,192,5868,1,0,0:0:0:0:
240,192,5993,1,8,0:0:0:0:
240,192,6118,1,0,0:0:0:0:
240,192,6243,1,0,0:0:0:0:
256,192,6368,1,8,0:0:0:0:
256,192,6618,1,0,0:0:0:0:
256,192,6743,1,0,0:0:0:0:
256,192,6868,1,8,0:0:0:0:
256,192,7118,1,0,0:0:0:0:
256,192,7368,1,12,0:0:0:0:
256,192,7493,1,0,0:0:0:0:
256,192,7618,1,0,0:0:0:0:
256,192,7743,1,12,0:0:0:0:
256,192,7868,1,0,0:0:0:0:
256,192,8118,12,0,9243,0:0:0:0:
256,192,9368,5,8,0:0:0:0:
256,192,9493,1,8,0:0:0:0:
256,192,9618,1,0,0:0:0:0:
256,192,9743,1,8,0:0:0:0:
256,192,9993,1,8,0:0:0:0:
256,192,10118,1,0,0:0:0:0:
256,192,10368,1,8,0:0:0:0:
256,192,10493,1,0,0:0:0:0:
256,192,10618,1,0,0:0:0:0:
256,192,10743,1,0,0:0:0:0:
256,192,10868,1,8,0:0:0:0:
256,192,11118,1,8,0:0:0:0:
256,192,11243,1,8,0:0:0:0:
256,192,11368,1,0,0:0:0:0:
256,192,11493,1,8,0:0:0:0:
256,192,11743,1,8,0:0:0:0:
256,192,11868,1,8,0:0:0:0:
256,192,11993,1,0,0:0:0:0:
256,192,12118,1,0,0:0:0:0:
256,192,12868,1,0,0:0:0:0:
256,192,12993,1,8,0:0:0:0:
256,192,13118,1,0,0:0:0:0:
256,192,13368,1,8,0:0:0:0:
256,192,13493,1,0,0:0:0:0:
256,192,13743,1,0,0:0:0:0:
256,192,13868,1,8,0:0:0:0:
256,192,13993,1,0,0:0:0:0:
256,192,14118,1,8,0:0:0:0:
256,192,14368,1,8,0:0:0:0:
256,192,14493,1,8,0:0:0:0:
256,208,14618,1,0,0:0:0:0:
256,208,14743,1,8,0:0:0:0:
256,192,14868,1,0,0:0:0:0:
256,192,14993,1,8,0:0:0:0:
256,208,15118,1,0,0:0:0:0:
256,192,15243,1,0,0:0:0:0:
256,192,15368,1,8,0:0:0:0:
256,192,15493,1,8,0:0:0:0:
256,192,15618,1,0,0:0:0:0:
256,192,15743,1,8,0:0:0:0:
256,192,15868,1,0,0:0:0:0:
256,192,15993,1,8,0:0:0:0:
256,192,16118,1,0,0:0:0:0:
256,192,16243,1,0,0:0:0:0:
256,192,16368,1,8,0:0:0:0:
256,192,16618,1,0,0:0:0:0:
256,192,16743,1,8,0:0:0:0:
256,192,16993,1,0,0:0:0:0:
256,192,17118,1,0,0:0:0:0:
256,192,17368,1,12,0:0:0:0:
256,192,17493,1,0,0:0:0:0:
256,192,17618,1,0,0:0:0:0:
256,192,17743,1,8,0:0:0:0:
256,192,17868,1,8,0:0:0:0:
256,192,17993,1,0,0:0:0:0:
256,192,18118,1,8,0:0:0:0:
256,192,18368,1,8,0:0:0:0:
256,192,18493,1,0,0:0:0:0:
256,192,18618,1,0,0:0:0:0:
256,192,18743,1,8,0:0:0:0:
256,192,18993,1,0,0:0:0:0:
256,192,19118,1,8,0:0:0:0:
256,192,19243,1,8,0:0:0:0:
256,192,19368,1,0,0:0:0:0:
256,192,19493,1,8,0:0:0:0:
256,192,19618,1,0,0:0:0:0:
256,192,19743,1,8,0:0:0:0:
256,192,19868,1,0,0:0:0:0:
272,192,20118,1,8,0:0:0:0:
272,192,20493,1,0,0:0:0:0:
256,192,20868,1,0,0:0:0:0:
256,192,21368,1,12,0:0:0:0:
256,192,21618,1,0,0:0:0:0:
256,192,21743,1,8,0:0:0:0:
256,192,21868,1,0,0:0:0:0:
256,192,21993,1,8,0:0:0:0:
256,192,22368,1,8,0:0:0:0:
256,192,22618,1,0,0:0:0:0:
256,192,22868,1,0,0:0:0:0:
256,192,22993,1,8,0:0:0:0:
256,192,23118,1,0,0:0:0:0:
256,192,23368,1,8,0:0:0:0:
256,192,23618,1,0,0:0:0:0:
256,192,23743,1,0,0:0:0:0:
256,192,23868,1,0,0:0:0:0:
256,192,24118,1,8,0:0:0:0:
256,192,24618,1,8,0:0:0:0:
256,192,25118,1,8,0:0:0:0:
256,192,25618,1,8,0:0:0:0:
256,192,25868,1,0,0:0:0:0:
256,192,26118,1,0,0:0:0:0:
256,192,26368,12,0,28118,0:0:0:0:
256,192,28368,5,0,0:0:0:0:
256,192,28618,1,8,0:0:0:0:
256,192,28743,1,8,0:0:0:0:
256,192,28868,1,0,0:0:0:0:
256,192,28993,1,0,0:0:0:0:
256,192,29118,1,0,0:0:0:0:
256,192,29368,1,12,0:0:0:0:
256,192,29618,1,0,0:0:0:0:
256,192,29743,1,8,0:0:0:0:
256,192,29868,1,0,0:0:0:0:
256,192,29993,1,0,0:0:0:0:
256,192,30118,1,8,0:0:0:0:
256,192,30243,1,0,0:0:0:0:
256,192,30368,1,0,0:0:0:0:
256,192,30618,1,8,0:0:0:0:
256,192,30743,1,8,0:0:0:0:
256,192,30868,1,0,0:0:0:0:
256,192,30993,1,8,0:0:0:0:
256,192,31118,1,0,0:0:0:0:
256,192,31368,1,8,0:0:0:0:
256,192,31618,1,0,0:0:0:0:
256,192,31743,1,8,0:0:0:0:
256,192,31868,1,8,0:0:0:0:
256,192,31993,1,0,0:0:0:0:
256,192,32118,1,0,0:0:0:0:
256,192,32368,1,8,0:0:0:0:
256,192,32493,1,0,0:0:0:0:
256,192,32743,1,8,0:0:0:0:
256,192,32868,1,0,0:0:0:0:
256,192,32993,1,0,0:0:0:0:
256,192,33118,1,8,0:0:0:0:
256,192,33368,1,8,0:0:0:0:
256,192,33618,1,8,0:0:0:0:
256,192,33743,1,8,0:0:0:0:
256,192,33993,1,8,0:0:0:0:
256,192,34118,1,0,0:0:0:0:
256,192,34368,1,0,0:0:0:0:
256,192,34493,1,8,0:0:0:0:
256,192,34618,1,8,0:0:0:0:
256,192,34743,1,0,0:0:0:0:
256,192,34868,1,0,0:0:0:0:
256,192,34993,1,0,0:0:0:0:
256,192,35118,1,8,0:0:0:0:
256,192,35368,1,8,0:0:0:0:
256,192,35743,1,0,0:0:0:0:
