osu file format v14

[General]
AudioFilename: hotewig.mp3
AudioLeadIn: 0
PreviewTime: 160073
Countdown: 0
SampleSet: Soft
StackLeniency: 0
Mode: 0
LetterboxInBreaks: 0
WidescreenStoryboard: 1

[Editor]
Bookmarks: 12440,13569,14884,77663,98641,103527,136282,186508,197106,207761,244905,254050,258736,259350,263553,584555
DistanceSpacing: 1.7
BeatDivisor: 8
GridSize: 4
TimelineZoom: 8

[Metadata]
Title:history of the entire world, i guess
TitleUnicode:history of the entire world, i guess
Artist:bill wurtz
ArtistUnicode:bill wurtz
Creator:doggu
Version:rocks
Source:
Tags:everything
BeatmapID:1290947
BeatmapSetID:611560

[Difficulty]
HPDrainRate:2
CircleSize:4.2
OverallDifficulty:8.6
ApproachRate:9.6
SliderMultiplier:2
SliderTickRate:1

[Events]
//Background and Video events
0,0,"world.png",0,0
//Break Periods
2,25233,35550
2,45895,47971
2,49174,50164
2,110458,112344
2,138673,141520
2,153232,159821
2,189371,196597
2,209553,219078
2,230468,241013
2,262110,1160631
//Storyboard Layer 0 (Background)
//Storyboard Layer 1 (Fail)
//Storyboard Layer 2 (Pass)
//Storyboard Layer 3 (Foreground)
//Storyboard Sound Samples

[TimingPoints]
95,333.333333333333,4,2,0,25,1,0
761,333.333333333333,4,2,0,25,1,0
904,333.333333333333,4,2,0,30,1,0
1053,333.333333333333,4,2,0,30,1,0
1288,333.333333333333,4,2,0,30,1,0
1533,333.333333333333,4,2,0,30,1,0
1615,333.333333333333,4,2,0,30,1,0
1682,590.059405940594,4,2,0,30,1,0
1977,333.333333333333,4,2,0,30,1,0
2189,394.736842105263,4,2,0,30,1,0
2189,-125,4,2,0,30,0,0
2583,377.358490566038,4,2,0,30,1,0
2677,691.455172413793,4,2,0,30,1,0
3368,676.219809165805,4,2,0,30,1,0
3368,-50,4,2,0,30,0,0
4044,618.292590844739,4,2,0,30,1,0
4353,472.44094488189,4,2,0,30,1,0
4471,502.701680672269,4,2,0,30,1,0
4596,589.028571428571,4,2,0,30,1,0
4743,550.528571428571,4,2,0,30,1,0
4880,564.228571428571,4,2,0,30,1,0
5021,566.528571428571,4,2,0,30,1,0
5486,445.881047181505,4,2,0,30,1,0
5622,445.881047181505,4,2,0,30,1,0
5747,445.881047181505,4,2,0,30,1,0
5878,573.96999455486,4,2,0,30,1,0
5878,-142.857142857143,4,2,0,30,0,0
6021,445.881047181505,4,2,0,5,1,0
6076,445.881047181505,4,2,0,30,1,0
6209,445.881047181505,4,2,0,30,1,0
6377,43.1654676258993,4,2,0,30,1,0
6377,-600,4,2,0,30,0,0
6592,300,4,2,0,30,1,0
6667,359.281437125748,4,2,0,30,1,0
6667,-166.666666666667,4,2,0,30,0,0
7277,714.285714285714,4,2,0,30,1,0
7277,-66.6666666666667,4,2,0,30,0,0
7991,678.457303370787,4,2,0,5,1,0
8330,500,4,2,0,30,1,0
9284,500,4,2,0,30,1,0
10199,322.58064516129,4,2,0,30,1,0
10199,-125,4,2,0,30,0,0
10360,410.958904109589,4,2,0,30,1,0
10565,458.015267175573,4,2,0,30,1,0
10565,-166.666666666667,4,2,0,30,0,0
10972,343.257142857143,4,2,0,30,1,0
11229,-100,4,2,0,5,0,0
11315,338.483050847457,4,2,0,30,1,0
11315,-125,4,2,0,30,0,0
11653,466.116279069767,4,2,0,5,1,0
11653,-100,4,2,0,5,0,0
11712,537.540540540541,4,2,0,30,1,0
11712,-166.666666666667,4,2,0,30,0,0
11913,-100,4,2,0,5,0,0
11980,649.293192557664,4,2,0,30,1,0
11980,-76.9230769230769,4,2,0,30,0,0
12304,609.75737593032,4,2,0,30,1,0
12456,500,4,2,0,30,1,0
12632,500,4,2,0,30,1,0
12855,500,4,2,0,30,1,0
13090,500,4,2,0,30,1,0
13330,500,4,2,0,30,1,0
13569,500,4,2,0,30,1,0
14476,500,4,2,0,30,1,0
14507,-100,4,2,0,5,0,0
14884,285.714285714286,4,2,0,5,1,0
14955,411.034926045593,4,2,0,5,1,0
15777,379.746835443038,4,2,0,30,1,0
15777,-200,4,2,0,30,0,0
16156,262.008733624454,4,2,0,10,1,0
16287,333.333333333333,4,2,0,5,1,0
16370,500,4,2,0,5,1,0
17768,405.405405405405,4,2,0,30,1,0
18173,521.739130434783,4,2,0,5,1,0
20321,1090.90909090909,4,2,0,30,1,0
20321,-1000,4,2,0,10,0,0
21411,413.593103448276,4,2,0,5,1,0
23065,491.803278688525,4,2,0,30,1,0
23126,612.244897959184,4,2,0,30,1,0
23202,500,4,2,0,30,1,0
24383,500,4,2,0,30,1,0
24456,500,4,2,0,30,1,0
24514,500,4,2,0,30,1,0
25033,456.197746274081,4,2,0,30,1,0
36059,344.827586206897,4,2,0,30,1,0
36205,425.531914893617,4,2,0,30,1,0
37008,500,4,2,0,30,1,0
37672,500,4,2,0,30,1,0
38363,500,4,2,0,30,1,0
39025,714.285714285714,4,2,0,30,1,0
39025,-200,4,2,0,30,0,0
39739,-200,4,2,0,5,0,0
40336,389.61038961039,4,2,0,30,1,0
40433,352.941176470588,4,2,0,30,1,0
40521,392.156862745098,4,2,0,30,1,0
40619,422.535211267606,4,2,0,30,1,0
40724,1558.44155844156,4,2,0,30,1,0
41927,442.544444444444,4,2,0,30,1,0
41927,-200,4,2,0,30,0,0
42148,432.554676258993,4,2,0,30,1,0
42148,-200,4,2,0,30,0,0
42364,512.820512820513,4,2,0,30,1,0
42364,-125,4,2,0,30,0,0
42620,565.037735849057,4,2,0,30,1,0
42620,-90.9090909090909,4,2,0,30,0,0
42902,500,4,2,0,30,1,0
42902,-71.4285714285714,4,2,0,30,0,0
43204,500,4,2,0,30,1,0
43204,-58.8235294117647,4,2,0,30,0,0
43510,500,4,2,0,30,1,0
43510,-50,4,2,0,30,0,0
45187,508.474576271186,4,2,0,30,1,0
45187,-200,4,2,0,30,0,0
48480,425.531914893617,4,2,0,30,1,0
48480,-31.25,4,2,0,30,0,0
48745,-12.5,4,2,0,30,0,0
48852,-17.8571428571429,4,2,0,30,0,0
48905,276.497695852535,4,2,0,30,1,0
50673,425.531914893617,4,2,0,30,1,0
50869,425.531914893617,4,2,0,30,1,0
51095,425.531914893617,4,2,0,30,1,0
51363,425.531914893617,4,2,0,30,1,0
51648,425.531914893617,4,2,0,30,1,0
51856,425.531914893617,4,2,0,30,1,0
52328,335.195530726257,4,2,0,30,1,0
52328,-66.6666666666667,4,2,0,30,0,0
52878,530.973451327434,4,2,0,30,1,0
52878,-66.6666666666667,4,2,0,30,0,0
54020,500,4,2,0,30,1,0
54082,344.827586206897,4,2,0,30,1,0
54227,504.201680672269,4,2,0,30,1,0
54855,425.531914893617,4,2,0,30,1,0
54881,-100,4,2,0,5,0,0
55508,322.58064516129,4,2,0,30,1,0
55628,298.507462686567,4,2,0,30,1,0
57057,425.531914893617,4,2,0,30,1,0
57222,425.531914893617,4,2,0,30,1,0
57426,425.531914893617,4,2,0,30,1,0
57616,530.973451327434,4,2,0,30,1,0
58356,460.638461538461,4,2,0,30,1,0
58356,-142.857142857143,4,2,0,30,0,0
58816,444.444444444444,4,2,0,30,1,0
58816,-100,4,2,0,30,0,0
59260,498.6,4,2,0,30,1,0
59260,-100,4,2,0,30,0,0
59758,421.535211267606,4,2,0,30,1,0
59758,-100,4,2,0,30,0,0
60179,488.704878048781,4,2,0,30,1,0
60179,-100,4,2,0,30,0,0
60667,431.654676258993,4,2,0,30,1,0
60667,-100,4,2,0,30,0,0
61098,526.315789473684,4,2,0,5,1,0
61098,-100,4,2,0,5,0,0
61624,425.531914893617,4,2,0,30,1,0
61624,-50,4,2,0,30,0,0
62669,470.44094488189,4,2,0,30,1,0
62669,-200,4,2,0,30,0,0
62904,414.931914893617,4,2,0,30,1,0
62904,-285.714285714286,4,2,0,30,0,0
63111,584.024271844661,4,2,0,30,1,0
63111,-400,4,2,0,30,0,0
63403,665.266666666666,4,2,0,30,1,0
63403,-800,4,2,0,30,0,0
64068,352.677192982456,4,2,0,30,1,0
64068,-400,4,2,0,30,0,0
64244,311.891235483565,4,2,0,30,1,0
64244,-400,4,2,0,30,0,0
64399,506.820512820513,4,2,0,30,1,0
64399,-600,4,2,0,30,0,0
64905,425.531914893617,4,2,0,30,1,0
64905,-400,4,2,0,30,0,0
64958,530.073451327433,4,2,0,5,1,0
64958,-400,4,2,0,5,0,0
65488,458.015267175573,4,2,0,30,1,0
65545,342.857142857143,4,2,0,30,1,0
65956,497.92531120332,4,2,0,30,1,0
66204,452.830188679245,4,2,0,30,1,0
66430,420.38041958042,4,2,0,30,1,0
66640,248.96265560166,4,2,0,30,1,0
66702,248.96265560166,4,2,0,30,1,0
66943,248.96265560166,4,2,0,30,1,0
67344,454.545454545455,4,2,0,30,1,0
68370,425.531914893617,4,2,0,30,1,0
69000,425.531914893617,4,2,0,30,1,0
70010,319.148936170213,4,2,0,30,1,0
70169,263.157894736842,4,2,0,30,1,0
70300,340.909090909091,4,2,0,30,1,0
70470,357.142857142857,4,2,0,30,1,0
70648,277.777777777778,4,2,0,30,1,0
70786,275.229357798165,4,2,0,30,1,0
70923,337.078651685393,4,2,0,30,1,0
71091,338.983050847458,4,2,0,30,1,0
71260,264.31718061674,4,2,0,30,1,0
71392,413.080895008606,4,2,0,30,1,0
71598,281.69014084507,4,2,0,30,1,0
71738,332.409972299169,4,2,0,30,1,0
71904,338.983050847458,4,2,0,30,1,0
72073,272.727272727273,4,2,0,30,1,0
72209,337.078651685393,4,2,0,30,1,0
72377,375,4,2,0,30,1,0
72564,215.20704821034,4,2,0,30,1,0
72564,-10.989010989011,4,2,0,30,0,0
72779,-10.989010989011,4,2,0,10,0,0
74286,425.531914893617,4,2,0,30,1,0
74746,425.531914893617,4,2,0,30,1,0
75024,425.531914893617,4,2,0,30,1,0
75219,425.531914893617,4,2,0,30,1,0
75257,425.531914893617,4,2,0,30,1,0
75433,425.531914893617,4,2,0,30,1,0
75459,451.127819548872,4,2,0,30,1,0
75568,425.531914893617,4,2,0,30,1,0
75689,377.358490566038,4,2,0,30,1,0
76607,425.531914893617,4,2,0,30,1,0
77048,540.540540540541,4,2,0,30,1,0
77622,631.578947368421,4,2,0,5,1,0
77622,-142.857142857143,4,2,0,5,0,0
78253,588.235294117647,4,2,0,5,1,0
79202,425.531914893617,4,2,0,30,1,0
80715,425.531914893617,4,2,0,30,1,0
80771,425.531914893617,4,2,0,30,1,0
80933,355.029585798817,4,2,0,30,1,0
81642,500,4,2,0,30,1,0
84893,731.70731707317,4,2,0,30,1,0
84893,-166.666666666667,4,2,0,30,0,0
85624,-166.666666666667,4,2,0,5,0,0
86602,967.741935483871,4,2,0,30,1,0
86602,-166.666666666667,4,2,0,30,0,0
87569,-166.666666666667,4,2,0,5,0,0
88528,648.461290322581,4,2,0,30,1,0
88528,-166.666666666667,4,2,0,30,0,0
89176,2642.20839664478,4,2,0,100,1,0
89176,-2.5,4,2,0,100,0,0
89753,333.333333333333,4,2,0,15,1,0
89753,-100,4,2,0,100,0,0
89757,-100,4,2,0,15,0,0
90086,377.358490566038,4,2,0,15,1,0
90086,-100,4,2,0,15,0,0
90091,-100,4,2,0,15,0,0
90463,1355.31962954597,4,2,0,30,1,0
90463,-100,4,2,0,20,0,0
91818,488.964571070586,4,2,0,5,1,0
91940,307.692307692308,4,2,0,30,1,0
91940,-50,4,2,0,30,0,0
93512,425.531914893617,4,2,0,30,1,0
93930,425.531914893617,4,2,0,30,1,0
94341,425.531914893617,4,2,0,30,1,0
94961,425.531914893617,4,2,0,30,1,0
95173,400,4,2,0,30,1,0
95596,444.444444444444,4,2,0,30,1,0
96289,285.714285714286,4,2,0,30,1,0
96289,-45.4545454545459,4,2,0,30,0,0
96574,290.46213592233,4,2,0,30,1,0
96574,-43.4782608695656,4,2,0,30,0,0
96864,294.117647058824,4,2,0,30,1,0
96864,-52.631578947369,4,2,0,30,0,0
97338,370.37037037037,4,2,0,30,1,0
97338,370.37037037037,4,2,0,30,1,0
97912,294.117647058824,4,2,0,30,1,0
99197,294.117647058824,4,2,0,30,1,0
99233,-83.3333333333333,4,2,0,30,0,0
99417,-100,4,2,0,5,0,0
99491,487.80487804878,4,2,0,30,1,0
99978,-100,4,2,0,5,0,0
100425,845.070422535211,4,2,0,30,1,0
100425,-125,4,2,0,30,0,0
100636,294.117647058824,4,2,0,30,1,0
100796,294.117647058824,4,2,0,30,1,0
100947,294.117647058824,4,2,0,30,1,0
101113,294.117647058824,4,2,0,30,1,0
101270,740.740740740741,4,2,0,30,1,0
101270,-125,4,2,0,30,0,0
101616,740.740740740741,4,2,0,30,1,0
101794,740.740740740741,4,2,0,30,1,0
101947,740.740740740741,4,2,0,30,1,0
102123,740.740740740741,4,2,0,30,1,0
102312,567.137735849057,4,2,0,30,1,0
102312,-66.6666666666667,4,2,0,30,0,0
102808,-66.6666666666667,4,2,0,5,0,0
102879,294.117647058824,4,2,0,30,1,0
102879,-55.5555555555556,4,2,0,30,0,0
103238,320.855614973262,4,2,0,30,1,0
103238,-50,4,2,0,30,0,0
103398,258.620689655172,4,2,0,30,1,0
103527,1015.44915254237,4,2,0,30,1,0
103527,-14.4927536231884,4,2,0,30,0,0
104542,273.972602739726,4,2,0,30,1,0
104815,444.444444444444,4,2,0,30,1,0
105647,294.117647058824,4,2,0,30,1,0
106136,498.9,4,2,0,20,1,0
106136,-71.4285714285714,4,2,0,20,0,0
106260,512.820512820513,4,2,0,20,1,0
106260,-62.5,4,2,0,20,0,0
106388,465.116279069767,4,2,0,20,1,0
106388,-55.5555555555556,4,2,0,20,0,0
106504,488.70487804878,4,2,0,20,1,0
106504,-50,4,2,0,20,0,0
106626,441.176470588235,4,2,0,20,1,0
106626,-41.6666666666667,4,2,0,20,0,0
106736,512.820512820513,4,2,0,20,1,0
106736,-34.4827586206897,4,2,0,20,0,0
106864,441.176470588235,4,2,0,20,1,0
106864,-31.2500000000001,4,2,0,20,0,0
106974,492.803278688525,4,2,0,20,1,0
106974,-27.7777777777778,4,2,0,20,0,0
107097,294.117647058824,4,2,0,10,1,0
107357,294.117647058824,4,2,0,30,1,0
107767,294.117647058824,4,2,0,30,1,0
108422,204.778156996587,4,2,0,30,1,0
108422,-66.6666666666667,4,2,0,30,0,0
108626,588.235294117647,4,2,0,30,1,0
108626,-26.3157894736842,4,2,0,30,0,0
109214,446.644444444444,4,2,0,30,1,0
109662,294.117647058824,4,2,0,30,1,0
109853,294.117647058824,4,2,0,30,1,0
110042,294.117647058824,4,2,0,30,1,0
110258,294.117647058824,4,2,0,30,1,0
111275,294.117647058824,4,2,0,30,1,0
112853,263.157894736842,4,2,0,30,1,0
112853,-45.4545454545455,4,2,0,30,0,0
113083,-45.4545454545455,4,2,0,30,0,0
113116,350.877192982456,4,2,0,30,1,0
113116,-10,4,2,0,5,0,0
113818,294.117647058824,4,2,0,30,1,0
114108,294.117647058824,4,2,0,30,1,0
114377,294.117647058824,4,2,0,30,1,0
114660,294.117647058824,4,2,0,30,1,0
116018,294.117647058824,4,2,0,30,1,0
116469,520.120901556883,4,2,0,30,1,0
117733,344.827586206897,4,2,0,30,1,0
117819,309.278350515464,4,2,0,30,1,0
118404,461.538461538462,4,2,0,30,1,0
118404,461.538461538462,4,2,0,30,1,0
118519,844.327176781003,4,2,0,30,1,0
118519,845.070422535211,4,2,0,30,1,0
118519,-10.8695652173913,4,2,0,30,0,0
119258,-11.7647058823529,4,2,0,5,0,0
119363,370.37037037037,4,2,0,30,1,0
119960,370.37037037037,4,2,0,30,1,0
119960,-31.25,4,2,0,30,0,0
120330,239.043824701195,4,2,0,30,1,0
120330,-18.8679245283019,4,2,0,30,0,0
120569,333.333333333333,4,2,0,30,1,0
120569,-31.25,4,2,0,30,0,0
121167,370.37037037037,4,2,0,30,1,0
121766,270.27027027027,4,2,0,30,1,0
122546,250,4,2,0,30,1,0
122577,-100,4,2,0,5,0,0
123523,250,4,2,0,30,1,0
123583,335.195530726257,4,2,0,30,1,0
124059,545.454545454546,4,2,0,30,1,0
124965,370.37037037037,4,2,0,30,1,0
125628,370.37037037037,4,2,0,30,1,0
125708,370.37037037037,4,2,0,30,1,0
125769,370.37037037037,4,2,0,30,1,0
125842,370.37037037037,4,2,0,30,1,0
125936,370.37037037037,4,2,0,30,1,0
126014,370.37037037037,4,2,0,30,1,0
126101,370.37037037037,4,2,0,30,1,0
126715,370.37037037037,4,2,0,30,1,0
127862,326.086956521739,4,2,0,30,1,0
129166,425.531914893617,4,2,0,9,1,0
129166,-1000,4,2,0,9,0,0
130017,433.182608695652,4,2,0,20,1,0
130017,-12.5,4,2,0,20,0,0
130450,430.071428571428,4,2,0,20,1,0
130450,-12.5,4,2,0,20,0,0
130880,2025.19830508475,4,2,0,30,1,0
132905,370.37037037037,4,2,0,30,1,0
132905,-12.5,4,2,0,30,0,0
133645,714.285714285714,4,2,0,30,1,0
133645,-58.8235294117647,4,2,0,30,0,0
134180,-58.8235294117647,4,2,0,15,0,0
134322,500,4,2,0,30,1,0
134322,-58.8235294117647,4,2,0,30,0,0
135563,508.474576271186,4,2,0,10,1,0
136071,-100,4,2,0,5,0,0
136282,508.474576271186,4,2,0,30,1,0
136282,-25,4,2,0,30,0,0
137037,384.615384615385,4,2,0,30,1,0
137792,681.818181818182,4,2,0,30,1,0
137792,-50,4,2,0,30,0,0
141286,370.37037037037,4,2,0,30,1,0
142029,370.37037037037,4,2,0,30,1,0
142773,357.142857142857,4,2,0,30,1,0
142773,-125,4,2,0,30,0,0
143130,389.61038961039,4,2,0,30,1,0
143130,-50,4,2,0,30,0,0
143519,389.61038961039,4,2,0,30,1,0
143519,-50,4,2,0,30,0,0
143616,389.61038961039,4,2,0,30,1,0
143713,389.61038961039,4,2,0,30,1,0
143870,389.61038961039,4,2,0,30,1,0
144023,389.61038961039,4,2,0,30,1,0
144146,389.61038961039,4,2,0,30,1,0
144146,-50,4,2,0,30,0,0
144574,389.61038961039,4,2,0,30,1,0
145191,389.61038961039,4,2,0,30,1,0
145588,431.654676258993,4,2,0,30,1,0
146219,340.909090909091,4,2,0,30,1,0
146474,340.909090909091,4,2,0,30,1,0
146474,-66.6666666666667,4,2,0,30,0,0
146814,480,4,2,0,30,1,0
147027,340.909090909091,4,2,0,30,1,0
147027,-142.857142857143,4,2,0,30,0,0
147440,639.497872340426,4,2,0,30,1,0
147440,-50,4,2,0,30,0,0
147999,-50,4,2,0,5,0,0
148079,468.75,4,2,0,30,1,0
148079,-66.6666666666667,4,2,0,30,0,0
148196,-66.6666666666667,4,2,0,5,0,0
149508,431.654676258993,4,2,0,30,1,0
149508,-12.5,4,2,0,30,0,0
151072,445.66119402985,4,2,0,30,1,0
151072,-12.5,4,2,0,30,0,0
151294,387.096774193548,4,2,0,30,1,0
151294,-12.5,4,2,0,30,0,0
151487,389.61038961039,4,2,0,30,1,0
151487,-12.5,4,2,0,30,0,0
151730,389.61038961039,4,2,0,30,1,0
151920,389.61038961039,4,2,0,30,1,0
152058,389.61038961039,4,2,0,30,1,0
152210,821.917808219178,4,2,0,30,1,0
152210,-76.9230769230769,4,2,0,30,0,0
154185,821.917808219178,4,2,0,30,1,0
156840,821.917808219178,4,2,0,30,1,0
158327,821.917808219178,4,2,0,30,1,0
160330,472.44094488189,4,2,0,30,1,0
163729,476.190476190476,4,2,0,30,1,0
164357,476.190476190476,4,2,0,30,1,0
164658,606.060606060606,4,2,0,30,1,0
164658,-66.6666666666667,4,2,0,30,0,0
165264,-66.6666666666667,4,2,0,5,0,0
165347,606.060606060606,4,2,0,30,1,0
165498,606.060606060606,4,2,0,30,1,0
165628,606.060606060606,4,2,0,30,1,0
165794,606.060606060606,4,2,0,30,1,0
165937,606.060606060606,4,2,0,30,1,0
166086,606.060606060606,4,2,0,30,1,0
166241,606.060606060606,4,2,0,30,1,0
166408,606.060606060606,4,2,0,30,1,0
166540,606.060606060606,4,2,0,30,1,0
166692,606.060606060606,4,2,0,30,1,0
166827,606.060606060606,4,2,0,30,1,0
166973,606.060606060606,4,2,0,30,1,0
167679,416.666666666667,4,2,0,30,1,0
167679,-52.6315789473684,4,2,0,30,0,0
168225,416.666666666667,4,2,0,30,1,0
168225,-142.857142857143,4,2,0,30,0,0
168798,307.692307692308,4,2,0,30,1,0
168798,-52.6315789473684,4,2,0,30,0,0
169245,307.692307692308,4,2,0,30,1,0
169245,-142.857142857143,4,2,0,30,0,0
170244,250,4,2,0,30,1,0
170646,389.61038961039,4,2,0,30,1,0
170646,-58.8235294117647,4,2,0,30,0,0
171035,497.92531120332,4,2,0,30,1,0
171159,506.329113924051,4,2,0,30,1,0
171412,530.973451327434,4,2,0,30,1,0
171677,498.960498960499,4,2,0,30,1,0
171926,530.973451327434,4,2,0,30,1,0
171926,-333.333333333333,4,2,0,30,0,0
172191,489.795918367347,4,2,0,30,1,0
172435,472.44094488189,4,2,0,30,1,0
172671,564.705882352941,4,2,0,30,1,0
172953,458.891013384321,4,2,0,30,1,0
173182,324.324324324324,4,2,0,30,1,0
173344,375,4,2,0,30,1,0
173531,257.510729613734,4,2,0,30,1,0
173659,294.117647058824,4,2,0,30,1,0
173806,352.941176470588,4,2,0,30,1,0
173982,307.29833546735,4,2,0,30,1,0
174289,324.324324324324,4,2,0,30,1,0
174451,324.324324324324,4,2,0,30,1,0
174613,303.030303030303,4,2,0,30,1,0
174764,306.122448979592,4,2,0,30,1,0
174917,329.67032967033,4,2,0,30,1,0
175081,340.909090909091,4,2,0,30,1,0
175251,351.906158357771,4,2,0,30,1,0
175426,350.877192982456,4,2,0,30,1,0
175601,476.190476190476,4,2,0,30,1,0
175839,522.875816993464,4,2,0,30,1,0
176100,324.324324324324,4,2,0,30,1,0
176347,485.82995951417,4,2,0,30,1,0
176347,-50,4,2,0,30,0,0
177075,265.486725663717,4,2,0,30,1,0
177340,1955.88387096774,4,2,0,30,1,0
177340,-25,4,2,0,30,0,0
179295,324.324324324324,4,2,0,30,1,0
180632,324.324324324324,4,2,0,30,1,0
180709,324.324324324324,4,2,0,30,1,0
180794,324.324324324324,4,2,0,30,1,0
180854,324.324324324324,4,2,0,30,1,0
180890,324.324324324324,4,2,0,30,1,0
180956,324.324324324324,4,2,0,30,1,0
181058,324.324324324324,4,2,0,30,1,0
181118,324.324324324324,4,2,0,30,1,0
181199,324.324324324324,4,2,0,30,1,0
181333,324.324324324324,4,2,0,30,1,0
181409,324.324324324324,4,2,0,30,1,0
181505,324.324324324324,4,2,0,30,1,0
181594,324.324324324324,4,2,0,30,1,0
181668,324.324324324324,4,2,0,30,1,0
181754,324.324324324324,4,2,0,30,1,0
181830,324.324324324324,4,2,0,30,1,0
181922,324.324324324324,4,2,0,30,1,0
182014,338.983050847458,4,2,0,30,1,0
182014,-125,4,2,0,30,0,0
182543,437.956204379562,4,2,0,30,1,0
182543,-34.4827586206897,4,2,0,30,0,0
183949,324.324324324324,4,2,0,30,1,0
184273,324.324324324324,4,2,0,30,1,0
184597,324.324324324324,4,2,0,30,1,0
185071,275.229357798165,4,2,0,30,1,0
185071,-125,4,2,0,30,0,0
185311,-125,4,2,0,30,0,0
185346,379.746835443038,4,2,0,5,1,0
186539,379.746835443038,4,2,0,30,1,0
186681,379.746835443038,4,2,0,30,1,0
186831,379.746835443038,4,2,0,30,1,0
187003,327.868852459016,4,2,0,30,1,0
187003,-166.666666666667,4,2,0,30,0,0
187289,-166.666666666667,4,2,0,5,0,0
187330,322.58064516129,4,2,0,30,1,0
187450,-100,4,2,0,5,0,0
187491,461.538461538462,4,2,0,30,1,0
187606,-100,4,2,0,5,0,0
187721,271.493212669683,4,2,0,30,1,0
187721,-71.4285714285714,4,2,0,30,0,0
188263,-71.4285714285714,4,2,0,15,0,0
188375,271.493212669683,4,2,0,30,1,0
197106,260.869565217391,4,2,0,30,1,0
198611,260.869565217391,4,2,0,30,1,0
198984,268.658295964125,4,2,0,30,1,0
199219,-100,4,2,0,5,0,0
199252,313.3,4,2,0,30,1,0
199330,-100,4,2,0,5,0,0
200505,399.384563758389,4,2,0,30,1,0
200604,-100,4,2,0,5,0,0
202102,260.869565217391,4,2,0,30,1,0
202167,-100,4,2,0,5,0,0
203624,359.281437125748,4,2,0,30,1,0
205777,359.281437125748,4,2,0,30,1,0
206976,359.281437125748,4,2,0,30,1,0
206998,-100,4,2,0,5,0,0
208035,300,4,2,0,30,1,0
208035,-50,4,2,0,30,0,0
208072,-50,4,2,0,5,0,0
208394,1701.18571428571,4,2,0,30,1,0
208394,-800,4,2,0,30,0,0
208925,1714.28571428571,4,2,0,30,1,0
208925,-100,4,2,0,30,0,0
209604,359.281437125748,4,2,0,30,1,0
211188,359.281437125748,4,2,0,30,1,0
211651,359.281437125748,4,2,0,30,1,0
212887,359.281437125748,4,2,0,30,1,0
213861,359.281437125748,4,2,0,30,1,0
214693,359.281437125748,4,2,0,30,1,0
215390,359.281437125748,4,2,0,30,1,0
216108,359.281437125748,4,2,0,30,1,0
217121,359.281437125748,4,2,0,30,1,0
219587,512.820512820513,4,2,0,30,1,0
220708,879.752496297708,4,2,0,30,1,0
220708,-50,4,2,0,30,0,0
221587,359.281437125748,4,2,0,30,1,0
221835,359.281437125748,4,2,0,30,1,0
222079,359.281437125748,4,2,0,30,1,0
222320,359.281437125748,4,2,0,30,1,0
222552,262.008733624454,4,2,0,30,1,0
222814,328.97032967033,4,2,0,30,1,0
224129,359.281437125748,4,2,0,30,1,0
225495,290.073613079866,4,2,0,30,1,0
225785,469.17925712603,4,2,0,30,1,0
226254,33.5195530726257,4,2,0,30,1,0
226254,-10000,4,2,0,30,0,0
226321,333.333333333333,4,2,0,30,1,0
227142,359.281437125748,4,2,0,30,1,0
228579,359.281437125748,4,2,0,30,1,0
228796,222.222222222222,4,2,0,30,1,0
228796,-13.3333333333333,4,2,0,30,0,0
229582,359.281437125748,4,2,0,30,1,0
230412,359.281437125748,4,2,0,30,1,0
232108,359.281437125748,4,2,0,30,1,0
233437,359.281437125748,4,2,0,30,1,0
236924,359.281437125748,4,2,0,30,1,0
238531,359.281437125748,4,2,0,30,1,0
239420,359.281437125748,4,2,0,30,1,0
241522,983.606557377049,4,2,0,30,1,0
241522,-12.5,4,2,0,30,0,0
242505,389.61038961039,4,2,0,30,1,0
243186,389.61038961039,4,2,0,30,1,0
244354,495.867768595041,4,2,0,30,1,0
244905,384.615384615385,4,2,0,30,1,0
244953,449.727819548872,4,2,0,30,1,0
245177,495.867768595041,4,2,0,30,1,0
245214,370.37037037037,4,2,0,30,1,0
245399,909.090909090909,4,2,0,30,1,0
245399,-76.9230769230769,4,2,0,30,0,0
248338,342.857142857143,4,2,0,30,1,0
248338,-50,4,2,0,30,0,0
248359,-50,4,2,0,5,0,0
249389,342.857142857143,4,2,0,30,1,0
252195,342.857142857143,4,2,0,30,1,0
253065,342.857142857143,4,2,0,30,1,0
253197,292.682926829268,4,2,0,30,1,0
254050,292.682926829268,4,2,0,30,1,0
256093,1304.34782608696,4,2,0,30,1,0
256093,-50,4,2,0,30,0,0
258074,292.682926829268,4,2,0,30,1,0
258330,-100,4,2,0,5,0,0
258366,370.37037037037,4,2,0,30,1,0
258366,-50,4,2,0,30,0,0
258736,292.682926829268,4,2,0,5,1,0
259350,292.682926829268,4,2,0,30,1,0
263553,292.682926829268,4,2,0,30,1,0
263602,292.682926829268,4,2,0,30,1,0
584555,292.682926829268,4,2,0,30,1,0
1161245,437.956204379562,4,2,0,30,1,0
1161245,-40,4,2,0,30,0,0

[HitObjects]
400,60,761,5,0,0:0:0:0:
419,87,904,1,0,0:0:0:0:
427,107,1053,1,0,0:0:0:0:
431,115,1288,1,0,0:0:0:0:
352,156,1533,1,0,0:0:0:0:
359,157,1615,1,0,0:0:0:0:
358,165,1682,2,0,L|253:179,1,100
316,248,2189,2,0,L|174:267,1,140
88,204,2583,6,0,L|60:160,1,50
104,344,3368,6,0,B|131:369|180:380|237:369|237:369|240:336|228:332|208:352|208:352|204:320|188:316|168:344|168:344|164:320|148:320|136:340|136:340|148:324|144:316|112:328|112:328|128:308|116:300|92:316|92:316,1,400
184,228,4353,2,0,L|232:252,1,50
304,256,4596,2,0,L|332:304,1,50
440,320,4880,2,0,L|404:272,1,50
380,224,5486,5,0,0:0:0:0:
352,192,5622,1,0,0:0:0:0:
308,184,5747,1,0,0:0:0:0:
292,160,5878,2,0,L|252:160,1,34.9999989318848
256,116,6076,1,0,0:0:0:0:
192,96,6209,1,0,0:0:0:0:
127,164,6377,6,0,P|111:238|173:301,1,166.666666666667
236,245,6667,2,0,L|277:309,2,59.9999981689454
316,76,7277,6,0,B|301:112|301:112|332:135|332:135|318:171|318:171|349:194|349:194|335:230|335:230|366:253|366:253|352:289|352:289|379:310|379:310,1,300.000011444092
392,376,8330,5,0,0:0:0:0:
284,4,9284,5,0,0:0:0:0:
219,77,10199,6,0,L|239:156,1,80
276,184,10565,2,0,L|260:121,1,59.9999981689454
60,208,10972,6,0,P|92:180|196:148,1,150
264,228,11315,2,0,P|213:213|180:216,2,80
251,301,11712,2,0,P|232:288|208:281,1,44.999998626709
136,304,11980,2,0,P|121:344|137:304,1,129.999994049073
200,112,12456,5,0,0:0:0:0:
168,208,12632,1,0,0:0:0:0:
252,232,12855,1,0,0:0:0:0:
296,180,13090,1,0,0:0:0:0:
384,216,13330,1,0,0:0:0:0:
512,380,13569,1,0,0:0:0:0:
256,192,14476,6,0,L|246:183,1,12.5
356,136,14884,6,0,P|352:132|344:156,1,50
4,36,15777,6,0,B|56:20|56:52|112:36,1,100
125,81,16287,1,0,0:0:0:0:
112,97,16370,1,0,0:0:0:0:
221,131,17768,6,0,L|127:174,1,100
213,217,18173,2,0,L|114:198,1,100
256,208,20321,6,0,L|256:188,1,20
108,213,23065,5,0,0:0:0:0:
108,192,23126,1,0,0:0:0:0:
108,171,23202,1,0,0:0:0:0:
235,44,24383,5,0,0:0:0:0:
256,44,24456,1,0,0:0:0:0:
277,44,24514,1,0,0:0:0:0:
256,192,25033,5,0,0:0:0:0:
256,192,36059,5,0,0:0:0:0:
256,192,36205,2,0,P|321:189|256:190,1,200
85,66,37008,6,0,P|80:80|96:82,1,25
232,403,37672,6,0,P|247:400|240:385,1,25
450,106,38363,6,0,P|440:95|431:108,1,25
256,192,39025,2,0,B|241:187|241:187|245:174|245:174|272:164|272:164|269:152|259:132|266:120,1,100
128,44,40336,5,0,0:0:0:0:
192,44,40433,1,0,0:0:0:0:
256,44,40521,1,0,0:0:0:0:
320,44,40619,1,0,0:0:0:0:
383,44,40724,2,0,B|384:44|384:44|383:44|383:44|384:44|384:44|383:44|383:44|384:44|384:44|383:44|383:44|384:44|384:44|383:44|383:44|384:44|384:44|383:44|383:44|384:44|384:44|383:44|383:44|384:44|384:44|383:44|383:44|384:44|384:44|383:44|383:44|384:44|384:44|383:44|383:44|384:44|384:44|383:44|383:44|384:44|384:44|383:44|383:44|384:44|384:44|383:44|383:44|384:44|384:44|383:44|383:44|384:44|384:44|383:44|383:44|384:44|384:44|383:44|383:44|384:44|384:44|383:44|383:44|384:44|384:44|383:44|383:44|384:44|384:44|383:44|383:44|384:44|384:44|383:44|383:44|384:44|384:44|383:44|383:44|384:44|384:44|383:44|383:44|384:44|384:44|383:44|383:44|384:44|384:44|383:44|383:44|384:44|384:44|383:44|383:44|384:44|384:44|383:44|383:44|384:44|384:44|383:44|383:44|384:44|384:44|383:44|383:44|384:44|384:44|383:44|383:44|384:44|384:44|383:44|383:44|384:44|384:44|383:44|383:44|384:44|384:44|383:44|383:44|384:44|384:44|383:44|383:44|384:44|384:44|383:44|383:44|384:44|384:44|383:44|383:44|384:44|384:44|383:44|383:44|384:44|384:44|383:44|383:44|384:44|384:44|383:44|383:44|384:44|384:44|383:44|383:44|384:44|384:44|383:44|383:44|384:44|384:44|383:44|383:44|384:44|384:44|383:44|383:44|384:44|384:44|383:44|383:44|384:44|384:44|410:44,1,100
0,192,41927,6,0,L|0:177,1,12.5
85,192,42148,6,0,L|84:177,1,12.5
170,192,42364,6,0,L|170:170,1,20
256,192,42620,6,0,L|256:156,1,27.5000008392334
341,192,42902,6,0,L|341:157,1,34.9999989318848
426,192,43204,6,0,L|426:149,1,42.5000008106232
511,192,43510,6,0,L|511:142,1,50
229,233,45187,6,0,L|260:328,1,100
318,329,48480,6,0,P|304:245|236:303,1,200
362,299,48533,1,0,0:0:0:0:
62,308,48586,2,0,B|110:263|252:194|223:290|223:290|113:304,1,320
201,342,48639,5,0,0:0:0:0:
113,110,48692,2,0,L|381:304,1,320
432,196,48745,1,0,0:0:0:0:
285,81,48852,2,0,P|333:91|445:68,1,139.999995727539
256,192,48905,1,0,0:0:0:0:
256,192,48974,1,0,0:0:0:0:
359,196,50673,5,0,0:0:0:0:
279,193,50869,1,0,0:0:0:0:
278,187,51095,1,0,0:0:0:0:
207,135,51363,1,0,0:0:0:0:
211,144,51648,1,0,0:0:0:0:
156,64,51856,1,0,0:0:0:0:
60,184,52328,6,0,P|3:131|129:133,1,300.000011444092
129,216,52878,2,0,B|247:335|286:166|413:292,1,300.000011444092
418,212,54020,5,0,0:0:0:0:
404,196,54082,2,0,P|414:176|434:156,1,50
387,188,54227,2,0,P|438:124|522:100,1,162.5
511,228,54855,2,0,L|526:237,1,12.5
475,319,55508,6,0,L|477:348,1,25
475,319,55628,2,0,L|460:343,1,25
287,379,57057,5,0,0:0:0:0:
220,349,57222,1,0,0:0:0:0:
156,311,57426,1,0,0:0:0:0:
136,276,57616,2,0,L|136:76,1,200
447,41,58356,6,0,L|350:150,1,139.999995727539
354,146,58816,2,0,P|443:170|440:263,1,200
441,264,59260,2,0,B|499:351|512:192|580:372,1,200
512,367,59758,2,0,B|424:368|340:352|441:264,1,200
397,322,60179,2,0,B|454:351|370:367|215:367,1,200
247,366,60667,2,0,P|357:349|355:370,1,200
304,136,61624,6,0,L|301:62,1,50
128,224,62669,6,0,L|70:243,1,50
81,240,62904,2,0,L|95:277,1,34.9999989318848
94,273,63111,2,0,L|94:299,1,25
94,298,63403,2,0,L|104:322,1,25
103,321,64068,2,0,P|113:332|119:327,1,25
118,325,64244,2,0,L|143:332,1,25
142,331,64399,2,0,L|159:360,1,33.3333333333333
158,359,64905,2,0,L|152:364,1,6.25
428,256,65488,5,0,0:0:0:0:
424,272,65545,2,0,L|312:264,1,100
392,180,65956,2,0,P|336:152|312:164,1,75
232,280,66204,2,0,L|220:264,1,12.5
72,204,66430,1,0,0:0:0:0:
192,160,66640,5,0,0:0:0:0:
208,176,66702,1,0,0:0:0:0:
240,100,66943,1,0,0:0:0:0:
264,108,67005,1,0,0:0:0:0:
291,106,67109,1,0,0:0:0:0:
512,108,67344,1,0,0:0:0:0:
456,200,67457,2,0,P|416:256|336:272,1,150
104,104,68370,5,0,0:0:0:0:
407,104,69000,5,0,0:0:0:0:
336,272,70010,5,0,0:0:0:0:
156,264,70169,5,0,0:0:0:0:
113,369,70300,5,0,0:0:0:0:
104,304,70470,5,0,0:0:0:0:
245,362,70648,5,0,0:0:0:0:
161,319,70786,5,0,0:0:0:0:
226,234,70923,5,0,0:0:0:0:
387,349,71091,5,0,0:0:0:0:
263,307,71260,5,0,0:0:0:0:
100,320,71392,5,0,0:0:0:0:
367,268,71598,5,0,0:0:0:0:
186,356,71738,5,0,0:0:0:0:
351,365,71904,5,0,0:0:0:0:
177,254,72073,5,0,0:0:0:0:
68,344,72209,5,0,0:0:0:0:
434,320,72377,5,0,0:0:0:0:
266,202,72564,6,0,B|213:192|273:75|273:75|239:30|300:-40|38:263|38:263|284:69|339:-2|344:-8|345:27|345:27|527:305|527:305|219:46|219:46|301:320|301:320|353:83|317:85|298:76|292:424|227:138|209:176|209:176|354:169|354:169|399:207|399:207|396:246|288:16|288:16|-28:227|-28:227|245:46|245:46|320:57|236:299|236:299|385:2|385:2|504:159|700:77|714:82|671:175|671:175|631:273|414:362|414:362|158:49|158:49|307:205|307:205|176:197|176:197|-38:63|-38:63|627:225|563:227|571:227|527:264|522:271|304:123|317:347|304:319|261:342|261:342|247:368|247:368|206:23|206:23|323:338|333:226|-59:-61|-97:309|-97:309|456:323|472:398|457:433|497:466|418:386|413:381|370:410|372:385|438:99|438:99|217:241|206:229|165:182|165:182|558:259|558:259|379:268|152:315|130:343|130:343|122:98|122:98|416:192|416:192|142:449|131:466|122:260|196:173|291:214|365:166|365:166|115:11|115:11|-73:225|-73:225|-140:221|88:190|88:190|-48:265|-48:265|506:98|-10:355|0:354|289:185|289:185|566:164|43:239|105:208|105:208|107:163|42:73|44:0|87:-39|87:-39|155:-39|155:-39|119:-9|100:-6|211:167|211:167|410:241|410:241|80:84|80:84|591:407,1,14560.0002360535
499,347,74746,6,0,L|515:343,1,12.5
368,284,75024,2,0,L|272:308,1,87.5
84,156,75459,2,0,L|140:144,2,50
308,152,75905,1,0,0:0:0:0:
125,308,76149,1,0,0:0:0:0:
173,318,76261,1,0,0:0:0:0:
221,328,76380,2,0,L|317:288,1,100
356,116,76819,1,0,0:0:0:0:
392,136,76926,1,0,0:0:0:0:
368,164,77048,1,0,0:0:0:0:
323,276,77622,6,0,B|343:209|343:209|375:273,1,139.999995727539
248,252,79202,5,0,0:0:0:0:
256,260,79336,1,0,0:0:0:0:
252,268,79521,1,0,0:0:0:0:
256,340,79815,1,0,0:0:0:0:
256,336,79815,1,0,0:0:0:0:
88,384,80103,1,0,0:0:0:0:
80,364,80159,2,0,P|152:376|176:288,1,175
120,240,80715,1,0,0:0:0:0:
99,226,80771,2,0,L|82:174,1,50
132,127,80933,2,0,L|196:175,5,66.6666666666667
190,85,81642,2,0,L|232:114,6,33.3333333333333
236,158,84894,6,0,L|122:197,1,119.999996337891
51,101,86602,6,0,L|123:198,1,119.999996337891
200,287,88528,6,0,L|121:196,1,119.999996337891
122,197,89176,6,0,B|72:208|72:208|38:196|38:196|179:199|179:199|103:162|111:143|80:203|80:203|96:123|127:160|161:160|161:160|169:143|174:191|67:232|67:232|142:188|150:232|151:225|182:306|59:207|59:207|8:250|110:189|291:39|366:228|118:273|115:239|91:228|121:238|176:180|19:190|51:156|154:89|81:177|234:315|164:227|164:227|134:263|134:263|184:212|218:200|225:197|53:208|189:245|189:245|122:254|74:242|119:265|96:273|27:293|104:179|104:179|111:210|119:210|69:323|41:344|168:141,1,2000
178,37,89753,5,0,0:0:0:0:
304,39,90086,1,0,0:0:0:0:
406,90,90463,2,0,P|376:209|310:233,1,200
271,204,91940,2,0,B|224:222|224:222|273:256,1,100
14,116,93512,6,0,L|77:161,1,75
131,208,93724,2,0,L|97:208,1,25
20,287,93930,1,0,0:0:0:0:
112,315,94142,1,0,0:0:0:0:
225,281,94341,2,0,P|251:220|190:104,1,200
22,109,94961,2,0,L|8:78,1,25
173,9,95173,2,0,P|107:55|83:95,1,100
122,196,95596,1,0,0:0:0:0:
122,196,95670,1,0,0:0:0:0:
122,196,95744,1,0,0:0:0:0:
122,196,95818,1,0,0:0:0:0:
122,196,95892,1,0,0:0:0:0:
122,196,95966,1,0,0:0:0:0:
122,196,96040,1,0,0:0:0:0:
193,372,96289,6,0,B|198:344|198:344|188:332|188:332|189:319|197:296|197:296|203:295|224:253|206:265|206:265|196:248|219:238|219:238|195:216|195:216|230:216|245:196|245:196|247:177|247:177|250:159|232:138|232:138|242:120,1,330.000010070801
294,352,96574,6,0,B|297:328|297:328|310:316|310:316|290:299|313:286|313:286|307:282|326:258|326:258|301:272|301:272|288:252|307:245|307:245|333:231|309:216|331:216|331:216|320:188|320:188|346:185|346:185|330:158|337:132|337:132|347:111,1,345.000006580353
392,329,96864,6,0,B|390:287|390:287|397:277|396:247|411:254|411:254|434:233|404:185|438:203|438:203|436:200|440:175|417:190|443:163|443:163|446:154|446:154|465:160|432:104|432:104|460:80|460:80|419:36|445:9,1,379.999989852906
344,84,97338,5,0,0:0:0:0:
305,75,97399,1,0,0:0:0:0:
266,66,97461,1,0,0:0:0:0:
227,57,97523,1,0,0:0:0:0:
188,48,97584,1,0,0:0:0:0:
149,39,97646,1,0,0:0:0:0:
214,164,97912,5,0,0:0:0:0:
82,190,98206,1,0,0:0:0:0:
50,26,99197,5,0,0:0:0:0:
54,63,99233,2,0,B|52:89|52:89|68:101|35:125|48:164|92:172|79:218,1,149.999995422363
110,29,99491,2,0,B|120:53|120:53|161:55|136:87|188:84|188:84|191:109|203:146|233:176|233:176,1,200
129,329,100425,6,0,L|105:295,1,40
151,284,100796,1,0,0:0:0:0:
173,239,100947,1,0,0:0:0:0:
195,194,101113,1,0,0:0:0:0:
216,328,101270,2,0,L|235:365,1,40
238,283,101616,5,0,0:0:0:0:
260,238,101794,1,0,0:0:0:0:
282,193,101947,1,0,0:0:0:0:
304,148,102123,1,0,0:0:0:0:
447,26,102312,6,0,B|427:80|455:84|455:84|451:120|451:120|460:138|430:167|455:180|455:180|441:207|441:207|466:223|454:265|454:265,1,262.500010013581
430,349,102879,2,0,P|402:444|410:358,1,337.499989700318
310,363,103238,6,0,B|261:357|261:357|249:331|212:365|212:365|220:334|209:338|209:338|186:340|187:360|187:360|153:351|153:351,1,200
88,332,103527,2,0,B|24:296|64:236|64:236|136:248|144:212|144:212|76:184|76:184|28:184|72:164|72:164|96:136|104:188|104:188|140:184|140:184|144:152|144:152|180:152|168:132|168:132|216:116|216:116|172:108|172:108|176:92|176:92|152:100|152:100|150:84|144:80|144:80|112:96|112:96|92:72|92:72|60:88|60:88|40:72|40:72|104:36|104:40|148:96|228:96|292:48,1,1034.99997433662
372,16,104542,2,0,B|424:88|424:88|400:104|400:104|420:104|392:132|392:132,1,150
492,192,104815,2,0,B|468:200|460:228|476:248|476:248|394:257|440:304|351:285,1,200
256,199,105647,5,0,0:0:0:0:
248,192,105720,5,0,0:0:0:0:
256,184,105794,5,0,0:0:0:0:
263,192,105867,5,0,0:0:0:0:
256,88,106136,6,0,L|328:109,1,69.9999978637696
323,107,106260,2,0,B|359:132|356:184,1,80
356,175,106388,2,0,B|355:215|355:215|322:221|343:253,1,89.9999972534181
342,252,106504,2,0,B|276:270|276:270|247:305,1,100
256,294,106626,2,0,B|208:292|208:292|207:271|207:271|182:286|186:263|186:263|162:234,1,119.999996337891
175,249,106736,2,0,B|112:199|112:199|87:130,1,145.000004425049
90,138,106864,2,0,B|78:99|121:83|121:83|136:22|201:49,1,160
186,44,106974,2,0,L|381:34,1,179.999994506836
468,175,107357,5,0,0:0:0:0:
184,333,107767,6,0,L|169:346,1,12.5
93,159,108422,6,0,B|110:108|122:106|122:106|148:97|146:81|144:77|147:69|147:69|173:45|173:45|208:52|221:28|257:53,1,225.000008583069
421,153,108626,2,0,B|420:210|420:210|428:211|431:230|431:230|445:281|388:295|388:295|344:290|377:314|377:314|336:332|332:345|408:332|453:367|295:440|306:218|273:347|273:347|245:441|263:238|233:350|233:350|205:450|218:229|162:342|162:342|143:430|135:344|135:344,1,759.999979705811
115,111,109662,5,0,0:0:0:0:
221,375,109853,1,0,0:0:0:0:
174,47,110042,1,0,0:0:0:0:
365,297,110258,1,0,0:0:0:0:
16,40,112853,6,0,P|140:104|344:248,1,385.000011749268
340,245,113116,2,0,B|440:330|440:330|448:198|260:306|260:306|320:212|320:212|348:200|348:200|448:166|448:166|340:226|328:228|332:264|404:162|404:162|440:310|364:178|364:178|336:212|244:282|228:312|312:328|312:328|368:250|368:250|340:284|340:284|312:244|312:244|392:236|392:236|268:330|268:326|364:212|364:212|408:280|408:280|296:288|296:288|296:248|296:248|308:288|308:288|404:202,1,2000
16,40,113818,5,0,0:0:0:0:
130,98,114108,1,0,0:0:0:0:
238,166,114377,1,0,0:0:0:0:
340,245,114660,1,0,0:0:0:0:
236,232,116018,6,0,L|368:192,1,125
488,188,116469,2,0,B|440:216|420:292|464:367|464:367|378:388,1,275
234,204,117733,6,0,L|257:175,1,25
249,226,117819,2,0,L|423:338,1,200
463,146,118404,1,0,0:0:0:0:
470,154,118461,1,0,0:0:0:0:
473,159,118519,2,0,P|-57:-3|49:159,1,1610.00003070831
57,61,119363,6,0,L|110:50,3,50
8,4,119960,6,0,P|100:68|256:400,1,480
268,384,120330,2,0,P|312:320|224:380,1,331.250013899804
500,32,120569,2,0,P|568:160|224:344,1,640
59,83,121167,6,0,L|115:59,3,50
263,308,121766,6,0,B|232:320|231:322|279:326|279:326|224:337|239:345|239:345|248:341|284:349|284:349|243:360,1,200
209,229,122546,2,0,L|213:258,1,25
331,80,123523,1,0,0:0:0:0:
326,121,123583,2,0,L|116:120,1,200
96,192,124059,2,0,L|300:224,1,200
64,103,124965,6,0,L|114:68,3,50
224,216,125628,5,0,0:0:0:0:
230,236,125708,1,0,0:0:0:0:
236,256,125769,1,0,0:0:0:0:
242,276,125842,1,0,0:0:0:0:
248,296,125936,1,0,0:0:0:0:
254,316,126014,1,0,0:0:0:0:
260,336,126101,1,0,0:0:0:0:
44,324,126715,5,0,0:0:0:0:
333,316,126914,1,0,0:0:0:0:
128,324,127105,1,0,0:0:0:0:
440,316,127315,1,0,0:0:0:0:
74,122,127862,6,0,L|116:78,3,50
256,383,129166,6,0,L|256:381,15,2.5
36,358,130017,6,0,P|114:330|196:224,1,200
76,363,130071,2,0,P|148:323|213:205,1,200
118,358,130125,2,0,P|183:307|228:181,1,200
156,340,130179,2,0,P|214:281|242:150,1,200
185,316,130233,2,0,P|237:252|252:120,1,200
354,340,130450,2,0,P|289:267|268:168,1,200
393,357,130503,2,0,P|318:294|284:200,1,200
435,362,130557,2,0,P|351:311|300:220,1,200
475,357,130611,2,0,P|384:320|317:229,1,200
213,346,130880,6,0,B|232:347|232:347|255:345|255:345|271:341|275:347|300:349|300:349|274:330|241:325|221:342|221:342|247:351,1,200
246,350,132905,2,0,L|246:132,1,200
508,261,133645,6,0,P|427:254|258:324,1,255.000004863739
0,181,134322,2,0,P|95:192|327:289,1,340.000006484985
398,335,135563,6,0,B|391:346|401:345|401:345|387:345|381:339|381:339|395:342|401:343|402:348|409:345|424:342|424:342|417:348|414:339|443:337|443:337|392:331|407:324|402:331|402:331|419:340|419:340|415:343|415:343|426:332|430:332|430:332|418:333|418:333|429:336|425:337|410:342,1,200
304,368,137037,6,0,L|296:348,1,12.5
304,368,137277,2,0,L|296:348,1,12.5
288,280,137541,2,0,P|272:244|200:232,1,112.5
78,273,137792,2,0,B|75:282|79:295|79:295|82:280|91:274|91:274|95:282|92:293|92:293|99:291|101:283|101:283|105:290|103:297|103:297|113:297|117:283|117:283|116:298|124:310|124:310|126:297|137:283|137:283|129:305|133:316|133:316|143:293|168:292|168:292|156:307|160:321|160:321|173:316|177:306|177:306|186:312|190:322|190:322|205:321|214:309|214:309|213:320|223:329|223:329|223:322|232:319|232:319|230:331|236:340|236:340,1,400
29,351,142029,5,0,0:0:0:0:
29,351,142773,6,0,L|159:345,1,120
197,353,143130,2,0,B|160:291|245:242|298:295|281:369|239:371|239:371|286:363|296:293|242:282|212:288,1,350
281,382,143519,1,0,0:0:0:0:
316,382,143616,1,0,0:0:0:0:
348,371,143713,1,0,0:0:0:0:
391,341,143870,1,0,0:0:0:0:
431,301,144023,1,0,0:0:0:0:
451,249,144146,2,0,P|430:214|368:171,1,100
361,128,144574,6,0,P|375:167|343:141,1,100
97,117,144963,1,0,0:0:0:0:
236,275,145191,5,0,0:0:0:0:
250,270,145239,2,0,L|270:231,1,25
270,49,145588,2,0,P|311:52|417:177,1,200
294,185,146219,6,0,P|293:158|297:182,1,100
277,222,146474,1,0,0:0:0:0:
285,262,146559,1,0,0:0:0:0:
305,293,146644,1,0,0:0:0:0:
337,312,146729,1,0,0:0:0:0:
375,312,146814,2,0,L|380:351,1,37.5
463,257,147027,1,0,0:0:0:0:
328,216,147440,2,0,P|400:168|248:120,1,350
309,129,148079,2,0,P|341:124|327:154,1,75.0000028610231
36,123,149508,6,0,L|440:190,1,400
448,236,151072,2,0,L|53:170,1,400
40,136,151294,2,0,L|439:159,1,400
456,100,151487,2,0,L|67:193,1,400
168,320,151730,5,0,0:0:0:0:
256,228,151920,1,0,0:0:0:0:
261,138,152058,1,0,0:0:0:0:
323,68,152210,2,0,B|288:192|368:192|323:333,1,259.999988098145
326,323,153032,1,0,0:0:0:0:
232,72,160330,6,0,P|329:76|392:150,1,200
232,165,160950,1,0,0:0:0:0:
295,275,161272,1,0,0:0:0:0:
367,290,161417,1,0,0:0:0:0:
140,224,161730,1,0,0:0:0:0:
175,287,161881,1,0,0:0:0:0:
232,144,162202,6,0,L|292:132,1,50,8|0,0:0|0:0,0:0:0:0:
376,152,162501,2,0,L|336:188,1,50,8|0,0:0|0:0,0:0:0:0:
16,172,162830,2,0,P|64:120|188:68,1,200
304,92,163425,1,0,0:0:0:0:
340,296,163729,6,0,B|320:248|356:200|356:200|400:248|372:296,1,200
284,368,164357,1,0,0:0:0:0:
276,284,164658,2,0,B|264:191|355:121|355:121|423:175|433:218,1,300.000011444092
443,284,165347,5,0,0:0:0:0:
492,343,165498,1,0,0:0:0:0:
417,356,165628,1,0,0:0:0:0:
200,72,165794,1,0,0:0:0:0:
248,131,165937,1,0,0:0:0:0:
173,144,166086,5,0,0:0:0:0:
404,56,166241,1,0,0:0:0:0:
427,128,166408,5,0,0:0:0:0:
352,113,166540,1,0,0:0:0:0:
88,140,166692,5,0,0:0:0:0:
111,212,166827,1,0,0:0:0:0:
36,197,166973,1,0,0:0:0:0:
172,200,167679,6,0,B|256:224|340:200|340:200|256:176|172:196,1,332.499991121292
244,200,168095,1,0,0:0:0:0:
252,196,168121,2,0,L|280:144,1,47.4999987316132
264,192,168225,2,0,P|316:136|368:96,1,139.999995727539
172,200,168798,6,0,B|256:224|340:200|340:200|256:176|172:196,1,332.499991121292
245,202,169105,1,0,0:0:0:0:
252,196,169124,2,0,L|264:138,1,47.4999987316132
262,189,169245,2,0,P|286:119|326:62,1,139.999995727539
24,326,170244,5,0,0:0:0:0:
8,286,170306,1,0,0:0:0:0:
24,246,170369,1,0,0:0:0:0:
12,222,170431,1,0,0:0:0:0:
0,166,170494,1,0,0:0:0:0:
36,118,170556,1,0,0:0:0:0:
16,98,170619,1,0,0:0:0:0:
32,62,170646,6,0,P|89:204|188:299,1,283.333338737488
203,314,171035,1,0,0:0:0:0:
222,331,171159,1,0,0:0:0:0:
232,340,171412,1,0,0:0:0:0:
235,345,171677,1,0,0:0:0:0:
263,327,171926,6,0,L|255:355,1,29.9999990844727
293,351,172435,1,0,0:0:0:0:
312,372,172671,5,0,0:0:0:0:
352,336,172953,1,0,0:0:0:0:
377,383,173182,5,0,0:0:0:0:
426,352,173344,2,0,P|430:380|446:356,1,66.6666666666667
460,342,173531,1,0,0:0:0:0:
474,304,173659,1,0,0:0:0:0:
512,384,173806,5,0,0:0:0:0:
402,286,173982,1,0,0:0:0:0:
436,237,174289,2,0,L|428:341,1,100
339,346,174613,5,0,0:0:0:0:
329,251,174764,1,0,0:0:0:0:
352,224,174917,1,0,0:0:0:0:
394,144,175081,1,0,0:0:0:0:
444,204,175251,5,0,0:0:0:0:
506,166,175426,1,0,0:0:0:0:
503,40,175601,1,0,0:0:0:0:
183,320,175839,2,0,L|191:290,1,25
304,312,176100,2,0,L|312:282,1,25
425,304,176347,2,0,L|443:232,9,66.6666666666667
448,192,177340,2,0,B|419:156|409:110|409:110|441:99|489:109|489:109|441:99|429:81|429:81|425:59|482:32|482:32|425:59|404:55|404:55|381:55|363:10|363:10|381:55|365:72|365:72|361:91|309:79|309:79|361:91|375:104|375:104|369:119|325:147|325:147|369:119|396:127,1,800
384,125,179295,5,0,0:0:0:0:
489,377,180632,5,0,0:0:0:0:
461,367,180709,1,0,0:0:0:0:
435,330,180794,1,0,0:0:0:0:
397,329,180854,1,0,0:0:0:0:
398,318,180890,1,0,0:0:0:0:
356,303,180956,1,0,0:0:0:0:
347,258,181058,1,0,0:0:0:0:
310,253,181118,1,0,0:0:0:0:
293,226,181199,1,0,0:0:0:0:
247,215,181333,1,0,0:0:0:0:
235,184,181409,1,0,0:0:0:0:
210,193,181505,1,0,0:0:0:0:
189,156,181594,1,0,0:0:0:0:
150,146,181668,1,0,0:0:0:0:
117,105,181754,1,0,0:0:0:0:
81,87,181830,1,0,0:0:0:0:
77,32,181922,1,0,0:0:0:0:
18,22,182014,6,0,P|10:-7|5:39,1,160
5,70,182543,6,0,P|33:118|475:385,1,580.000017700196
145,52,183949,6,0,B|182:57|182:57|191:42|180:34|196:38|214:41|229:54|229:54|217:62|251:62|271:32|304:65|342:64,1,200
415,68,184435,1,0,0:0:0:0:
499,32,184597,2,0,B|448:17|448:17|419:34|391:13|389:13|340:23|371:45|367:43|294:32,1,200
235,91,185071,2,0,P|196:81|236:96,1,140
235,102,185346,6,0,P|214:166|128:252,1,187.5
300,244,186539,5,0,0:0:0:0:
284,237,186681,1,0,0:0:0:0:
229,184,186831,1,0,0:0:0:0:
193,93,187003,2,0,P|145:118|108:88,1,104.999996795654
1,87,187330,2,0,P|29:108|59:88,1,75
298,97,187491,2,0,P|270:109|248:96,1,50
340,97,187721,2,0,B|381:124|413:91|413:91|428:114|461:92|461:92|483:136|520:101|520:101|540:139|578:99,2,279.999991455078
391,268,188375,1,0,0:0:0:0:
331,262,188553,1,0,0:0:0:0:
178,200,188713,1,0,0:0:0:0:
84,263,188826,2,0,L|156:297,1,75
273,310,189036,2,0,L|177:254,1,100
210,128,197106,5,0,0:0:0:0:
187,117,197138,1,0,0:0:0:0:
163,107,197171,1,0,0:0:0:0:
140,97,197203,1,0,0:0:0:0:
116,87,197236,1,0,0:0:0:0:
92,77,197269,1,0,0:0:0:0:
69,67,197301,1,0,0:0:0:0:
45,57,197334,1,0,0:0:0:0:
101,245,197437,5,0,0:0:0:0:
88,223,197495,1,0,0:0:0:0:
74,201,197541,1,0,0:0:0:0:
61,178,197598,1,0,0:0:0:0:
48,157,197646,1,0,0:0:0:0:
34,136,197696,1,0,0:0:0:0:
336,181,198611,5,0,0:0:0:0:
292,142,198674,1,0,0:0:0:0:
256,134,198783,1,0,0:0:0:0:
238,146,198876,1,0,0:0:0:0:
237,154,198984,2,0,P|256:128|168:100,1,175
153,105,199252,6,0,L|104:77,1,50
153,105,200505,6,0,L|104:77,1,50
153,105,202102,6,0,L|104:77,1,50
256,199,206976,6,0,L|266:189,1,12.5
256,200,208035,2,0,P|251:179|259:198,1,50
412,192,208394,2,0,L|412:193,3,1.5625
412,142,208925,2,0,L|412:198,1,50
248,352,219587,5,0,0:0:0:0:
248,308,219651,1,0,0:0:0:0:
248,266,219715,1,0,0:0:0:0:
248,224,219779,1,0,0:0:0:0:
248,181,219843,1,0,0:0:0:0:
248,139,219907,1,0,0:0:0:0:
248,97,219971,1,0,0:0:0:0:
248,55,220035,1,0,0:0:0:0:
336,36,220708,6,0,B|312:92|363:60|363:60|297:98|368:26|373:33|373:33|358:39|371:84|323:79|323:79|395:22|339:88,1,300
302,238,221587,5,0,0:0:0:0:
256,257,221835,1,0,0:0:0:0:
209,238,222079,1,0,0:0:0:0:
190,192,222320,1,0,0:0:0:0:
209,145,222552,1,0,0:0:0:0:
408,268,225495,5,0,0:0:0:0:
388,241,225543,1,0,0:0:0:0:
358,227,225591,1,0,0:0:0:0:
326,231,225640,1,0,0:0:0:0:
299,251,225688,1,0,0:0:0:0:
287,281,225736,1,0,0:0:0:0:
291,314,225785,1,0,0:0:0:0:
344,340,226254,2,0,L|383:331,1,40
104,348,227139,5,0,0:0:0:0:
256,348,227252,1,0,0:0:0:0:
408,348,227373,2,0,B|426:330|426:330|408:341|408:341|389:329|389:329|402:348|402:348|389:362|389:362|408:357|408:357|426:365|426:365|408:348,1,175
408,348,228579,1,0,0:0:0:0:
399,347,228646,1,0,0:0:0:0:
384,336,228686,1,0,0:0:0:0:
356,286,228751,1,0,0:0:0:0:
330,235,228796,2,0,B|218:246|198:108|97:113|97:113|51:117|66:23|63:1|49:-15|30:-9|-3:9|-3:9|127:-11|8:125|41:176|44:207|37:224|37:224|26:227|25:235|35:237|50:238|66:230|66:209|66:188|66:188|77:193|77:207|78:228|78:228|72:234|71:239|76:242|96:243|104:217|103:196|103:196|119:207|135:210|135:210|141:218|136:229|127:243|136:247|157:226|157:226|171:246|182:239|185:228|166:192|180:184|201:214|269:241|330:235|330:235|399:232|451:161|451:161|399:232|330:235,1,1500.00003576279
252,131,241522,6,0,B|396:139|286:149|286:149|398:159|96:166|206:169|206:169|98:182|399:180|286:191|286:191|397:198|98:206|205:208|205:208|94:223|398:214|285:227|285:227|397:230|97:237|206:240|206:240|98:253|394:243|286:253|286:253|390:262|234:265|234:265|233:275|233:275|279:271|279:271|280:277|280:277|245:289,1,1400
32,368,242505,5,0,0:0:0:0:
25,370,242553,1,0,0:0:0:0:
109,356,242721,1,0,0:0:0:0:
187,372,242917,1,0,0:0:0:0:
267,365,243121,1,0,0:0:0:0:
268,374,243186,2,0,B|232:354|225:374|225:374|197:364|166:381|166:381|147:355|180:364|156:374|144:373|144:371|144:371|121:367|121:367|124:399|116:372,1,200
7,357,243956,5,0,0:0:0:0:
99,312,244111,2,0,L|151:259,1,75
230,302,244354,2,0,P|267:276|318:129,1,200
176,68,244905,5,0,0:0:0:0:
208,80,244953,2,0,L|312:72,1,100
296,120,245214,1,0,0:0:0:0:
272,136,245306,1,0,0:0:0:0:
248,182,245399,2,0,P|296:192|483:108,1,259.999988098145
272,195,248338,6,0,L|260:160,1,25
152,142,253065,5,0,0:0:0:0:
232,170,253197,2,0,B|426:216|426:216|384:220|464:264|336:224,1,300
85,226,256093,2,0,P|12:177|124:212,1,400
229,233,258074,2,0,B|241:146|241:146|251:236,1,175
252,234,258366,2,0,B|289:37|289:37|273:242,1,400
280,267,259350,1,0,0:0:0:0:
280,267,259469,1,0,0:0:0:0:
280,267,259551,1,0,0:0:0:0:
280,267,259639,1,0,0:0:0:0:
280,267,259715,1,0,0:0:0:0:
280,267,259825,1,0,0:0:0:0:
280,267,259935,1,0,0:0:0:0:
213,117,261106,2,0,L|188:219,2,100
291,140,261581,2,0,L|162:344,1,225
336,244,1161140,5,0,0:0:0:0:
512,344,1161245,2,0,B|515:345|515:345|518:345|518:345|542:344|522:347|522:347|546:343|529:347|529:347|550:341|535:346|535:346|545:343|545:343|552:342|552:342|568:336|559:339|559:339|541:345|541:345|559:340|559:340|543:344|543:344|553:342|553:342|560:339|560:339|562:338|562:338|578:332|578:332|598:325|621:296|634:276,1,250
