osu file format v14

[General]
AudioFilename: history of japan.mp3
AudioLeadIn: 0
PreviewTime: 286100
Countdown: 0
SampleSet: Soft
StackLeniency: 0.2
Mode: 0
LetterboxInBreaks: 0
WidescreenStoryboard: 1

[Editor]
Bookmarks: 3409,18901,21020,27609,44342,44515,44637,55144,56508,64762,69462,82727,82895,87049,89422,91706,95207,112260,113517,121413,125678,142257,173054,177522,177549,177593,177639,177688,177738,177800,177841,177895,177928,177993,178035,178084,178126,178184,178241,178273,178305,178362,178409,178450,178498,178539,178588,178644,178684,178739,178772,178819,178860,184869,195474,209481,215119,215404,217718,229348,229723,229758,229794,229830,230660,231688,242857,243735,255736,269870,269952,273638,281859,316006,317808,324820,333391,338660,338739,339583,343165,346214,354527,358785,360195,370783,371667,373275,385451,387628,388808,390890,392638,399974,407916,419331,419765,423707,429360,434698,443874,448305,449861,456374,460789,470451,493124,496342,498915,501003,501533,501566,501598,501639,501681,501722,501742,501784,501825,501866,501887,501928,501969,501990,502031,502072,502113,502154,502196,502237,502278,502319,502340,502381,502422,502463,502484,502525,502567,502608,504913,504935,504978,504999,505041,505083,505124,505145,505187,505208,505249,505270,505291,505333,505353,505395,505416,505437,505458,505499,505520,505541,505562,505583,505624,505645,505666,505687,505728,505749,505791,505812,505833,505853,505895,505916,505937,505978,506020,506083,506103,506145,506166,506208,506228,506249,506291,523994,527498,528319,528419,528538,528762,528815,529220,529330,529430,529538,530944,530997,531049,531484,532657,534882,534918,534955,535281,538112,538778
DistanceSpacing: 3.1
BeatDivisor: 8
GridSize: 4
TimelineZoom: 8

[Metadata]
Title:history of japan
TitleUnicode:history of japan
Artist:bill wurtz
ArtistUnicode:bill wurtz
Creator:doggu
Version:sunrise land
Source:
Tags:\
BeatmapID:1063867
BeatmapSetID:499953

[Difficulty]
HPDrainRate:3
CircleSize:4.2
OverallDifficulty:8.3
ApproachRate:9.4
SliderMultiplier:1.4
SliderTickRate:1

[Events]
//Background and Video events
0,0,"background with words.png",0,0
Video,0,"history of japan.avi"
//Break Periods
2,121788,125124
2,137110,141379
2,505158,518580
//Storyboard Layer 0 (Background)
//Storyboard Layer 1 (Fail)
//Storyboard Layer 2 (Pass)
//Storyboard Layer 3 (Foreground)
//Storyboard Sound Samples

[TimingPoints]
101,333.333333333333,4,2,0,5,1,0
1434,419.58041958042,4,2,0,10,1,0
1434,-142.857142857143,4,2,0,10,0,0
1853,375,4,2,0,10,1,0
2228,535.714285714286,4,2,0,10,1,0
2361,645.161290322581,4,2,0,10,1,0
2522,447.761194029851,4,2,0,10,1,0
2745,517.241379310345,4,2,0,10,1,0
3003,384.615384615385,4,2,0,10,1,0
3195,600,4,2,0,10,1,0
3195,-83.3333333333333,4,2,0,10,0,0
3345,517.241379310345,4,2,0,10,1,0
3409,461.538461538462,4,2,0,10,1,0
3524,344.827586206897,4,2,0,10,1,0
3524,-83.3333333333333,4,2,0,10,0,0
3696,309.278350515464,4,2,0,10,1,0
3850,361.44578313253,4,2,0,10,1,0
3850,-66.6666666666667,4,3,0,10,0,0
4211,454.545454545455,4,3,0,10,1,0
4438,447.761194029851,4,2,0,10,1,0
4438,-62.5,4,1,0,10,0,0
5333,331.491712707182,4,2,0,10,1,0
5498,454.545454545455,4,2,0,10,1,0
5611,326.086956521739,4,2,0,10,1,0
5692,315.789473684211,4,2,0,10,1,0
5810,363.636363636364,4,2,0,10,1,0
5900,428.571428571429,4,2,0,10,1,0
6007,337.078651685393,4,2,0,10,1,0
6091,500,4,2,0,10,1,0
6216,370.37037037037,4,2,0,10,1,0
6308,389.61038961039,4,2,0,10,1,0
6405,517.241379310345,4,2,0,10,1,0
6534,638.297872340426,4,2,0,10,1,0
6853,681.818181818182,4,2,0,10,1,0
7536,624.187256176853,4,2,0,10,1,0
8784,413.793103448276,4,2,0,10,1,0
8887,495.867768595041,4,2,0,10,1,0
9010,500,4,2,0,10,1,0
9510,465.116279069767,4,2,0,10,1,0
9975,419.58041958042,4,2,0,10,1,0
10079,413.793103448276,4,2,0,10,1,0
10182,500,4,2,0,10,1,0
10307,517.241379310345,4,2,0,10,1,0
10436,368.098159509202,4,2,0,10,1,0
10619,521.739130434783,4,2,0,10,1,0
11140,483.870967741935,4,2,0,10,1,0
11200,571.428571428571,4,2,0,10,1,0
11271,521.739130434783,4,2,0,10,1,0
11466,337.078651685393,4,2,0,10,1,0
11803,689.655172413792,4,2,0,10,1,0
11803,-76.9230769230769,4,2,0,10,0,0
12492,553.63321799308,4,2,0,10,1,0
12768,491.803278688525,4,2,0,10,1,0
12952,431.654676258993,4,2,0,10,1,0
13060,446.096654275093,4,2,0,10,1,0
13952,483.870967741935,4,2,0,10,1,0
14133,621.761658031088,4,2,0,10,1,0
14288,555.555555555556,4,2,0,10,1,0
14357,759.493670886076,4,2,0,10,1,0
14357,-50,4,2,0,10,0,0
15117,493.827160493827,4,2,0,5,1,0
15610,367.816091954023,4,2,0,10,1,0
15610,-58.8235294117647,4,2,0,10,0,0
15632,-100,4,2,0,5,0,0
16345,283.018867924528,4,2,0,5,1,0
16628,284.36018957346,4,2,0,10,1,0
16770,348.837209302326,4,2,0,10,1,0
16944,594.059405940594,4,2,0,5,1,0
17538,348.837209302326,4,2,0,10,1,0
17559,329.67032967033,4,2,0,10,1,0
17847,-100,4,2,0,5,0,0
17888,333.333333333333,4,2,0,10,1,0
18097,284.36018957346,4,2,0,10,1,0
18310,-100,4,2,0,5,0,0
18381,330.123796423659,4,2,0,10,1,0
18711,322.58064516129,4,2,0,10,1,0
18751,300,4,2,0,10,1,0
18901,327.868852459016,4,2,0,10,1,0
19228,394.736842105263,4,2,0,10,1,0
19277,304.568527918782,4,2,0,10,1,0
19505,-100,4,2,0,5,0,0
19581,368.098159509202,4,2,0,10,1,0
19948,352.941176470588,4,2,0,10,1,0
20256,-100,4,2,0,5,0,0
20301,365.853658536585,4,2,0,10,1,0
20483,335.195530726257,4,2,0,10,1,0
20650,-100,4,2,0,5,0,0
20818,405.405405405405,4,2,0,10,1,0
20818,-166.666666666667,4,2,0,10,0,0
20970,-100,4,2,0,5,0,0
21020,304.568527918782,4,2,0,10,1,0
21020,-71.4285714285714,4,2,0,10,0,0
21134,-100,4,2,0,5,0,0
21172,333.333333333333,4,2,0,10,1,0
21213,340.909090909091,4,2,0,10,1,0
21553,359.281437125748,4,2,0,10,1,0
21732,334.261838440111,4,2,0,10,1,0
22066,329.67032967033,4,2,0,10,1,0
22230,444.444444444444,4,2,0,10,1,0
22341,495.867768595041,4,2,0,10,1,0
22464,389.61038961039,4,2,0,10,1,0
22561,470.588235294118,4,2,0,10,1,0
22678,480,4,2,0,10,1,0
22798,463.320463320463,4,2,0,10,1,0
22913,444.444444444444,4,2,0,10,1,0
23024,437.956204379562,4,2,0,10,1,0
23133,377.358490566038,4,2,0,10,1,0
23227,542.986425339367,4,2,0,10,1,0
23362,309.278350515464,4,2,0,10,1,0
23362,-200,4,2,0,10,0,0
23516,375,4,2,0,10,1,0
23891,356.612184249629,4,2,0,5,1,0
23891,-100,4,2,0,5,0,0
24247,375,4,2,0,10,1,0
24247,-100,4,2,0,10,0,0
24622,519.480519480519,4,2,0,10,1,0
24881,394.736842105263,4,2,0,10,1,0
26459,424.403183023873,4,2,0,10,1,0
26883,375,4,2,0,10,1,0
27633,499.479708636837,4,2,0,10,1,0
28132,508.474576271186,4,2,0,10,1,0
28640,517.241379310345,4,2,0,5,1,0
28640,-100,4,2,0,5,0,0
29157,382.165605095541,4,2,0,10,1,0
29252,468.75,4,2,0,10,1,0
29720,489.795918367347,4,2,0,10,1,0
29964,425.531914893617,4,2,0,10,1,0
30362,-100,4,2,0,5,0,0
30390,506.329113924051,4,2,0,10,1,0
30643,517.241379310345,4,2,0,10,1,0
30901,509.554140127389,4,2,0,10,1,0
31155,559.440559440559,4,2,0,10,1,0
31434,607.594936708861,4,2,0,10,1,0
31737,646.900269541779,4,2,0,10,1,0
32060,743.034055727554,4,2,0,10,1,0
32431,434.782608695652,4,2,0,10,1,0
32865,331.491712707182,4,2,0,10,1,0
34190,508.474576271186,4,2,0,10,1,0
34698,526.315789473684,4,2,0,5,1,0
34698,-100,4,2,0,5,0,0
35224,335.195530726257,4,2,0,10,1,0
35265,310.880829015544,4,2,0,10,1,0
35342,357.142857142857,4,2,0,10,1,0
35342,-125,4,2,0,10,0,0
35699,405.063291139241,4,2,0,10,1,0
37319,618.556701030928,4,2,0,10,1,0
38556,420.31523642732,4,2,0,5,1,0
39396,597.758405977584,4,2,0,10,1,0
39993,764.331210191083,4,2,0,10,1,0
40184,754.716981132075,4,2,0,10,1,0
40372,843.585237258348,4,2,0,10,1,0
40372,-62.5,4,2,0,10,0,0
40424,-100,4,2,0,5,0,0
40582,800,4,2,0,10,1,0
40582,-50,4,2,0,10,0,0
40782,297.029702970297,4,2,0,10,1,0
40856,342.857142857143,4,2,0,10,1,0
40941,344.827586206897,4,2,0,10,1,0
41027,256.410256410256,4,2,0,10,1,0
41091,375,4,2,0,10,1,0
41184,372.670807453416,4,2,0,10,1,0
41556,419.58041958042,4,2,0,10,1,0
41765,375,4,2,0,10,1,0
41952,410.958904109589,4,2,0,10,1,0
42362,405.405405405405,4,2,0,10,1,0
42564,359.281437125748,4,2,0,10,1,0
42743,402.684563758389,4,2,0,10,1,0
43145,433.212996389892,4,2,0,10,1,0
43361,365.853658536585,4,2,0,10,1,0
43543,365.853658536585,4,2,0,10,1,0
43726,454.545454545455,4,2,0,10,1,0
43953,433.212996389892,4,2,0,10,1,0
44169,833.333333333333,4,2,0,10,1,0
44377,555.555555555556,4,2,0,10,1,0
44515,491.803278688525,4,2,0,10,1,0
44637,277.777777777778,4,1,0,10,1,0
44914,258.620689655172,4,1,0,10,1,0
45172,362.537764350453,4,1,0,10,1,0
45534,387.096774193548,4,1,0,10,1,0
45921,370.37037037037,4,1,0,10,1,0
46291,352.941176470588,4,1,0,10,1,0
46643,340.909090909091,4,1,0,10,1,0
47324,451.127819548872,4,2,0,10,1,0
47324,-200,4,2,0,10,0,0
49128,370.942812982998,4,2,0,10,1,0
49313,461.538461538462,4,2,0,10,1,0
49543,331.491712707182,4,2,0,10,1,0
50205,387.096774193548,4,2,0,10,1,0
50301,487.80487804878,4,2,0,10,1,0
50422,458.015267175573,4,2,0,10,1,0
50536,402.684563758389,4,2,0,10,1,0
50737,465.116279069767,4,2,0,10,1,0
51667,357.675111773472,4,2,0,10,1,0
52024,422.535211267606,4,2,0,10,1,0
52235,582.52427184466,4,2,0,10,1,0
52526,612.244897959184,4,2,0,10,1,0
53138,750,4,2,0,5,1,0
53138,-100,4,2,0,5,0,0
53325,384.923817161187,4,2,0,10,1,0
54094,564.705882352941,4,2,0,10,1,0
54376,616.966580976864,4,2,0,10,1,0
54684,571.428571428571,4,2,0,10,1,0
54969,701.754385964912,4,2,0,5,1,0
55144,600,4,2,0,5,1,0
55444,659.340659340659,4,2,0,10,1,0
55608,824.742268041237,4,2,0,10,1,0
55608,-55.5555555555556,4,2,0,10,0,0
56432,-71.4285714285714,4,2,0,10,0,0
56508,441.176470588235,4,2,0,10,1,0
56535,441.176470588235,4,2,0,10,1,0
56755,389.61038961039,4,2,0,10,1,0
56852,542.986425339367,4,2,0,5,1,0
56987,330.578512396694,4,2,0,10,1,0
57648,405.405405405405,4,2,0,10,1,0
57850,466.926070038911,4,2,0,10,1,0
57966,571.428571428571,4,2,0,10,1,0
58108,530.973451327434,4,2,0,10,1,0
58240,620.15503875969,4,2,0,10,1,0
58395,434.782608695652,4,2,0,5,1,0
58612,512.820512820513,4,2,0,5,1,0
59124,454.545454545455,4,2,0,10,1,0
59237,348.837209302326,4,2,0,5,1,0
59411,440.366972477064,4,2,0,10,1,0
60291,279.06976744186,4,2,0,10,1,0
60360,251.046025104603,4,2,0,10,1,0
60485,379.746835443038,4,2,0,10,1,0
60485,-66.6666666666667,4,2,0,10,0,0
60674,585.365853658537,4,2,0,10,1,0
60820,256.410256410256,4,2,0,10,1,0
61076,295.566502463054,4,2,0,10,1,0
61223,263.157894736842,4,2,0,10,1,0
61486,263.157894736842,4,2,0,10,1,0
62194,454.545454545455,4,2,0,10,1,0
62307,487.80487804878,4,2,0,10,1,0
62307,-83.3333333333333,4,2,0,10,0,0
62794,275.229357798165,4,2,0,10,1,0
64762,333.333333333333,4,2,0,10,1,0
64809,408.163265306122,4,2,0,10,1,0
65013,609.137055837563,4,2,0,10,1,0
65317,380.952380952381,4,2,0,10,1,0
65507,576.923076923077,4,2,0,10,1,0
66011,-100,4,2,0,5,0,0
66083,1138.20615384615,4,2,0,10,1,0
66083,-50,4,2,0,10,0,0
67078,-50,4,2,0,5,0,0
67221,941.176470588235,4,2,0,10,1,0
67221,-50,4,2,0,10,0,0
68046,-50,4,2,0,5,0,0
68162,612.244897959184,4,2,0,10,1,0
68162,-83.3333333333333,4,2,0,10,0,0
68315,-83.3333333333333,4,2,0,5,0,0
68774,-83.3333333333333,4,2,0,10,0,0
68927,-83.3333333333333,4,2,0,5,0,0
69386,555.555555555556,4,2,0,5,1,0
69524,419.58041958042,4,2,0,10,1,0
69838,521.739130434783,4,2,0,10,1,0
69838,-111.111111111111,4,2,0,10,0,0
70359,301.507537688442,4,2,0,5,1,0
70359,-100,4,2,0,5,0,0
70660,434.782608695652,4,2,0,10,1,0
70660,-111.111111111111,4,2,0,10,0,0
70769,545.454545454546,4,2,0,10,1,0
70769,-166.666666666667,4,2,0,10,0,0
70905,437.956204379562,4,2,0,10,1,0
71671,576.923076923077,4,2,0,10,1,0
71815,346.070656092286,4,2,0,5,1,0
71815,-100,4,2,0,5,0,0
73199,600,4,2,0,10,1,0
73349,458.015267175573,4,2,0,5,1,0
73349,600,4,2,0,5,1,0
73349,-100,4,2,0,5,0,0
73807,317.880794701987,4,2,0,10,1,0
76350,335.195530726257,4,2,0,10,1,0
76517,340.909090909091,4,2,0,10,1,0
76687,402.684563758389,4,2,0,10,1,0
76787,400,4,2,0,10,1,0
77187,433.60433604336,4,2,0,10,1,0
77620,359.281437125748,4,2,0,10,1,0
77709,326.086956521739,4,2,0,10,1,0
77872,394.736842105263,4,2,0,10,1,0
77872,-76.9230769230769,4,2,0,10,0,0
78020,-100,4,2,0,5,0,0
78069,410.958904109589,4,2,0,10,1,0
79301,600,4,2,0,10,1,0
80501,601.250938673342,4,2,0,10,1,0
81703,361.44578313253,4,2,0,10,1,0
81793,545.454545454546,4,2,0,10,1,0
81929,705.882352941176,4,2,0,5,1,0
82458,295.566502463054,4,2,0,5,1,0
82753,297.029702970297,4,2,0,10,1,0
82901,291.26213592233,4,2,0,10,1,0
83046,319.148936170213,4,2,0,10,1,0
83365,680.851063829787,4,2,0,10,1,0
83365,-100,4,2,0,10,0,0
85109,363.636363636364,4,2,0,10,1,0
85828,521.739130434783,4,2,0,10,1,0
85958,437.956204379562,4,2,0,10,1,0
86067,652.173913043478,4,2,0,10,1,0
86230,370.37037037037,4,2,0,10,1,0
86322,560.747663551402,4,2,0,10,1,0
86462,491.803278688525,4,2,0,10,1,0
86584,419.58041958042,4,2,0,10,1,0
86688,491.803278688525,4,2,0,10,1,0
86810,530.973451327434,4,2,0,10,1,0
86942,431.654676258993,4,2,0,10,1,0
87049,437.956204379562,4,2,0,10,1,0
87158,458.015267175573,4,2,0,10,1,0
87272,458.015267175573,4,2,0,10,1,0
87386,491.803278688525,4,2,0,10,1,0
87508,441.176470588235,4,2,0,10,1,0
87618,500,4,2,0,10,1,0
87743,397.350993377483,4,2,0,10,1,0
87842,416.666666666667,4,2,0,10,1,0
87946,361.44578313253,4,2,0,10,1,0
88036,497.92531120332,4,2,0,10,1,0
88160,198.675496688742,4,2,0,10,1,0
88160,-75.187969924812,4,2,0,10,0,0
88954,468.75,4,2,0,10,1,0
89422,491.803278688525,4,2,0,10,1,0
89667,338.983050847458,4,2,0,10,1,0
89751,352.941176470588,4,2,0,10,1,0
89927,491.803278688525,4,2,0,10,1,0
90049,416.666666666667,4,2,0,10,1,0
90256,689.655172413793,4,2,0,10,1,0
90428,425.531914893617,4,2,0,10,1,0
90640,400,4,2,0,10,1,0
90773,526.315789473684,4,2,0,10,1,0
90860,666.666666666667,4,2,0,10,1,0
91526,361.44578313253,4,2,0,10,1,0
91706,317.460317460317,4,2,0,10,1,0
91864,287.081339712919,4,2,0,10,1,0
92007,307.692307692308,4,2,0,10,1,0
92160,297.029702970297,4,2,0,10,1,0
92308,337.078651685393,4,2,0,10,1,0
92476,319.148936170213,4,2,0,10,1,0
92635,306.122448979592,4,2,0,10,1,0
92788,355.029585798817,4,2,0,10,1,0
92965,350.877192982456,4,2,0,10,1,0
93140,350.877192982456,4,2,0,10,1,0
93315,264.31718061674,4,2,0,10,1,0
93447,292.682926829268,4,2,0,10,1,0
93593,363.636363636364,4,2,0,10,1,0
93774,358.476474981329,4,2,0,10,1,0
95207,786.885245901639,4,2,0,10,1,0
95207,-66.6666666666667,4,2,0,10,0,0
95993,491.803278688525,4,2,0,10,1,0
96238,283.018867924528,4,2,0,10,1,0
96308,288.461538461538,4,2,0,10,1,0
96380,357.142857142857,4,2,0,10,1,0
96469,265.486725663717,4,2,0,10,1,0
96535,297.029702970297,4,2,0,10,1,0
96609,281.69014084507,4,2,0,10,1,0
96679,223.048327137546,4,2,0,10,1,0
96734,425.531914893617,4,2,0,10,1,0
96764,-100,4,2,0,5,0,0
97585,389.61038961039,4,2,0,10,1,0
97585,-66.6666666666667,4,2,0,10,0,0
97633,-66.6666666666667,4,2,0,5,0,0
97682,-50,4,2,0,10,0,0
97779,344.332855093257,4,2,0,5,1,0
97779,-100,4,2,0,5,0,0
98467,582.52427184466,4,2,0,10,1,0
98467,-83.3333333333333,4,2,0,10,0,0
98758,422.535211267606,4,2,0,10,1,0
98969,425.531914893617,4,2,0,10,1,0
99181,506.329113924051,4,2,0,10,1,0
99434,550.45871559633,4,2,0,10,1,0
99915,-100,4,2,0,5,0,0
99983,384.615384615385,4,2,0,10,1,0
99983,-100,4,2,0,10,0,0
100367,317.460317460317,4,2,0,10,1,0
100406,379.14691943128,4,2,0,10,1,0
101164,400,4,2,0,10,1,0
101264,402.684563758389,4,2,0,10,1,0
101364,600,4,2,0,10,1,0
101514,504.201680672269,4,2,0,10,1,0
101640,370.37037037037,4,2,0,10,1,0
101732,375,4,2,0,10,1,0
102683,379.746835443038,4,2,0,10,1,0
102873,352.941176470588,4,2,0,10,1,0
103225,-100,4,2,0,5,0,0
103442,350.877192982456,4,2,0,10,1,0
103442,-27.027027027027,4,2,0,10,0,0
103742,400,4,2,0,10,1,0
103830,545.454545454546,4,2,0,10,1,0
103830,-20,4,2,0,10,0,0
104375,434.782608695652,4,2,0,10,1,0
104483,444.444444444444,4,2,0,10,1,0
104594,317.460317460317,4,2,0,10,1,0
104752,405.405405405405,4,2,0,10,1,0
104853,428.571428571429,4,2,0,10,1,0
104986,428.571428571429,4,2,0,10,1,0
105121,566.037735849057,4,2,0,10,1,0
106028,428.571428571429,4,2,0,10,1,0
106285,315.789473684211,4,2,0,10,1,0
106442,512.820512820513,4,2,0,10,1,0
106442,-62.5,4,2,0,10,0,0
106955,315.789473684211,4,2,0,10,1,0
107035,315.789473684211,4,2,0,10,1,0
107035,-200,4,2,0,10,0,0
107431,468.75,4,2,0,10,1,0
107431,-25,4,2,0,10,0,0
107899,-100,4,2,0,10,0,0
108723,465.116279069767,4,2,0,10,1,0
109337,361.44578313253,4,2,0,10,1,0
109698,312.5,4,2,0,10,1,0
109854,458.015267175573,4,2,0,10,1,0
110197,337.078651685393,4,2,0,10,1,0
110197,-142.857142857143,4,2,0,10,0,0
110534,638.297872340426,4,2,0,10,1,0
110534,-83.3333333333333,4,2,0,10,0,0
111172,731.707317073171,4,2,0,10,1,0
111539,342.857142857143,4,2,0,10,1,0
111881,379.746835443038,4,2,0,10,1,0
112260,359.281437125748,4,2,0,10,1,0
113698,333.333333333333,4,2,0,5,1,0
114523,521.739130434783,4,2,0,10,1,0
114783,272.727272727273,4,2,0,10,1,0
114919,497.92531120332,4,2,0,10,1,0
115168,428.571428571429,4,2,0,10,1,0
115328,-100,4,2,0,5,0,0
115382,594.059405940594,4,2,0,10,1,0
116566,333.333333333333,4,2,0,10,1,0
117289,200,4,2,0,10,1,0
117289,-12.5,4,2,0,10,0,0
117339,373.831775700935,4,2,0,5,1,0
117339,-100,4,2,0,5,0,0
118086,461.538461538462,4,2,0,10,1,0
118086,-83.3333333333333,4,2,0,10,0,0
119239,571.428571428571,4,2,0,10,1,0
119239,-66.6666666666667,4,2,0,10,0,0
119899,389.61038961039,4,2,0,10,1,0
119899,-76.9230769230769,4,2,0,10,0,0
120248,530.973451327434,4,2,0,10,1,0
120447,-52.6315789473684,4,2,0,10,0,0
120648,521.739130434783,4,2,0,10,1,0
121224,379.746835443038,4,2,0,10,1,0
121224,-71.4285714285714,4,2,0,10,0,0
121413,287.081339712919,4,2,0,5,1,0
121511,310.880829015544,4,2,0,10,1,0
121511,-200,4,2,0,10,0,0
121588,333.333333333333,4,2,0,10,1,0
125344,333.333333333333,4,2,0,10,1,0
125678,451.127819548872,4,2,0,10,1,0
125678,-100,4,2,0,10,0,0
126133,375,4,2,0,10,1,0
126455,361.44578313253,4,2,0,10,1,0
126545,405.405405405405,4,2,0,10,1,0
128317,491.803278688525,4,2,0,10,1,0
128808,338.983050847458,4,2,0,10,1,0
129485,389.61038961039,4,2,0,10,1,0
129874,428.571428571429,4,2,0,10,1,0
130231,-100,4,2,0,10,0,0
130302,331.491712707182,4,2,0,10,1,0
130965,434.782608695652,4,2,0,10,1,0
131484,461.538461538462,4,2,0,10,1,0
131533,517.241379310345,4,2,0,10,1,0
132951,1176.47058823529,4,2,0,10,1,0
132951,-50,4,2,0,10,0,0
134127,638.297872340426,4,2,0,5,1,0
134765,333.333333333333,4,2,0,10,1,0
134848,366.97247706422,4,2,0,10,1,0
135031,335.195530726257,4,2,0,10,1,0
135198,375,4,2,0,10,1,0
135291,279.06976744186,4,2,0,10,1,0
135430,363.636363636364,4,2,0,10,1,0
135611,352.941176470588,4,2,0,10,1,0
135787,361.44578313253,4,2,0,10,1,0
135877,297.029702970297,4,2,0,10,1,0
136025,398.671096345515,4,2,0,10,1,0
136224,340.909090909091,4,2,0,10,1,0
136394,357.142857142857,4,2,0,10,1,0
136483,352.941176470588,4,2,0,10,1,0
136659,364.864963477017,4,2,0,10,1,0
136841,555.555555555556,4,2,0,10,1,0
137086,333.333333333333,4,2,0,10,1,0
141599,333.333333333333,4,2,0,10,1,0
141933,324.324324324324,4,2,0,10,1,0
141933,-125,4,2,0,10,0,0
143361,563.380281690141,4,2,0,10,1,0
143548,535.714285714286,4,2,0,10,1,0
143637,606.060606060606,4,2,0,10,1,0
143950,400,4,2,0,10,1,0
143950,-142.857142857143,4,2,0,10,0,0
144276,779.220779220779,4,2,0,10,1,0
145152,600,4,2,0,10,1,0
145468,930.232558139535,4,2,0,10,1,0
145468,-25,4,2,0,10,0,0
146679,545.454545454546,4,2,0,10,1,0
146884,508.474576271186,4,2,0,10,1,0
147673,333.333333333333,4,2,0,10,1,0
147829,333.333333333333,4,2,0,10,1,0
148127,442.80442804428,4,2,0,10,1,0
148348,483.870967741935,4,2,0,10,1,0
148468,379.746835443038,4,2,0,10,1,0
148468,-83.3333333333333,4,2,0,10,0,0
148889,255.31914893617,4,2,0,10,1,0
149391,923.076923076923,4,2,0,10,1,0
149391,-25,4,2,0,10,0,0
150660,416.666666666667,4,2,0,10,1,0
151389,508.474576271186,4,2,0,10,1,0
151511,508.474576271186,4,2,0,10,1,0
151643,508.474576271186,4,2,0,10,1,0
151769,508.474576271186,4,2,0,10,1,0
151903,508.474576271186,4,2,0,10,1,0
152024,508.474576271186,4,2,0,10,1,0
152720,508.474576271186,4,2,0,10,1,0
152835,508.474576271186,4,2,0,10,1,0
152952,535.714285714286,4,2,0,10,1,0
153100,535.714285714286,4,2,0,10,1,0
153233,535.714285714286,4,2,0,10,1,0
153380,535.714285714286,4,2,0,10,1,0
153590,348.837209302326,4,2,0,10,1,0
153938,434.782608695652,4,2,0,10,1,0
154229,-100,4,2,0,10,0,0
154659,434.782608695652,4,2,0,10,1,0
154767,-100,4,2,0,5,0,0
154876,-100,4,2,0,10,0,0
154985,-100,4,2,0,5,0,0
155093,-100,4,2,0,10,0,0
155202,-100,4,2,0,5,0,0
155311,-100,4,2,0,10,0,0
155419,437.956204379562,4,2,0,5,1,0
155669,346.820809248555,4,2,0,10,1,0
156185,346.820809248555,4,2,0,10,1,0
156360,346.820809248555,4,2,0,10,1,0
156610,346.820809248555,4,2,0,10,1,0
157602,266.666666666667,4,2,0,10,1,0
157602,-66.6666666666667,4,2,0,10,0,0
159481,377.358490566038,4,2,0,10,1,0
159528,246.913580246914,4,2,0,10,1,0
159589,487.80487804878,4,2,0,10,1,0
160545,408.163265306122,4,2,0,10,1,0
160698,952.380952380952,4,2,0,10,1,0
160698,-50,4,2,0,10,0,0
161656,480,4,2,0,10,1,0
161656,-83.3333333333333,4,2,0,10,0,0
162076,-83.3333333333333,4,2,0,5,0,0
162138,384.615384615385,4,2,0,10,1,0
162342,270.27027027027,4,2,0,10,1,0
162517,352.941176470588,4,2,0,10,1,0
162845,582.52427184466,4,2,0,10,1,0
163408,500,4,2,0,10,1,0
163678,480,4,2,0,10,1,0
163978,270.27027027027,4,2,0,10,1,0
164669,428.571428571429,4,2,0,10,1,0
164750,428.571428571429,4,2,0,10,1,0
164865,504.201680672269,4,2,0,10,1,0
164992,375,4,2,0,10,1,0
164992,-12.5,4,2,0,10,0,0
165085,333.333333333333,4,2,0,5,1,0
165802,483.870967741935,4,2,0,10,1,0
166983,428.571428571429,4,2,0,10,1,0
167830,240,4,2,0,10,1,0
167988,300,4,2,0,10,1,0
168805,428.571428571429,4,2,0,10,1,0
169948,377.358490566038,4,2,0,10,1,0
172667,600,4,2,0,10,1,0
173054,495.867768595041,4,2,0,10,1,0
173177,419.58041958042,4,2,0,10,1,0
173229,526.315789473684,4,2,0,10,1,0
173491,623.376623376623,4,2,0,10,1,0
173802,454.115421002838,4,2,0,10,1,0
174710,472.44094488189,4,2,0,10,1,0
174769,312.5,4,2,0,10,1,0
174847,437.956204379562,4,2,0,10,1,0
174901,760.697305863708,4,2,0,10,1,0
174901,-50,4,2,0,10,0,0
175661,384.615384615385,4,2,0,10,1,0
175937,526.315789473684,4,2,0,10,1,0
176068,526.315789473684,4,2,0,10,1,0
176123,526.315789473684,4,2,0,10,1,0
176185,526.315789473684,4,2,0,10,1,0
176397,487.80487804878,4,2,0,10,1,0
176889,384.615384615385,4,2,0,10,1,0
177081,441.176470588235,4,2,0,10,1,0
177522,281.359906213365,4,1,0,10,1,0
177709,-100,4,1,0,10,0,0
177897,-90.9090909090909,4,1,0,10,0,0
178084,-83.3333333333333,4,1,0,10,0,0
178272,-71.4285714285714,4,1,0,10,0,0
178459,-55.5555555555556,4,1,0,10,0,0
178647,-52.6315789473684,4,1,0,10,0,0
178835,-50,4,1,0,10,0,0
178928,400,4,3,0,25,1,0
180528,521.739130434783,4,2,0,10,1,0
180528,-100,4,3,0,5,0,0
180791,408.163265306122,4,2,0,10,1,0
181214,428.571428571429,4,2,0,10,1,0
181663,888.888888888889,4,2,0,10,1,0
181663,-50,4,2,0,10,0,0
182551,-50,4,1,0,100,0,0
182552,-50,4,2,0,100,0,0
182607,-50,4,2,0,5,0,0
183140,535.714285714286,4,2,0,10,1,0
183140,-200,4,2,0,10,0,0
183407,309.278350515464,4,2,0,10,1,0
183407,-142.857142857143,4,2,0,10,0,0
183561,674.157303370787,4,2,0,10,1,0
183561,-55.5555555555556,4,2,0,10,0,0
183729,571.428571428571,4,2,0,10,1,0
183729,-50,4,2,0,10,0,0
183871,638.297872340426,4,2,0,10,1,0
183871,-40,4,2,0,10,0,0
184030,428.571428571429,4,2,0,10,1,0
184030,-33.3333333333333,4,2,0,10,0,0
184137,428.571428571429,4,2,0,10,1,0
184137,-10,4,2,0,10,0,0
184869,545.454545454546,4,2,0,10,1,0
185017,545.454545454546,4,2,0,10,1,0
185154,545.454545454546,4,2,0,10,1,0
185291,545.454545454546,4,2,0,10,1,0
185432,483.870967741935,4,2,0,10,1,0
185548,483.870967741935,4,2,0,10,1,0
185677,483.870967741935,4,2,0,10,1,0
185828,526.315789473684,4,2,0,10,1,0
185957,526.315789473684,4,2,0,10,1,0
186096,526.315789473684,4,2,0,10,1,0
186223,526.315789473684,4,2,0,10,1,0
186369,526.315789473684,4,2,0,10,1,0
186499,526.315789473684,4,2,0,10,1,0
186635,526.315789473684,4,2,0,10,1,0
186781,545.454545454546,4,2,0,10,1,0
186920,545.454545454546,4,2,0,10,1,0
187069,545.454545454546,4,2,0,10,1,0
187191,545.454545454546,4,2,0,10,1,0
187327,576.923076923077,4,2,0,10,1,0
187483,576.923076923077,4,2,0,10,1,0
187608,576.923076923077,4,2,0,10,1,0
187759,576.923076923077,4,2,0,10,1,0
187911,576.923076923077,4,2,0,10,1,0
188019,571.428571428571,4,2,0,10,1,0
188166,571.428571428571,4,2,0,10,1,0
188307,571.428571428571,4,2,0,10,1,0
188452,571.428571428571,4,2,0,10,1,0
188578,397.350993377483,4,2,0,10,1,0
188781,397.350993377483,4,2,0,10,1,0
189006,454.545454545455,4,2,0,5,1,0
189006,-83.3333333333333,4,2,0,5,0,0
191118,500,4,2,0,10,1,0
191118,-50,4,2,0,10,0,0
191368,400,4,2,0,10,1,0
191368,-66.6666666666667,4,2,0,10,0,0
191924,375,4,2,0,10,1,0
191924,-76.9230769230769,4,2,0,10,0,0
192684,270.27027027027,4,2,0,10,1,0
192971,638.297872340426,4,2,0,10,1,0
192971,-55.5555555555556,4,2,0,10,0,0
193759,600.000000000001,4,2,0,10,1,0
193759,-25,4,2,0,10,0,0
194021,-200,4,2,0,5,0,0
194059,-20,4,2,0,10,0,0
194996,428.571428571429,4,2,0,10,1,0
195474,428.571428571429,4,2,0,10,1,0
195589,428.571428571429,4,2,0,10,1,0
195685,346.820809248555,4,2,0,10,1,0
195785,535.714285714286,4,2,0,10,1,0
195908,428.571428571429,4,2,0,10,1,0
196019,540.540540540541,4,2,0,10,1,0
196146,359.281437125748,4,2,0,10,1,0
196247,500,4,2,0,10,1,0
196367,500,4,2,0,10,1,0
196494,476.190476190476,4,2,0,10,1,0
196602,400,4,2,0,10,1,0
196701,400,4,2,0,10,1,0
196805,400,4,2,0,10,1,0
196907,451.127819548872,4,2,0,10,1,0
197144,517.241379310345,4,2,0,10,1,0
197281,285.714285714286,4,2,0,10,1,0
197424,600,4,2,0,10,1,0
197556,540.540540540541,4,2,0,10,1,0
197701,540.540540540541,4,2,0,10,1,0
197768,540.540540540541,4,2,0,10,1,0
197828,444.444444444444,4,2,0,10,1,0
198444,480,4,2,0,10,1,0
198672,480,4,2,0,10,1,0
199158,491.803278688525,4,2,0,10,1,0
199644,718.562874251497,4,2,0,10,1,0
199644,-66.6666666666667,4,2,0,10,0,0
200362,-100,4,2,0,10,0,0
200915,419.58041958042,4,2,0,10,1,0
202582,342.857142857143,4,2,0,10,1,0
202667,280.373831775701,4,2,0,10,1,0
202667,-125,4,2,0,10,0,0
202947,352.941176470588,4,2,0,10,1,0
203124,287.081339712919,4,2,0,10,1,0
203267,285.714285714286,4,2,0,10,1,0
205788,454.545454545455,4,2,0,10,1,0
207605,327.868852459016,4,2,0,10,1,0
208017,428.571428571429,4,2,0,10,1,0
208049,428.571428571429,4,2,0,10,1,0
208114,428.571428571429,4,2,0,10,1,0
208182,428.571428571429,4,2,0,10,1,0
209481,550.45871559633,4,2,0,10,1,0
209618,-100,4,2,0,10,0,0
209737,397.350993377483,4,2,0,10,1,0
209886,-100,4,2,0,5,0,0
209936,437.956204379562,4,2,0,10,1,0
210373,508.474576271186,4,2,0,10,1,0
211391,344.827586206897,4,2,0,10,1,0
212069,903.954802259887,4,2,0,10,1,0
212069,-50,4,2,0,10,0,0
212971,-50,4,2,0,5,0,0
213198,320.855614973262,4,2,0,10,1,0
213218,-100,4,2,0,5,0,0
214401,333.333333333333,4,2,0,10,1,0
214484,428.571428571429,4,2,0,10,1,0
214698,375,4,2,0,10,1,0
215190,428.571428571429,4,2,0,10,1,0
215456,397.350993377483,4,2,0,5,1,0
216261,301.507537688442,4,2,0,10,1,0
217718,346.820809248555,4,2,0,10,1,0
219592,480,4,2,0,10,1,0
219766,333.333333333333,4,2,0,10,1,0
219910,333.333333333333,4,2,0,10,1,0
220053,333.333333333333,4,2,0,10,1,0
220226,333.333333333333,4,2,0,10,1,0
220401,480,4,2,0,10,1,0
220653,333.333333333333,4,2,0,10,1,0
221031,416.666666666667,4,2,0,10,1,0
221294,731.707317073171,4,2,0,10,1,0
221294,-50,4,2,0,10,0,0
222157,331.491712707182,4,2,0,10,1,0
222332,340.909090909091,4,2,0,10,1,0
222418,600,4,2,0,10,1,0
222418,-50,4,2,0,10,0,0
223018,-50,4,2,0,5,0,0
223380,428.571428571429,4,2,0,10,1,0
224403,333.333333333333,4,2,0,10,1,0
224625,333.333333333333,4,2,0,10,1,0
224845,333.333333333333,4,2,0,10,1,0
225153,333.333333333333,4,2,0,10,1,0
225528,333.333333333333,4,2,0,10,1,0
225989,333.333333333333,4,2,0,10,1,0
226344,333.333333333333,4,2,0,10,1,0
227605,468.75,4,2,0,10,1,0
229295,428.571428571429,4,2,0,10,1,0
229723,428.571428571429,4,2,0,10,1,0
229830,638.297872340426,4,2,0,10,1,0
229830,-62.5,4,2,0,10,0,0
230660,428.571428571429,4,2,0,10,1,0
230740,-100,4,2,0,10,0,0
230767,638.297872340426,4,2,0,5,1,0
230886,-100,4,2,0,5,0,0
230927,588.235294117647,4,2,0,5,1,0
231221,652.173913043478,4,2,0,10,1,0
231508,428.571428571429,4,2,0,10,1,0
231641,-100,4,2,0,10,0,0
231688,280.373831775701,4,2,0,5,1,0
231740,-100,4,2,0,5,0,0
231758,428.571428571429,4,2,0,5,1,0
231968,535.714285714286,4,2,0,10,1,0
232106,428.571428571429,4,2,0,10,1,0
232320,375,4,2,0,10,1,0
232507,387.096774193548,4,2,0,10,1,0
232713,387.096774193548,4,2,0,10,1,0
232906,322.58064516129,4,2,0,10,1,0
233092,428.571428571429,4,2,0,10,1,0
233307,387.096774193548,4,2,0,10,1,0
233504,428.571428571429,4,2,0,10,1,0
233706,394.736842105263,4,2,0,10,1,0
234113,517.241379310345,4,2,0,10,1,0
234172,517.241379310345,4,2,0,10,1,0
234242,517.241379310345,4,2,0,10,1,0
234294,517.241379310345,4,2,0,10,1,0
234565,428.571428571429,4,2,0,10,1,0
234872,468.75,4,2,0,10,1,0
235047,-100,4,2,0,5,0,0
235108,468.75,4,2,0,10,1,0
235108,-100,4,2,0,10,0,0
235283,-100,4,2,0,5,0,0
235344,320.855614973262,4,2,0,10,1,0
235985,428.571428571429,4,2,0,10,1,0
236747,428.571428571429,4,2,0,10,1,0
237328,444.444444444444,4,2,0,10,1,0
238275,545.454545454546,4,2,0,10,1,0
238547,365.853658536585,4,2,0,10,1,0
238547,-76.9230769230769,4,2,0,10,0,0
238638,-100,4,2,0,9,0,0
238853,526.315789473684,4,2,0,8,1,0
238853,-83.3333333333333,4,2,0,8,0,0
238918,-100,4,2,0,7,0,0
239116,535.714285714286,4,2,0,6,1,0
239116,-100,4,2,0,6,0,0
239182,-100,4,2,0,5,0,0
239393,500,4,2,0,5,1,0
239393,-125,4,2,0,5,0,0
239455,-100,4,2,0,5,0,0
240378,882.352941176471,4,2,0,10,1,0
240378,-50,4,2,0,10,0,0
241260,-100,4,2,0,5,0,0
242163,372.670807453416,4,3,0,5,1,0
242334,372.670807453416,4,2,0,10,1,0
242600,372.670807453416,4,3,0,5,1,0
242857,419.58041958042,4,3,0,5,1,0
243066,500,4,2,0,10,1,0
243414,419.58041958042,4,3,0,5,1,0
243537,419.58041958042,4,3,0,5,1,0
243761,419.58041958042,4,3,0,15,1,0
244010,805.369127516779,4,2,0,10,1,0
244010,-50,4,2,0,10,0,0
244815,-100,4,2,0,5,0,0
245072,382.165605095541,4,2,0,10,1,0
245955,333.333333333333,4,2,0,10,1,0
245955,-50,4,2,0,10,0,0
246121,394.736842105263,4,2,0,10,1,0
246121,-50,4,2,0,10,0,0
246574,555.555555555556,4,2,0,10,1,0
246736,555.555555555556,4,2,0,10,1,0
246900,560.747663551402,4,2,0,10,1,0
247530,447.761194029851,4,2,0,10,1,0
247745,447.761194029851,4,2,0,10,1,0
247898,648.648648648649,4,2,0,10,1,0
247898,-33.3333333333333,4,2,0,10,0,0
248870,231.660231660232,4,2,0,10,1,0
249090,600,4,2,0,10,1,0
249239,600,4,2,0,10,1,0
249393,600,4,2,0,10,1,0
249551,508.474576271186,4,2,0,10,1,0
249759,300,4,2,0,10,1,0
249759,-133.333333333333,4,2,0,10,0,0
250101,600,4,2,0,10,1,0
251301,495.867768595041,4,2,0,10,1,0
251543,625,4,2,0,10,1,0
251921,375,4,2,0,10,1,0
252296,-100,4,2,0,5,0,0
252500,243.90243902439,4,2,0,10,1,0
252649,495.867768595041,4,2,0,10,1,0
252649,-50,4,2,0,10,0,0
253037,260.869565217391,4,2,0,10,1,0
253176,309.278350515464,4,2,0,10,1,0
253176,-71.4285714285714,4,2,0,10,0,0
253413,372.670807453416,4,2,0,10,1,0
253890,512.820512820513,4,2,0,10,1,0
254023,512.820512820513,4,2,0,10,1,0
254147,800,4,2,0,10,1,0
254147,-66.6666666666667,4,2,0,10,0,0
255736,500,4,2,0,10,1,0
256236,461.538461538462,4,2,0,10,1,0
256294,338.983050847458,4,2,0,10,1,0
256378,458.015267175573,4,2,0,10,1,0
256492,389.61038961039,4,2,0,10,1,0
256589,405.405405405405,4,2,0,10,1,0
256589,-50,4,2,0,10,0,0
256791,612.244897959184,4,2,0,5,1,0
259236,555.555555555556,4,2,0,10,1,0
259370,555.555555555556,4,2,0,10,1,0
259513,526.315789473684,4,2,0,10,1,0
259841,444.444444444444,4,2,0,10,1,0
260063,540.540540540541,4,2,0,10,1,0
260333,454.545454545455,4,2,0,10,1,0
260446,540.540540540541,4,2,0,10,1,0
261797,263.157894736842,4,2,0,10,1,0
263891,400,4,2,0,10,1,0
263948,324.324324324324,4,2,0,10,1,0
264029,-100,4,2,0,5,0,0
264997,500,4,2,0,10,1,0
265122,-66.6666666666667,4,2,0,10,0,0
265268,307.692307692308,4,2,0,10,1,0
265268,-66.6666666666667,4,2,0,10,0,0
265422,258.620689655172,4,2,0,10,1,0
265422,-41.6666666666667,4,2,0,10,0,0
265551,243.90243902439,4,2,0,10,1,0
265551,-41.6666666666667,4,2,0,10,0,0
265698,288.461538461538,4,2,0,10,1,0
265698,-25,4,2,0,10,0,0
265843,285.714285714286,4,2,0,10,1,0
265843,-14.7058823529412,4,2,0,10,0,0
265986,228.136882129278,4,2,0,10,1,0
265986,-12.5,4,2,0,10,0,0
266195,337.078651685393,4,2,0,10,1,0
266539,375,4,2,0,10,1,0
266562,-100,4,2,0,5,0,0
267435,375,4,2,0,10,1,0
267458,-100,4,2,0,5,0,0
268181,375,4,2,0,10,1,0
268204,-100,4,2,0,5,0,0
269472,375,4,2,0,10,1,0
269495,-100,4,2,0,5,0,0
269870,419.58041958042,4,2,0,10,1,0
269952,480,4,2,0,10,1,0
270432,508.474576271186,4,2,0,10,1,0
270966,258.620689655172,4,2,0,10,1,0
271221,245.901639344262,4,2,0,10,1,0
271458,333.333333333333,4,2,0,10,1,0
271582,257.510729613734,4,2,0,10,1,0
271826,279.06976744186,4,2,0,10,1,0
272067,434.782608695652,4,2,0,10,1,0
272067,-66.6666666666667,4,2,0,10,0,0
272295,300,4,2,0,10,1,0
272366,300,4,2,0,10,1,0
272485,344.827586206897,4,2,0,10,1,0
272795,535.714285714286,4,2,0,10,1,0
272795,-58.8235294117647,4,2,0,10,0,0
272929,480,4,2,0,10,1,0
273269,260.869565217391,4,2,0,10,1,0
273269,-142.857142857143,4,2,0,10,0,0
273529,254.237288135593,4,2,0,10,1,0
273638,451.127819548872,4,2,0,10,1,0
273638,-58.8235294117647,4,2,0,10,0,0
273865,352.941176470588,4,2,0,10,1,0
274085,333.333333333333,4,2,0,10,1,0
274346,340.909090909091,4,2,0,10,1,0
275271,333.333333333333,4,2,0,10,1,0
275499,419.58041958042,4,2,0,10,1,0
275971,314.13612565445,4,2,0,10,1,0
276442,350.877192982456,4,2,0,10,1,0
276968,410.958904109589,4,2,0,10,1,0
277687,-100,4,2,0,5,0,0
277789,483.870967741935,4,2,0,10,1,0
278938,333.333333333333,4,2,0,10,1,0
280304,333.333333333333,4,2,0,10,1,0
280591,333.333333333333,4,2,0,10,1,0
280970,500,4,2,0,10,1,0
280970,-66.6666666666667,4,2,0,10,0,0
281636,447.761194029851,4,2,0,10,1,0
281859,108.108108108108,4,2,0,10,1,0
281859,-40,4,2,0,25,0,0
282723,562.892450568081,4,2,0,10,1,0
286100,468.75,4,1,0,20,1,0
287028,588.235294117647,4,3,0,7,1,0
287322,517.241379310345,4,3,0,10,1,0
287581,594.059405940594,4,3,0,10,1,0
287879,379.746835443038,4,3,0,10,1,0
288640,437.956204379562,4,3,0,7,1,0
289077,576.923076923077,4,3,0,10,1,0
289221,588.235294117647,4,3,0,10,1,0
289515,618.556701030928,4,3,0,10,1,0
289669,416.666666666667,4,3,0,10,1,0
290502,324.324324324324,4,3,0,7,1,0
291150,540.540540540541,4,3,0,10,1,0
291421,612.244897959184,4,3,0,10,1,0
292033,560.747663551402,4,3,0,10,1,0
292313,-100,4,3,0,15,0,0
292593,594.059405940594,4,3,0,20,1,0
293784,566.037735849057,4,3,0,7,1,0
294916,451.127819548872,4,3,0,10,1,0
295368,545.454545454546,4,3,0,10,1,0
295504,631.578947368421,4,3,0,10,1,0
295820,535.714285714286,4,3,0,10,1,0
296087,606.060606060606,4,3,0,10,1,0
296391,571.428571428571,4,3,0,15,1,0
296677,540.540540540541,4,3,0,10,1,0
296949,526.315789473684,4,3,0,10,1,0
297212,483.870967741935,4,3,0,10,1,0
297212,-111.111111111111,4,3,0,10,0,0
298179,491.803278688525,4,2,0,5,1,0
299755,641.711229946524,4,2,0,10,1,0
299755,-25,4,2,0,10,0,0
300560,524.017467248908,4,2,0,10,1,0
301076,400,4,2,0,10,1,0
301490,400,4,2,0,10,1,0
302156,413.793103448276,4,2,0,7,1,0
302156,-12.5,4,2,0,7,0,0
302374,431.654676258993,4,2,0,7,1,0
302374,-12.5,4,2,0,7,0,0
302593,437.956204379562,4,2,0,7,1,0
302593,-12.5,4,2,0,7,0,0
302819,437.956204379562,4,2,0,7,1,0
302819,-12.5,4,2,0,7,0,0
303031,441.176470588235,4,2,0,7,1,0
303031,-12.5,4,2,0,7,0,0
303244,413.793103448276,4,2,0,7,1,0
303244,-12.5,4,2,0,7,0,0
303450,437.956204379562,4,2,0,7,1,0
303450,-12.5,4,2,0,7,0,0
303688,230.769230769231,4,2,0,7,1,0
303688,-6.25,4,2,0,7,0,0
303803,244.897959183673,4,2,0,10,1,0
304044,571.428571428571,4,2,0,10,1,0
304722,512.820512820513,4,2,0,10,1,0
304722,-58.8235294117647,4,2,0,10,0,0
305544,483.870967741935,4,2,0,10,1,0
306648,428.571428571429,4,2,0,10,1,0
306982,550.45871559633,4,2,0,10,1,0
306982,-83.3333333333333,4,2,0,10,0,0
307532,333.333333333333,4,2,0,10,1,0
307760,312.5,4,2,0,10,1,0
308362,468.75,4,2,0,10,1,0
308830,-100,4,2,0,5,0,0
308974,480,4,2,0,10,1,0
309381,428.571428571429,4,2,0,10,1,0
309381,-83.3333333333333,4,2,0,10,0,0
309826,428.571428571429,4,2,0,10,1,0
310003,571.428571428571,4,2,0,10,1,0
310003,-71.4285714285714,4,2,0,10,0,0
311079,405.405405405405,4,2,0,10,1,0
311915,428.571428571429,4,2,0,10,1,0
312063,350.877192982456,4,2,0,10,1,0
312412,500,4,2,0,10,1,0
312849,344.827586206897,4,2,0,10,1,0
313192,419.58041958042,4,2,0,10,1,0
314034,508.474576271186,4,2,0,10,1,0
315305,472.44094488189,4,2,0,10,1,0
315779,333.333333333333,4,2,0,10,1,0
316006,428.571428571429,4,2,0,10,1,0
316434,472.44094488189,4,2,0,10,1,0
316906,451.127819548872,4,2,0,10,1,0
318267,333.333333333333,4,2,0,10,1,0
318484,451.127819548872,4,2,0,10,1,0
319837,500,4,2,0,10,1,0
320535,535.714285714286,4,2,0,10,1,0
320819,333.333333333333,4,2,0,10,1,0
321082,327.868852459016,4,2,0,10,1,0
321082,-76.9230769230769,4,2,0,10,0,0
321731,327.868852459016,4,2,0,10,1,0
322385,416.666666666667,4,2,0,10,1,0
323970,397.350993377483,4,2,0,10,1,0
324179,387.096774193548,4,3,0,10,1,0
324478,600,4,3,0,10,1,0
324582,600,4,3,0,10,1,0
324820,389.61038961039,4,3,0,10,1,0
324820,-142.857142857143,4,3,0,10,0,0
325208,410.958904109589,4,3,0,10,1,0
325208,-90.9090909090909,4,3,0,10,0,0
325745,468.75,4,2,0,10,1,0
325979,576.923076923077,4,2,0,10,1,0
326339,428.571428571429,4,2,0,10,1,0
326408,428.571428571429,4,2,0,10,1,0
326471,315.789473684211,4,2,0,10,1,0
326549,-100,4,2,0,5,0,0
326851,428.571428571429,4,2,0,10,1,0
327619,355.029585798817,4,2,0,10,1,0
327884,337.078651685393,4,2,0,10,1,0
329704,428.571428571429,4,2,0,10,1,0
330743,652.173913043479,4,2,0,10,1,0
331780,530.973451327434,4,2,0,10,1,0
331780,-25,4,2,0,10,0,0
332310,540.540540540541,4,2,0,10,1,0
333391,540.540540540541,4,2,0,10,1,0
333531,410.958904109589,4,2,0,10,1,0
333634,335.195530726257,4,2,0,10,1,0
333801,425.531914893617,4,2,0,10,1,0
334029,500,4,2,0,10,1,0
334263,483.870967741935,4,2,0,10,1,0
334500,394.736842105263,4,2,0,10,1,0
335114,461.538461538462,4,2,0,10,1,0
336073,483.870967741935,4,2,0,10,1,0
336194,322.58064516129,4,2,0,10,1,0
336275,428.571428571429,4,2,0,10,1,0
336397,322.58064516129,4,2,0,10,1,0
336477,483.870967741935,4,2,0,10,1,0
336598,292.682926829268,4,2,0,10,1,0
336749,324.324324324324,4,2,0,10,1,0
336907,394.736842105263,4,2,0,10,1,0
337005,306.122448979592,4,2,0,10,1,0
337081,400,4,2,0,10,1,0
338466,389.61038961039,4,2,0,10,1,0
338660,638.297872340426,4,2,0,10,1,0
338739,468.75,4,2,0,10,1,0
338797,465.116279069767,4,2,0,10,1,0
338913,444.444444444444,4,2,0,10,1,0
339135,652.173913043478,4,2,0,10,1,0
340053,571.428571428571,4,2,0,10,1,0
340624,333.333333333333,4,2,0,10,1,0
340787,731.707317073171,4,2,0,10,1,0
340787,-83.3333333333333,4,2,0,10,0,0
342415,272.727272727273,4,2,0,10,1,0
343165,526.315789473684,4,2,0,10,1,0
343625,-12.5,4,2,0,10,0,0
343691,420.609884332282,4,2,0,10,1,0
346214,1121.4953271028,4,2,0,10,1,0
346214,-38.4615384615385,4,2,0,10,0,0
348064,454.545454545455,4,2,0,10,1,0
348664,337.078651685393,4,2,0,10,1,0
348832,266.666666666667,4,2,0,10,1,0
348832,-142.857142857143,4,2,0,10,0,0
349099,352.941176470588,4,2,0,10,1,0
349746,444.444444444444,4,2,0,10,1,0
349841,566.037735849057,4,2,0,10,1,0
350123,512.820512820513,4,2,0,10,1,0
350635,444.444444444444,4,2,0,10,1,0
353479,444.444444444444,4,2,0,10,1,0
353479,-66.6666666666667,4,2,0,10,0,0
353571,500,4,2,0,10,1,0
353644,500,4,2,0,10,1,0
353726,600,4,2,0,10,1,0
354326,-100,4,2,0,5,0,0
354527,600,4,2,0,10,1,0
354661,600,4,2,0,10,1,0
354812,600,4,2,0,10,1,0
354966,600,4,2,0,10,1,0
355122,600,4,2,0,10,1,0
355318,340.909090909091,4,2,0,10,1,0
355749,779.220779220779,4,2,0,10,1,0
355749,-76.9230769230769,4,2,0,10,0,0
356528,458.015267175573,4,2,0,10,1,0
356989,428.571428571429,4,2,0,10,1,0
357094,379.746835443038,4,2,0,10,1,0
357473,437.956204379562,4,2,0,10,1,0
357582,379.746835443038,4,2,0,10,1,0
357676,571.428571428571,4,2,0,10,1,0
357818,508.474576271186,4,2,0,10,1,0
357818,-58.8235294117647,4,2,0,10,0,0
358072,468.75,4,2,0,10,1,0
358188,530.973451327434,4,2,0,10,1,0
358785,550.45871559633,4,2,0,10,1,0
358922,468.75,4,2,0,10,1,0
359151,370.37037037037,4,2,0,10,1,0
359243,382.165605095541,4,2,0,10,1,0
359338,297.029702970297,4,2,0,10,1,0
359412,461.538461538462,4,2,0,10,1,0
359589,483.870967741935,4,2,0,10,1,0
359709,526.315789473684,4,2,0,10,1,0
359775,280.373831775701,4,2,0,10,1,0
359915,377.358490566038,4,2,0,10,1,0
360009,428.571428571429,4,2,0,10,1,0
360116,377.358490566038,4,2,0,10,1,0
360195,342.857142857143,4,2,0,10,1,0
360567,392.156862745098,4,2,0,10,1,0
360762,397.350993377483,4,2,0,10,1,0
360762,-50,4,2,0,10,0,0
361581,307.692307692308,4,2,0,10,1,0
362196,285.714285714286,4,2,0,10,1,0
362338,283.018867924528,4,2,0,10,1,0
362621,449.438202247191,4,2,0,10,1,0
363070,363.636363636364,4,2,0,10,1,0
363433,545.454545454546,4,2,0,10,1,0
363433,-76.9230769230769,4,2,0,10,0,0
363978,355.029585798817,4,2,0,10,1,0
364200,355.029585798817,4,2,0,10,1,0
364910,-100,4,2,0,5,0,0
364958,333.333333333333,4,2,0,5,1,0
365899,419.58041958042,4,2,0,10,1,0
366161,419.58041958042,4,2,0,10,1,0
366475,287.081339712919,4,2,0,10,1,0
366762,275.229357798165,4,2,0,10,1,0
367172,266.666666666667,4,2,0,10,1,0
367312,287.081339712919,4,2,0,10,1,0
367999,413.793103448276,4,2,0,10,1,0
368154,348.837209302326,4,2,0,10,1,0
368241,333.333333333333,4,2,0,10,1,0
368525,500,4,2,0,10,1,0
368587,377.358490566038,4,2,0,10,1,0
368681,372.670807453416,4,2,0,10,1,0
368774,333.333333333333,4,2,0,10,1,0
369221,508.474576271186,4,2,0,10,1,0
369284,810.810810810811,4,2,0,10,1,0
369385,769.230769230769,4,2,0,10,1,0
369481,333.333333333333,4,2,0,10,1,0
369887,705.882352941176,4,2,0,10,1,0
370592,-100,4,2,0,5,0,0
370783,363.636363636364,4,2,0,10,1,0
370957,363.636363636364,4,2,0,10,1,0
371142,363.636363636364,4,2,0,10,1,0
371305,363.636363636364,4,2,0,10,1,0
371479,250,4,2,0,10,1,0
371605,250,4,2,0,10,1,0
371846,250,4,2,0,10,1,0
372026,357.142857142857,4,2,0,10,1,0
372212,333.333333333333,4,2,0,5,1,0
372508,419.58041958042,4,2,0,10,1,0
372731,272.727272727273,4,2,0,10,1,0
373275,454.545454545455,4,2,0,10,1,0
373275,-83.3333333333333,4,2,0,10,0,0
373729,298.507462686567,4,2,0,10,1,0
373828,555.555555555556,4,2,0,10,1,0
374029,379.746835443038,4,2,0,10,1,0
374293,588.235294117647,4,2,0,10,1,0
374293,-90.9090909090909,4,2,0,10,0,0
374880,576.923076923077,4,2,0,10,1,0
374880,-400,4,2,0,10,0,0
375456,555.555555555556,4,2,0,5,1,0
375456,-100,4,2,0,5,0,0
376760,419.58041958042,4,2,0,10,1,0
377649,476.190476190476,4,2,0,10,1,0
377887,392.156862745098,4,2,0,10,1,0
378083,340.909090909091,4,2,0,10,1,0
378253,600,4,2,0,10,1,0
378253,-52.6315789473684,4,2,0,10,0,0
378853,600,4,2,0,5,1,0
379735,555.555555555556,4,2,0,10,1,0
379735,-50,4,2,0,10,0,0
379904,419.58041958042,4,2,0,10,1,0
380010,419.58041958042,4,2,0,10,1,0
380577,571.428571428571,4,2,0,10,1,0
380577,-200,4,2,0,10,0,0
380791,-200,4,2,0,5,0,0
380862,394.736842105263,4,2,0,10,1,0
380862,-100,4,2,0,10,0,0
381207,-100,4,2,0,10,0,0
381256,500,4,2,0,5,1,0
381256,-25,4,2,0,5,0,0
381318,363.636363636364,4,2,0,10,1,0
381635,262.008733624454,4,2,0,10,1,0
381635,-76.9230769230769,4,2,0,10,0,0
381684,-76.9230769230769,4,2,0,10,0,0
381700,392.156862745098,4,2,0,5,1,0
382313,319.148936170213,4,2,0,10,1,0
382741,312.5,4,2,0,10,1,0
383076,301.507537688442,4,2,0,10,1,0
383681,322.58064516129,4,2,0,10,1,0
384003,322.58064516129,4,2,0,10,1,0
384314,322.58064516129,4,2,0,10,1,0
384621,357.142857142857,4,2,0,10,1,0
384971,255.31914893617,4,2,0,10,1,0
384971,-83.3333333333333,4,2,0,10,0,0
385240,422.535211267606,4,2,0,10,1,0
385240,-125,4,2,0,10,0,0
385451,355.029585798817,4,2,0,10,1,0
386166,454.545454545455,4,2,0,10,1,0
386901,419.58041958042,4,2,0,10,1,0
387017,419.58041958042,4,2,0,10,1,0
387139,419.58041958042,4,2,0,10,1,0
387219,419.58041958042,4,2,0,10,1,0
387320,419.58041958042,4,2,0,10,1,0
387628,444.444444444444,4,2,0,10,1,0
388126,419.58041958042,4,2,0,10,1,0
388249,419.58041958042,4,2,0,10,1,0
388373,419.58041958042,4,2,0,10,1,0
388501,419.58041958042,4,2,0,10,1,0
388625,419.58041958042,4,2,0,10,1,0
388808,483.870967741935,4,2,0,10,1,0
389679,419.58041958042,4,2,0,10,1,0
389895,419.58041958042,4,2,0,10,1,0
390052,419.58041958042,4,2,0,10,1,0
390191,419.58041958042,4,2,0,10,1,0
390400,419.58041958042,4,2,0,10,1,0
390539,419.58041958042,4,2,0,10,1,0
390641,419.58041958042,4,2,0,10,1,0
390780,419.58041958042,4,2,0,10,1,0
390890,576.923076923077,4,2,0,10,1,0
391751,419.58041958042,4,2,0,10,1,0
391823,428.571428571429,4,2,0,10,1,0
392505,428.571428571429,4,2,0,10,1,0
392638,285.714285714286,4,2,0,10,1,0
393155,400,4,2,0,10,1,0
393155,-25,4,2,0,10,0,0
394872,594.059405940594,4,2,0,5,1,0
395882,441.176470588235,4,2,0,10,1,0
396204,269.058295964126,4,2,0,10,1,0
396469,269.058295964126,4,2,0,10,1,0
396595,269.058295964126,4,2,0,10,1,0
396704,389.61038961039,4,2,0,10,1,0
396996,-100,4,2,0,5,0,0
397093,-100,4,2,0,10,0,0
398423,333.333333333333,4,2,0,10,1,0
399592,359.281437125748,4,2,0,10,1,0
400008,300,4,2,0,10,1,0
400008,-100,4,2,0,10,0,0
400163,400,4,2,0,10,1,0
400563,389.61038961039,4,2,0,10,1,0
400806,327.868852459016,4,2,0,10,1,0
401092,428.571428571429,4,2,0,10,1,0
401199,292.682926829268,4,2,0,10,1,0
402120,419.58041958042,4,2,0,10,1,0
403617,419.58041958042,4,2,0,10,1,0
403936,357.142857142857,4,2,0,10,1,0
404103,413.793103448276,4,2,0,10,1,0
404321,333.333333333333,4,2,0,10,1,0
404563,333.333333333333,4,2,0,10,1,0
404670,333.333333333333,4,2,0,10,1,0
404885,333.333333333333,4,2,0,10,1,0
405151,333.333333333333,4,2,0,10,1,0
405459,333.333333333333,4,2,0,10,1,0
405546,333.333333333333,4,2,0,10,1,0
405633,402.684563758389,4,2,0,10,1,0
405784,-100,4,2,0,5,0,0
405834,333.333333333333,4,2,0,10,1,0
405941,333.333333333333,4,2,0,10,1,0
406083,333.333333333333,4,2,0,10,1,0
406742,329.67032967033,4,2,0,10,1,0
406908,408.163265306122,4,2,0,10,1,0
407010,384.615384615385,4,2,0,10,1,0
407098,535.714285714286,4,2,0,10,1,0
407633,-100,4,2,0,5,0,0
407916,352.941176470588,4,2,0,10,1,0
407916,-25,4,2,0,10,0,0
408004,397.350993377483,4,2,0,10,1,0
408004,-25,4,2,0,10,0,0
408103,413.793103448276,4,2,0,10,1,0
408103,-25,4,2,0,10,0,0
408206,405.405405405405,4,2,0,10,1,0
408206,-25,4,2,0,10,0,0
408307,437.956204379562,4,2,0,10,1,0
408307,-25,4,2,0,10,0,0
408416,324.324324324324,4,2,0,10,1,0
408416,-25,4,2,0,10,0,0
408497,340.909090909091,4,2,0,10,1,0
408497,-25,4,2,0,10,0,0
408582,461.538461538462,4,2,0,10,1,0
408582,-25,4,2,0,10,0,0
408697,270.27027027027,4,2,0,10,1,0
408697,-25,4,2,0,10,0,0
408764,495.867768595041,4,2,0,10,1,0
408764,-25,4,2,0,10,0,0
408887,384.615384615385,4,2,0,10,1,0
408887,-25,4,2,0,10,0,0
408983,397.350993377483,4,2,0,10,1,0
408983,-25,4,2,0,10,0,0
409082,365.853658536585,4,2,0,10,1,0
409082,-25,4,2,0,10,0,0
409173,348.837209302326,4,2,0,10,1,0
409173,-25,4,2,0,10,0,0
409260,359.281437125748,4,2,0,10,1,0
409260,-25,4,2,0,10,0,0
409349,382.165605095541,4,2,0,10,1,0
409349,-25,4,2,0,10,0,0
409444,350.877192982456,4,2,0,10,1,0
409444,-25,4,2,0,10,0,0
409531,428.571428571429,4,2,0,10,1,0
409531,-25,4,2,0,10,0,0
409638,253.164556962025,4,2,0,10,1,0
409638,-25,4,2,0,10,0,0
409701,276.497695852535,4,2,0,16,1,0
410806,483.870967741935,4,2,0,10,1,0
411047,333.333333333333,4,2,0,10,1,0
411297,333.333333333333,4,2,0,10,1,0
411531,333.333333333333,4,2,0,10,1,0
411765,566.037735849057,4,2,0,10,1,0
411765,-55.5555555555556,4,2,0,10,0,0
411906,333.333333333333,4,2,0,10,1,0
411991,348.837209302326,4,2,0,10,1,0
412514,521.739130434783,4,2,0,10,1,0
413035,350.877192982456,4,2,0,10,1,0
413736,365.853658536585,4,2,0,10,1,0
414468,495.867768595041,4,2,0,10,1,0
416022,731.707317073171,4,2,0,10,1,0
416022,-50,4,2,0,10,0,0
416753,-50,4,2,0,5,0,0
417621,324.324324324324,4,2,0,5,1,0
417763,444.444444444444,4,2,0,10,1,0
417864,722.89156626506,4,2,0,10,1,0
417864,-50,4,2,0,10,0,0
418586,-100,4,2,0,5,0,0
419046,359.281437125748,4,2,0,5,1,0
419164,419.58041958042,4,2,0,10,1,0
419289,419.58041958042,4,2,0,10,1,0
419331,434.782608695652,4,2,0,10,1,0
419765,512.820512820513,4,2,0,10,1,0
420277,576.923076923077,4,2,0,10,1,0
420565,375,4,2,0,10,1,0
422481,419.58041958042,4,2,0,10,1,0
422690,382.165605095541,4,2,0,10,1,0
422881,387.096774193548,4,2,0,10,1,0
423074,389.61038961039,4,2,0,10,1,0
423268,461.538461538462,4,2,0,10,1,0
423498,419.58041958042,4,2,0,10,1,0
423707,555.555555555556,4,2,0,10,1,0
423984,-52.6315789473684,4,2,0,10,0,0
425342,352.941176470588,4,2,0,10,1,0
425519,512.820512820513,4,2,0,10,1,0
427570,500,4,2,0,10,1,0
428060,500,4,2,0,10,1,0
428570,500,4,2,0,10,1,0
429070,526.315789473684,4,2,0,10,1,0
429153,526.315789473684,4,2,0,10,1,0
429233,526.315789473684,4,2,0,10,1,0
429306,526.315789473684,4,2,0,10,1,0
429360,526.315789473684,4,2,0,10,1,0
429360,-94.3396226415094,4,2,0,10,0,0
429540,495.867768595041,4,3,0,10,1,0
430227,419.58041958042,4,2,0,10,1,0
430419,419.58041958042,4,2,0,10,1,0
430622,372.670807453416,4,2,0,10,1,0
431246,425.531914893617,4,2,0,10,1,0
431778,428.571428571429,4,2,0,10,1,0
432700,437.956204379562,4,2,0,10,1,0
433137,476.190476190476,4,2,0,10,1,0
433613,483.870967741935,4,2,0,10,1,0
433854,625,4,2,0,10,1,0
434698,405.405405405405,4,2,0,10,1,0
434801,405.405405405405,4,2,0,10,1,0
435204,306.122448979592,4,2,0,10,1,0
435652,306.122448979592,4,2,0,10,1,0
435926,306.122448979592,4,2,0,10,1,0
436250,306.122448979592,4,2,0,10,1,0
436458,365.853658536585,4,2,0,10,1,0
436974,365.853658536585,4,2,0,10,1,0
437109,365.853658536585,4,2,0,10,1,0
437270,300,4,2,0,10,1,0
437672,306.122448979592,4,2,0,10,1,0
437764,419.58041958042,4,2,0,10,1,0
438362,419.58041958042,4,2,0,10,1,0
438774,419.58041958042,4,2,0,10,1,0
438928,419.58041958042,4,2,0,10,1,0
439160,419.58041958042,4,2,0,10,1,0
439849,1276.59574468085,4,2,0,10,1,0
439849,-50,4,2,0,10,0,0
441127,419.58041958042,4,2,0,10,1,0
441676,425.531914893617,4,2,0,10,1,0
441676,-142.857142857143,4,2,0,10,0,0
442048,-142.857142857143,4,2,0,5,0,0
442103,434.782608695652,4,2,0,10,1,0
442103,-83.3333333333333,4,2,0,10,0,0
442483,-83.3333333333333,4,2,0,5,0,0
442538,500,4,2,0,10,1,0
442538,-50,4,2,0,10,0,0
442975,-50,4,2,0,5,0,0
443038,413.793103448276,4,2,0,10,1,0
443038,-76.9230769230769,4,2,0,10,0,0
443813,491.803278688525,4,2,0,5,1,0
443813,-76.9230769230769,4,2,0,5,0,0
443874,312.5,4,2,0,10,1,0
443952,372.670807453416,4,2,0,10,1,0
444045,240,4,2,0,10,1,0
444105,361.44578313253,4,2,0,10,1,0
444195,408.163265306122,4,2,0,10,1,0
444297,209.059233449477,4,2,0,10,1,0
444354,384.615384615385,4,2,0,10,1,0
444445,300,4,2,0,10,1,0
444520,292.682926829268,4,2,0,10,1,0
444593,530.973451327434,4,2,0,10,1,0
444725,352.941176470588,4,2,0,10,1,0
444813,329.67032967033,4,2,0,10,1,0
444895,188.087774294671,4,2,0,10,1,0
444942,196.72131147541,4,2,0,10,1,0
444991,491.803278688525,4,2,0,10,1,0
445113,447.761194029851,4,2,0,10,1,0
445560,504.201680672269,4,2,0,10,1,0
445812,324.324324324324,4,2,0,10,1,0
445812,-100,4,2,0,10,0,0
446135,335.195530726257,4,2,0,10,1,0
446470,-100,4,2,0,5,0,0
446917,451.127819548872,4,2,0,10,1,0
446917,-142.857142857143,4,2,0,10,0,0
447829,451.127819548872,4,2,0,10,1,0
448305,329.67032967033,4,2,0,10,1,0
448498,468.75,4,2,0,10,1,0
448498,-142.857142857143,4,2,0,10,0,0
448973,437.956204379562,4,2,0,10,1,0
448973,-125,4,2,0,10,0,0
449620,451.127819548872,4,2,0,10,1,0
450778,451.127819548872,4,2,0,10,1,0
451002,454.545454545455,4,2,0,10,1,0
451002,-166.666666666667,4,2,0,10,0,0
451661,487.80487804878,4,2,0,10,1,0
451661,-125,4,2,0,10,0,0
452149,419.58041958042,4,2,0,10,1,0
452149,-111.111111111111,4,2,0,10,0,0
452939,267.857142857143,4,2,0,10,1,0
453005,535.714285714286,4,2,0,10,1,0
453005,-66.6666666666667,4,2,0,10,0,0
453540,389.61038961039,4,2,0,10,1,0
453629,480,4,2,0,10,1,0
453629,-76.9230769230769,4,2,0,10,0,0
454098,530.973451327434,4,2,0,10,1,0
454216,530.973451327434,4,2,0,10,1,0
454356,428.571428571429,4,2,0,10,1,0
455213,-100,4,2,0,5,0,0
455268,468.75,4,3,0,10,1,0
455268,-76.9230769230769,4,3,0,10,0,0
456205,-66.6666666666667,4,3,0,10,0,0
456374,495.867768595041,4,3,0,10,1,0
456674,468.75,4,3,0,10,1,0
456674,-55.5555555555556,4,3,0,10,0,0
457143,444.444444444444,4,3,0,10,1,0
457885,333.333333333333,4,2,0,10,1,0
457977,461.538461538462,4,2,0,10,1,0
458623,480,4,2,0,10,1,0
459234,419.58041958042,4,2,0,10,1,0
459443,439.56043956044,4,2,0,10,1,0
459662,474.308300395257,4,2,0,10,1,0
459899,491.803278688525,4,2,0,10,1,0
460144,413.793103448276,4,2,0,10,1,0
460350,387.096774193548,4,2,0,10,1,0
460789,384.615384615385,4,2,0,10,1,0
461269,320.855614973262,4,2,0,10,1,0
461439,340.909090909091,4,2,0,10,1,0
461717,363.636363636364,4,2,0,10,1,0
462009,333.333333333333,4,2,0,10,1,0
462371,333.333333333333,4,2,0,10,1,0
462787,333.333333333333,4,2,0,10,1,0
462840,312.5,4,2,0,10,1,0
463885,394.736842105263,4,2,0,10,1,0
464705,491.803278688525,4,2,0,10,1,0
464705,-50,4,2,0,10,0,0
464950,393.765381460213,4,2,0,10,1,0
465737,288.461538461538,4,2,0,10,1,0
465737,-66.6666666666667,4,2,0,10,0,0
466629,600,4,2,0,10,1,0
466629,-71.4285714285714,4,2,0,10,0,0
467369,314.13612565445,4,2,0,10,1,0
467369,-58.8235294117647,4,2,0,10,0,0
468160,319.148936170213,4,2,0,10,1,0
468160,-66.6666666666667,4,2,0,10,0,0
468547,333.333333333333,4,2,0,10,1,0
468841,370.37037037037,4,2,0,10,1,0
468841,-66.6666666666667,4,2,0,10,0,0
469396,250,4,2,0,10,1,0
469396,-50,4,2,0,10,0,0
469677,352.941176470588,4,2,0,10,1,0
470451,314.13612565445,4,2,0,10,1,0
470705,240,4,2,0,10,1,0
471186,521.739130434783,4,2,0,10,1,0
471707,314.13612565445,4,2,0,10,1,0
471891,314.13612565445,4,2,0,10,1,0
472129,281.69014084507,4,2,0,10,1,0
472129,-50,4,2,0,10,0,0
472410,327.868852459016,4,2,0,10,1,0
472410,-50,4,2,0,10,0,0
472737,-50,4,2,0,5,0,0
473067,333.333333333333,4,2,0,10,1,0
473773,402.684563758389,4,2,0,10,1,0
474400,437.956204379562,4,2,0,10,1,0
474649,301.507537688442,4,2,0,10,1,0
475457,344.827586206897,4,2,0,10,1,0
475695,333.333333333333,4,2,0,10,1,0
475813,333.333333333333,4,2,0,10,1,0
476012,526.315789473684,4,2,0,10,1,0
476134,526.315789473684,4,2,0,10,1,0
476320,422.535211267606,4,2,0,10,1,0
476900,476.190476190476,4,2,0,10,1,0
477138,289.855072463768,4,2,0,10,1,0
477717,402.684563758389,4,2,0,10,1,0
477879,419.58041958042,4,2,0,10,1,0
479557,372.670807453416,4,2,0,10,1,0
479836,281.69014084507,4,2,0,10,1,0
479976,357.142857142857,4,2,0,10,1,0
480905,571.428571428571,4,2,0,10,1,0
481207,419.58041958042,4,2,0,10,1,0
481733,555.555555555556,4,2,0,10,1,0
483130,495.867768595041,4,2,0,10,1,0
483130,-71.4285714285714,4,2,0,10,0,0
484059,495.867768595041,4,2,0,10,1,0
484099,447.761194029851,4,2,0,10,1,0
484210,434.782608695652,4,2,0,10,1,0
484318,454.545454545455,4,2,0,10,1,0
484431,504.201680672269,4,2,0,10,1,0
484557,413.793103448276,4,2,0,10,1,0
484660,437.956204379562,4,2,0,10,1,0
484769,375,4,2,0,10,1,0
484862,465.116279069767,4,2,0,10,1,0
484978,425.531914893617,4,2,0,10,1,0
485084,495.867768595041,4,2,0,10,1,0
485207,400,4,2,0,10,1,0
485307,441.176470588235,4,2,0,10,1,0
485417,395.387149917628,4,2,0,10,1,0
485417,-55.5555555555556,4,1,0,10,0,0
486207,495.867768595041,4,2,0,10,1,0
486291,495.867768595041,4,2,0,10,1,0
486363,495.867768595041,4,2,0,10,1,0
486392,419.58041958042,4,2,0,10,1,0
487230,437.956204379562,4,2,0,10,1,0
487299,437.956204379562,4,2,0,10,1,0
487387,437.956204379562,4,2,0,10,1,0
487472,697.674418604651,4,2,0,10,1,0
487472,-90.9090909090909,4,2,0,10,0,0
488387,394.736842105263,4,2,0,10,1,0
488584,266.666666666667,4,2,0,10,1,0
488850,350.877192982456,4,2,0,10,1,0
488948,350.877192982456,4,2,0,10,1,0
489047,340.909090909091,4,2,0,10,1,0
489303,350.877192982456,4,2,0,10,1,0
489396,350.877192982456,4,2,0,10,1,0
489479,361.44578313253,4,2,0,10,1,0
489569,-100,4,2,0,5,0,0
489647,350.877192982456,4,2,0,10,1,0
489764,375,4,2,0,10,1,0
489904,-100,4,2,0,10,0,0
489951,731.707317073171,4,2,0,10,1,0
489951,-50,4,2,0,5,0,0
490682,333.333333333333,4,2,0,10,1,0
491406,276.81660899654,4,2,0,10,1,0
491959,326.086956521739,4,2,0,10,1,0
491959,-111.111111111111,4,2,0,10,0,0
492040,304.568527918782,4,2,0,10,1,0
492116,204.778156996587,4,2,0,10,1,0
492116,-83.3333333333333,4,2,0,10,0,0
492167,348.837209302326,4,2,0,10,1,0
492254,200.66889632107,4,2,0,10,1,0
492254,-66.6666666666667,4,2,0,10,0,0
492304,397.350993377483,4,2,0,10,1,0
492403,314.13612565445,4,2,0,10,1,0
492403,-55.5555555555556,4,2,0,10,0,0
492481,355.029585798817,4,2,0,10,1,0
492569,283.018867924528,4,2,0,10,1,0
492569,-47.6190476190476,4,2,0,10,0,0
492639,222.222222222222,4,2,0,10,1,0
492694,337.078651685393,4,2,0,10,1,0
492694,-41.6666666666667,4,2,0,10,0,0
492778,331.491712707182,4,2,0,10,1,0
492860,530.973451327434,4,2,0,10,1,0
492860,-5,4,2,0,10,0,0
493124,451.127819548872,4,2,0,10,1,0
493124,-25,4,2,0,10,0,0
493574,331.491712707182,4,2,0,10,1,0
494255,331.491712707182,4,2,0,10,1,0
494488,317.460317460317,4,2,0,10,1,0
494550,317.460317460317,4,2,0,10,1,0
494631,317.460317460317,4,2,0,10,1,0
494726,317.460317460317,4,2,0,10,1,0
495175,317.460317460317,4,2,0,10,1,0
495413,461.538461538462,4,2,0,10,1,0
495874,317.460317460317,4,2,0,10,1,0
495874,-83.3333333333333,4,2,0,10,0,0
495953,389.61038961039,4,2,0,10,1,0
495953,-83.3333333333333,4,2,0,10,0,0
496342,500,4,2,0,10,1,0
496851,413.793103448276,4,2,0,10,1,0
496954,322.58064516129,4,2,0,10,1,0
497034,338.983050847458,4,2,0,10,1,0
497118,352.941176470588,4,2,0,10,1,0
497162,309.278350515464,4,2,0,10,1,0
497239,419.58041958042,4,2,0,10,1,0
497291,283.018867924528,4,2,0,10,1,0
497677,283.018867924528,4,2,0,10,1,0
497746,379.746835443038,4,2,0,10,1,0
497777,410.958904109589,4,2,0,10,1,0
498345,324.324324324324,4,2,0,10,1,0
498843,576.923076923077,4,2,0,10,1,0
498987,437.956204379562,4,2,0,10,1,0
499862,419.58041958042,4,2,0,5,1,0
499862,-100,4,2,0,5,0,0
499966,419.58041958042,4,2,0,10,1,0
501003,324.324324324324,4,2,0,10,1,0
501533,90.0900900900901,4,2,0,100,1,0
501533,-6.25,4,2,0,100,0,0
501578,329.67032967033,4,2,0,10,1,0
501578,-100,4,2,0,5,0,0
504913,90.0900900900901,4,2,0,100,1,0
504913,-6.25,4,2,0,100,0,0
504958,333.333333333333,4,2,0,10,1,0
504958,-100,4,2,0,5,0,0
519120,333.333333333333,4,2,0,5,1,0
519295,333.333333333333,4,2,0,5,1,0
519455,333.333333333333,4,2,0,5,1,0
519615,333.333333333333,4,2,0,5,1,0
519797,333.333333333333,4,2,0,5,1,0
519888,538.116591928251,4,2,0,5,1,0
520157,472.44094488189,4,2,0,10,1,0
520275,428.571428571429,4,2,0,10,1,0
520489,419.58041958042,4,2,0,10,1,0
520694,335.195530726257,4,2,0,10,1,0
520694,-100,4,2,0,5,0,0
520861,-100,4,2,0,5,0,0
521029,-100,4,2,0,5,0,0
521196,372.670807453416,4,2,0,5,1,0
521196,-100,4,2,0,5,0,0
521289,279.06976744186,4,2,0,5,1,0
521364,256.410256410256,4,2,0,5,1,0
521364,-100,4,2,0,5,0,0
521428,335.195530726257,4,2,0,5,1,0
521495,400,4,2,0,5,1,0
521495,-100,4,2,0,10,0,0
521595,335.195530726257,4,2,0,10,1,0
521662,264.31718061674,4,2,0,10,1,0
521662,-100,4,2,0,10,0,0
521728,335.195530726257,4,2,0,10,1,0
521796,283.018867924528,4,2,0,10,1,0
521796,-100,4,2,0,10,0,0
521867,335.195530726257,4,2,0,10,1,0
521939,260.869565217391,4,2,0,10,1,0
521939,-100,4,2,0,10,0,0
522004,335.195530726257,4,2,0,10,1,0
522065,307.692307692308,4,2,0,10,1,0
522065,-100,4,2,0,10,0,0
522142,335.195530726257,4,2,0,10,1,0
522209,239.043824701195,4,2,0,10,1,0
522209,-100,4,2,0,10,0,0
522269,335.195530726257,4,2,0,10,1,0
522334,317.460317460317,4,2,0,10,1,0
522334,-100,4,2,0,10,0,0
522413,335.195530726257,4,2,0,10,1,0
522485,304.568527918782,4,2,0,10,1,0
522485,-100,4,2,0,10,0,0
522561,335.195530726257,4,2,0,10,1,0
522642,258.620689655172,4,2,0,10,1,0
522642,-100,4,2,0,10,0,0
522723,410.958904109589,4,2,0,10,1,0
522723,-50,4,2,0,10,0,0
523012,476.190476190476,4,2,0,10,1,0
523412,319.148936170213,4,2,0,10,1,0
523693,333.333333333333,4,2,0,10,1,0
523859,270.27027027027,4,2,0,10,1,0
523994,333.333333333333,4,2,0,10,1,0
523994,-71.4285714285714,4,2,0,10,0,0
524676,535.714285714286,4,2,0,10,1,0
524793,535.714285714286,4,2,0,10,1,0
524936,419.58041958042,4,2,0,10,1,0
525367,312.5,4,2,0,10,1,0
525679,350.877192982456,4,2,0,10,1,0
527498,326.086956521739,4,2,0,10,1,0
527742,461.538461538462,4,2,0,10,1,0
527857,402.684563758389,4,2,0,10,1,0
527957,540.540540540541,4,2,0,10,1,0
528092,472.44094488189,4,2,0,10,1,0
528209,449.438202247191,4,2,0,10,1,0
528658,419.58041958042,4,2,0,10,1,0
528762,425.531914893617,4,2,0,10,1,0
528815,337.078651685393,4,2,0,10,1,0
528899,437.956204379562,4,2,0,10,1,0
529008,419.58041958042,4,2,0,10,1,0
529112,426.287744227353,4,2,0,10,1,0
529538,337.078651685393,4,2,0,10,1,0
529706,304.568527918782,4,2,0,10,1,0
529782,510.63829787234,4,2,0,10,1,0
529909,379.746835443038,4,2,0,10,1,0
530004,422.535211267606,4,2,0,10,1,0
530109,500,4,2,0,10,1,0
530234,419.58041958042,4,2,0,10,1,0
530443,487.80487804878,4,2,0,10,1,0
530564,468.75,4,2,0,10,1,0
530681,370.37037037037,4,2,0,10,1,0
530866,538.38699257026,4,2,0,10,1,0
531135,427.046263345196,4,2,0,10,1,0
531348,545.454545454546,4,2,0,10,1,0
531484,472.44094488189,4,2,0,10,1,0
531602,405.405405405405,4,2,0,10,1,0
531703,419.58041958042,4,2,0,10,1,0
531807,508.474576271186,4,2,0,10,1,0
531870,508.474576271186,4,2,0,10,1,0
531997,530.973451327434,4,2,0,10,1,0
532129,468.75,4,2,0,10,1,0
532246,555.555555555556,4,2,0,10,1,0
532384,441.176470588235,4,2,0,10,1,0
532494,402.684563758389,4,2,0,10,1,0
532594,451.127819548872,4,2,0,10,1,0
532706,382.165605095541,4,2,0,10,1,0
532801,545.454545454546,4,2,0,10,1,0
532801,-66.6666666666667,4,2,0,10,0,0
532937,349.854227405248,4,2,0,5,1,0
532937,-100,4,2,0,5,0,0
533286,412.371134020619,4,2,0,10,1,0
533698,383.386581469649,4,2,0,10,1,0
533985,500,4,2,0,10,1,0
534110,451.127819548872,4,2,0,10,1,0
534222,419.58041958042,4,2,0,10,1,0
534326,461.538461538462,4,2,0,10,1,0
534441,555.555555555556,4,2,0,10,1,0
534579,303.030303030303,4,2,0,10,1,0
534579,-100,4,2,0,10,0,0
534882,292.682926829268,4,2,0,10,1,0
534955,-58.8235294117647,4,2,0,10,0,0
535174,428.571428571429,4,2,0,10,1,0
535281,394.736842105263,4,2,0,10,1,0
535281,-40,4,2,0,10,0,0
535719,571.428571428571,4,2,0,10,1,0
535719,-200,4,2,0,5,0,0
536481,272.727272727273,4,2,0,10,1,0
536549,326.086956521739,4,2,0,10,1,0
537201,-100,4,2,0,5,0,0
537364,-100,4,2,0,10,0,0
537604,508.474576271186,4,2,0,10,1,0
537604,-41.6666666666667,4,2,0,10,0,0
538112,333.333333333333,4,2,0,10,1,0

[HitObjects]
328,120,1434,6,0,P|356:128|388:152,2,48.9999985046387
172,120,2228,1,0,0:0:0:0:
142,139,2361,1,0,0:0:0:0:
185,173,2522,1,0,0:0:0:0:
68,212,2745,2,0,L|108:280,1,70
217,368,3195,2,0,B|257:375|257:375|258:371,1,41.9999987182618
356,176,3409,1,0,0:0:0:0:
321,168,3524,2,0,B|240:150|240:150|238:152,1,83.9999974365235
170,243,3850,6,0,L|392:293,1,210.000008010865,0|0,0:0|0:0,0:0:0:0:
468,232,4438,6,0,P|504:102|258:63,1,448,2|0,3:1|0:0,0:0:0:0:
227,151,5498,1,0,0:0:0:0:
219,247,5611,2,0,L|262:251,1,35
362,194,5810,1,0,0:0:0:0:
356,200,5900,2,0,L|321:196,1,35
444,204,6091,1,0,0:0:0:0:
448,264,6216,1,0,0:0:0:0:
405,296,6308,1,0,0:0:0:0:
386,353,6405,1,0,0:0:0:0:
331,368,6534,2,0,L|307:384,3,17.5
254,349,6853,2,0,P|210:333|198:242,1,140
199,254,8784,5,0,0:0:0:0:
193,249,8887,1,0,0:0:0:0:
165,222,9010,2,0,L|183:151,1,70
241,111,9343,1,0,0:0:0:0:
287,82,9426,1,0,0:0:0:0:
342,69,9510,2,0,P|386:105|375:183,1,140
242,269,10079,6,0,L|282:267,1,35
189,92,10307,1,0,0:0:0:0:
138,72,10436,1,0,0:0:0:0:
180,211,10619,2,0,L|332:199,1,140
259,257,11200,1,0,0:0:0:0:
242,269,11271,2,0,L|301:265,1,52.5
319,267,11550,1,0,0:0:0:0:
313,305,11634,1,0,0:0:0:0:
293,340,11718,1,0,0:0:0:0:
257,356,11803,2,0,P|209:353|155:239,1,181.999991668702
243,34,12768,5,0,0:0:0:0:
285,79,12829,1,0,0:0:0:0:
312,108,12890,1,0,0:0:0:0:
328,128,12952,1,0,0:0:0:0:
328,128,13952,5,0,0:0:0:0:
312,108,14013,1,0,0:0:0:0:
285,79,14073,1,0,0:0:0:0:
243,34,14133,1,0,0:0:0:0:
168,56,14357,6,0,P|92:120|188:248,1,280
280,184,15610,6,0,L|280:156,1,14.8750002837181
356,200,16628,1,0,0:0:0:0:
390,181,16699,1,0,0:0:0:0:
427,159,16770,2,0,L|430:86,1,70
323,63,17538,5,0,0:0:0:0:
332,64,17559,2,0,L|206:41,1,122.5
176,64,17888,1,0,0:0:0:0:
146,175,18097,2,0,L|235:249,1,105
261,236,18381,1,0,0:0:0:0:
400,278,18711,1,0,0:0:0:0:
400,256,18751,2,0,L|383:206,1,52.5
385,173,18901,6,0,B|379:172|379:172|389:172|389:172|386:175|386:175|391:172|391:172|381:176|381:176|381:167|381:167|387:177|387:177|389:171|389:171|388:171|388:171|381:171|381:171|386:177|386:177|386:168|386:168|390:177|390:177|385:172|385:172|386:172|386:172|382:175|382:175|384:169|384:169|388:169|388:169|381:168|381:168,1,122.5
314,119,19228,1,0,0:0:0:0:
320,152,19277,2,0,L|279:256,1,105
243,256,19581,1,0,0:0:0:0:
99,107,19948,2,0,L|154:223,1,122.5
184,220,20301,1,0,0:0:0:0:
512,253,20483,2,0,L|432:245,1,70
392,155,20818,2,0,L|423:145,1,31.4999990386963
400,36,21020,6,0,B|496:72,1,97.9999970092774
510,105,21213,1,0,0:0:0:0:
340,243,21553,2,0,L|377:316,1,70
328,142,22066,1,0,0:0:0:0:
161,138,22230,6,0,L|207:184,1,35
148,211,22464,6,0,L|214:217,1,35
186,276,22678,6,0,L|240:238,1,35
256,301,22913,6,0,L|274:237,1,35
326,275,23133,6,0,L|299:215,1,35
256,192,23362,5,0,0:0:0:0:
153,24,23516,6,0,B|125:20|125:20|153:36|153:36|125:36|125:36|136:47|136:47|125:47|125:47|133:56|133:56|117:64,1,140,8|0,0:0|0:0,0:0:0:0:
451,23,24247,6,0,P|471:55|399:97,1,140,2|0,0:0|0:0,0:0:0:0:
148,144,24881,5,0,0:0:0:0:
352,284,25078,1,0,0:0:0:0:
388,160,26883,5,0,0:0:0:0:
362,131,26976,1,0,0:0:0:0:
327,148,27070,1,0,0:0:0:0:
332,186,27164,1,0,0:0:0:0:
369,193,27258,2,0,B|499:179|499:179|479:181,1,140
430,263,28132,6,0,B|421:263|421:263|426:279|426:279|414:277|414:277|424:291|424:291|405:295|405:295|401:311|409:324|409:324|394:334|387:349,1,140
78,275,29157,5,0,0:0:0:0:
82,311,29252,2,0,P|111:225|154:182,1,140
82,311,29964,2,0,P|182:283|208:292,1,131.25
220,331,30390,1,0,0:0:0:0:
492,320,30643,5,0,0:0:0:0:
391,355,30901,1,0,0:0:0:0:
488,132,31155,5,0,0:0:0:0:
387,97,31434,1,0,0:0:0:0:
102,93,31737,5,0,0:0:0:0:
215,126,32060,1,0,0:0:0:0:
48,188,32431,5,0,0:0:0:0:
48,192,32865,2,0,L|59:199,1,8.75
424,232,34190,6,0,B|418:238|418:238|424:238|424:238|415:231|415:231|431:232|431:232|416:226|416:226|429:233|429:233|423:229|423:229|429:239|429:239|429:234|429:234|423:222|423:222|424:230|424:230|428:234|428:234|429:224|429:224|428:236,1,140
427,194,35224,6,0,L|435:170,1,17.5
410,208,35342,2,0,L|368:102,1,112
362,180,37319,6,0,B|271:157|277:237|320:243|320:243|362:246|376:332|280:304,1,280
456,248,39396,5,0,0:0:0:0:
344,128,39993,6,0,L|356:123,2,8.75
386,296,40184,1,0,0:0:0:0:
168,324,40372,2,0,L|183:333,1,14
252,187,40582,2,0,P|227:179|258:175,1,70
296,177,40856,1,0,0:0:0:0:
340,191,40941,1,0,0:0:0:0:
384,205,41027,1,0,0:0:0:0:
428,217,41091,1,0,0:0:0:0:
472,231,41184,2,0,B|488:297|488:297|472:372,1,140
310,350,41765,2,0,L|262:291,1,70
292,137,42362,2,0,P|309:146|316:180,1,46.6666666666667
293,228,42564,1,0,0:0:0:0:
448,212,42743,5,0,0:0:0:0:
398,284,42944,2,0,L|392:273,1,8.75
472,336,43145,2,0,P|465:353|440:352,1,46.6666666666667
314,346,43361,1,0,0:0:0:0:
208,307,43543,2,0,B|179:285|184:285|153:261,1,70
93,186,43953,1,0,0:0:0:0:
193,153,44169,2,0,B|198:180|198:180|217:189,1,35
165,363,44515,2,0,B|159:373|146:366,1,17.5
0,292,44637,5,0,0:0:0:0:
0,267,44914,5,0,0:0:0:0:
102,182,45172,5,0,0:0:0:0:
146,251,45534,5,0,0:0:0:0:
312,267,45921,5,0,0:0:0:0:
337,134,46291,5,0,0:0:0:0:
512,153,46643,5,0,0:0:0:0:
312,267,47324,6,0,B|310:257|310:257|316:277|316:277|305:258|305:258|321:273|321:273|302:263|302:263|323:267|323:267|302:268|302:268|323:263|323:263|303:273|303:273|320:259|320:259|305:276|305:276|315:257|315:257|310:278|310:278|312:268,1,280,0|0,3:2|3:2,3:2:0:0:
391,158,49313,5,0,0:0:0:0:
380,178,49389,1,0,0:0:0:0:
371,199,49466,1,0,0:0:0:0:
365,223,49543,2,0,P|314:199|295:331,1,245
320,340,50205,2,0,L|350:320,1,35
432,320,50422,1,0,0:0:0:0:
461,300,50536,1,0,0:0:0:0:
484,223,50737,2,0,P|425:122|365:222,1,280
59,137,52024,5,0,0:0:0:0:
151,355,52235,1,0,0:0:0:0:
270,88,52526,6,0,P|220:122|194:208,1,140
308,196,53325,5,0,0:0:0:0:
141,183,54094,6,0,L|176:228,1,35
266,251,54376,1,0,0:0:0:0:
366,155,54684,1,2,0:0:0:0:
417,231,54969,1,0,0:0:0:0:
141,183,55144,2,0,L|197:145,1,52.5
265,144,55444,6,0,L|288:160,1,26.25
260,164,55608,2,0,B|250:219|250:219|311:218|377:280|348:363,1,251.999992309571
249,325,56535,6,2,L|206:339,2,35
131,279,56852,1,2,0:0:0:0:
190,302,56987,1,4,0:3:0:0:
223,216,57648,6,0,B|206:182|206:182|172:191,1,70
96,207,57966,2,0,L|115:249,1,35
7,257,58240,1,0,0:0:0:0:
64,339,58395,2,0,L|137:346,1,70
390,203,59124,5,2,0:0:0:0:
413,228,59180,1,2,0:0:0:0:
412,262,59237,2,0,L|365:315,1,70,2|0,0:0|0:0,0:0:0:0:
101,159,60291,6,0,L|66:185,1,35
20,286,60485,2,0,L|95:366,1,105
133,248,60820,2,0,L|257:333,1,140
287,266,61223,2,0,B|250:242|250:242|250:242|250:242|250:242|250:242|244:238|244:238|250:242|250:242|244:238|244:238|250:242,1,70
454,220,62194,5,0,0:0:0:0:
444,241,62231,1,0,0:0:0:0:
448,263,62269,1,0,0:0:0:0:
467,277,62307,2,0,P|450:321|341:361,1,167.999994873047
136,117,64809,6,0,L|176:145,1,35
163,242,65013,1,0,0:0:0:0:
309,214,65317,1,0,0:0:0:0:
120,64,65507,2,0,P|139:49|240:32,1,122.5
204,92,66083,2,0,P|171:125|286:217,1,245
424,144,67221,2,0,P|393:223|236:253,1,245
143,238,68162,6,0,L|148:288,1,41.9999987182618
256,300,68774,2,0,L|251:258,1,41.9999987182618
353,259,69524,2,0,L|334:286,1,17.5
346,219,69628,2,0,L|327:205,1,17.5
385,210,69733,2,0,L|398:191,1,17.5
395,252,69838,2,0,P|423:272|409:361,1,125.999996154785
176,188,70660,6,0,L|204:184,1,20.9999993591309
209,222,70769,2,0,L|234:219,1,20.9999993591309
392,312,71671,5,0,0:0:0:0:
398,329,71743,2,0,L|424:336,1,17.5
414,333,73199,5,0,0:0:0:0:
398,329,73274,2,0,L|389:301,1,17.5
390,134,76350,5,0,0:0:0:0:
313,213,76517,2,0,P|329:229|354:240,1,35
380,246,76687,1,0,0:0:0:0:
416,244,76787,2,0,P|489:187|502:140,1,140
148,83,77620,6,0,L|117:105,1,35
170,179,77872,2,0,L|102:179,1,68.2499968757631
12,158,78069,2,0,P|23:227|86:270,1,140
380,246,79301,6,0,B|450:246|450:246|497:189,2,140
191,162,81703,6,0,L|153:180,1,35
87,177,81929,2,0,L|49:274,1,105
222,264,82753,6,0,L|298:264,1,70,0|0,2:2|0:0,0:0:0:0:
256,192,83046,1,2,0:0:0:0:
112,136,83365,2,0,P|256:40|396:136,1,358.75
98,206,85828,5,0,0:0:0:0:
100,211,85958,1,0,0:0:0:0:
104,219,86067,1,0,0:0:0:0:
111,233,86230,1,0,0:0:0:0:
123,247,86322,5,0,0:0:0:0:
141,259,86462,1,0,0:0:0:0:
176,268,86584,1,0,0:0:0:0:
210,231,86688,1,0,0:0:0:0:
222,175,86810,5,0,0:0:0:0:
263,115,86942,1,0,0:0:0:0:
344,118,87049,1,0,0:0:0:0:
386,195,87158,1,0,0:0:0:0:
335,270,87272,5,0,0:0:0:0:
250,268,87386,1,0,0:0:0:0:
194,194,87508,1,0,0:0:0:0:
209,92,87618,1,0,0:0:0:0:
301,49,87743,5,0,0:0:0:0:
403,65,87842,1,0,0:0:0:0:
461,163,87946,1,0,0:0:0:0:
451,271,88036,1,0,0:0:0:0:
355,352,88160,6,0,P|184:357|373:70,1,744.799969315187
267,203,89422,5,0,0:0:0:0:
356,188,89667,2,0,L|343:155,1,35
216,136,89927,1,0,0:0:0:0:
184,188,90049,1,0,0:0:0:0:
233,277,90256,1,0,0:0:0:0:
293,281,90428,1,0,0:0:0:0:
356,188,90640,1,0,0:0:0:0:
272,124,90773,5,0,0:0:0:0:
216,136,90860,2,0,P|184:190|198:263,1,140
272,197,91706,5,0,0:0:0:0:
328,144,91864,5,0,0:0:0:0:
284,272,92007,5,0,0:0:0:0:
196,128,92160,5,0,0:0:0:0:
124,240,92308,5,0,0:0:0:0:
334,255,92476,5,0,0:0:0:0:
208,125,92635,5,0,0:0:0:0:
318,340,92788,5,0,0:0:0:0:
146,296,92965,5,0,0:0:0:0:
255,230,93140,5,0,0:0:0:0:
166,349,93315,5,0,0:0:0:0:
379,370,93447,5,0,0:0:0:0:
250,168,93593,5,0,0:0:0:0:
442,335,93773,5,0,0:0:0:0:
252,296,95207,6,0,B|252:312|252:312|256:300|260:312|260:312|260:303|260:303|264:312|264:312|260:304|260:304|248:300|248:300|260:308|260:308|248:312|248:312|248:300|263:296|263:296|264:312|264:312|244:316|244:316|244:304|244:304|264:308|264:308|261:307,1,183.750007009506
100,340,95993,6,0,L|85:314,3,17.5
153,335,96238,1,0,0:0:0:0:
197,307,96308,1,0,0:0:0:0:
232,266,96380,1,0,0:0:0:0:
248,214,96469,1,0,0:0:0:0:
243,160,96535,1,0,0:0:0:0:
224,109,96609,1,0,0:0:0:0:
188,68,96679,1,0,0:0:0:0:
156,77,96734,2,0,L|143:70,1,8.75
188,68,97585,6,0,L|163:45,1,26.2500010013581
188,68,97682,2,0,L|245:20,1,70
255,175,98467,6,0,P|248:218|223:253,1,83.9999974365235
149,184,98969,1,0,0:0:0:0:
151,143,99039,1,0,0:0:0:0:
170,106,99110,1,0,0:0:0:0:
197,84,99181,2,0,P|220:72|246:67,1,52.5
347,105,99434,2,0,P|297:163|242:175,1,122.5
225,250,99983,1,0,0:0:0:0:
338,253,100367,5,0,0:0:0:0:
331,245,100406,2,0,P|324:288|144:315,1,262.5
123,271,101164,1,0,0:0:0:0:
123,222,101264,1,0,0:0:0:0:
146,182,101364,6,0,L|158:170,1,17.5
348,40,101514,2,0,L|354:56,3,11.6666666666667
329,101,101732,2,0,L|351:227,1,122.5
359,284,102107,1,0,0:0:0:0:
444,65,102294,5,0,0:0:0:0:
433,92,102341,1,0,0:0:0:0:
423,120,102388,2,0,B|397:183|397:183|393:179,1,70
329,101,102683,2,0,L|274:78,1,52.5
247,66,102873,1,0,0:0:0:0:
102,96,103049,2,0,P|91:129|87:167,1,70
136,312,103442,6,0,B|239:223|111:171|227:81,1,258.999999011993
227,338,103742,1,0,0:0:0:0:
306,340,103830,6,0,B|236:241|340:243|307:157|309:119|309:119|349:250|396:247|444:184|452:106|421:24|366:-34|300:-11|311:78|309:119,1,700
176,216,104483,6,0,L|201:249,1,35
188,331,104752,1,0,0:0:0:0:
288,260,104853,1,0,0:0:0:0:
299,372,104986,1,0,0:0:0:0:
278,146,105121,2,0,L|348:173,2,70
176,216,106028,1,0,0:0:0:0:
344,172,106285,5,0,0:0:0:0:
366,196,106363,1,0,0:0:0:0:
385,222,106442,2,0,P|441:243|351:295,1,224
286,259,107035,2,0,P|295:220|311:195,1,70
344,172,107431,6,0,P|500:323|285:283,1,560
20,120,109337,6,0,P|39:158|27:188,2,70
74,56,109854,2,0,B|122:76|122:76|127:73|127:73|127:79|127:79|132:76|132:76|133:82|133:82,1,70
243,157,110197,2,0,L|172:188,1,73.4999977569581
101,255,110534,6,0,P|147:321|226:311,1,167.999994873047
307,175,111539,2,0,L|336:251,1,70
402,281,111881,2,0,P|366:312|305:314,1,105
192,196,112260,2,0,B|220:97|327:52|431:100|467:188|422:263|402:282|402:282|376:315|329:298|308:273|324:233|350:230,1,560
312,132,114523,5,2,0:0:0:0:
245,203,114653,1,0,0:0:0:0:
351,220,114783,1,0,0:0:0:0:
285,288,114919,1,0,0:0:0:0:
131,178,115168,2,0,L|147:237,1,52.5
122,258,115382,2,0,P|169:301|251:303,1,140
88,216,116566,6,0,B|91:222|91:222|92:212|92:212|82:216|82:216|91:222,1,35
512,120,117289,6,0,L|224:180,1,280
88,216,118086,2,0,P|89:193|61:147,1,62.9999980773926
0,212,118547,1,0,0:0:0:0:
145,242,118778,2,0,P|151:203|142:155,1,83.9999974365235
173,88,119239,2,0,P|210:170|192:288,1,210.000008010865
475,177,119899,6,0,B|488:148|488:148|474:72,1,90.9999958343508
304,92,120248,1,0,0:0:0:0:
219,248,120447,2,0,B|206:268|206:268|211:318,1,66.4999982242585
216,330,120648,6,2,L|215:340,1,8.75
222,339,120713,6,2,L|222:349,1,8.75
229,348,120778,6,2,L|231:357,1,8.75
238,355,120843,6,2,L|241:364,1,8.75
247,361,120909,6,2,L|252:370,1,8.75
258,366,120974,6,2,L|263:374,1,8.75
264,364,121039,6,2,L|275:376,1,8.75
340,279,121224,2,0,B|360:248|360:248|349:178,1,97.9999970092774
326,154,121511,6,0,B|318:168|318:168|321:171,1,17.5
168,284,125678,6,0,L|151:267,6,17.5
216,224,126133,2,0,L|282:204,1,70
368,200,126455,1,0,0:0:0:0:
357,192,126545,2,0,B|303:149|303:149|277:125|279:87|299:67|299:67|316:52,1,175
424,52,127153,1,8,0:0:0:0:
484,144,127355,2,2,L|492:147,16,8.75
219,171,128317,6,4,L|224:184,1,8.75
356,226,128808,6,0,B|476:246|476:246|467:267,1,140
469,263,129146,6,0,B|356:320|356:320|352:332,1,140
351,332,129485,6,0,P|284:386|229:372,1,140
204,352,129945,1,0,0:0:0:0:
191,314,130016,1,0,0:0:0:0:
198,274,130088,1,0,0:0:0:0:
312,80,130965,6,0,P|338:54|445:62,1,140
469,79,131484,1,0,0:0:0:0:
448,116,131533,2,0,P|422:142|315:134,1,140
60,320,132951,6,0,B|51:294|43:327|72:352|104:334|103:298|80:269|37:258|-16:300|-4:332|42:369|72:372|104:356|120:324|128:300|119:278|90:263|60:243,1,280
173,233,134765,5,0,0:0:0:0:
240,279,134848,1,0,0:0:0:0:
400,351,135031,1,0,0:0:0:0:
247,229,135198,2,0,L|284:232,1,35
437,238,135431,1,0,0:0:0:0:
263,152,135611,5,0,0:0:0:0:
155,304,135787,1,0,0:0:0:0:
234,322,135877,1,0,0:0:0:0:
400,351,136025,1,0,0:0:0:0:
287,142,136224,5,0,0:0:0:0:
150,360,136394,1,0,0:0:0:0:
233,360,136483,1,0,0:0:0:0:
400,351,136659,1,0,0:0:0:0:
313,130,136841,1,0,0:0:0:0:
317,134,136910,1,0,0:0:0:0:
327,274,141933,6,0,P|362:202|362:170,1,112
102,187,143361,5,0,0:0:0:0:
205,107,143548,1,0,0:0:0:0:
175,178,143637,1,0,0:0:0:0:
131,266,143950,2,0,B|177:261|177:261|176:257,1,48.9999985046387
63,124,144276,6,0,P|142:95|217:98,1,157.5
288,154,145468,6,2,B|261:132|222:175|222:175|254:162|283:192|283:192|253:179|228:222|228:222|253:200|280:230|280:230|254:217|235:243|235:243|257:230|274:255|274:255|251:251|232:266|232:266|253:268|266:273|266:273|250:287|235:291|235:291|260:298|260:298|240:308|240:308|255:309|255:309|250:315|250:315,1,560,2|0,0:3|0:3,0:3:0:0:
132,268,146679,6,0,L|171:268,1,35
63,125,146884,2,0,P|126:101|237:120,1,175
223,253,147673,5,0,0:0:0:0:
434,210,147829,6,0,P|406:202|378:201,1,52.5
122,152,148127,5,0,0:0:0:0:
125,263,148348,1,0,0:0:0:0:
422,311,148468,6,0,P|360:317|333:313,1,83.9999974365235
122,208,148889,5,0,0:0:0:0:
288,154,149391,6,2,B|261:132|222:175|222:175|254:162|283:192|283:192|253:179|228:222|228:222|253:200|280:230|280:230|254:217|235:243|235:243|257:230|274:255|274:255|251:251|232:266|232:266|253:268|266:273|266:273|250:287|235:291|235:291|260:298|260:298|240:308|240:308|255:309|255:309|250:315|250:315,1,560,2|0,0:3|0:3,0:3:0:0:
338,234,150660,2,0,L|322:214,1,17.5
356,264,150764,1,0,0:0:0:0:
456,356,151389,5,0,0:0:0:0:
410,350,151511,1,0,0:0:0:0:
397,281,151643,1,0,0:0:0:0:
284,264,151769,1,0,0:0:0:0:
260,127,151903,1,0,0:0:0:0:
80,88,152024,1,0,0:0:0:0:
80,88,152720,5,0,0:0:0:0:
260,127,152835,1,0,0:0:0:0:
284,264,152952,1,0,0:0:0:0:
397,281,153100,1,0,0:0:0:0:
410,350,153233,1,0,0:0:0:0:
456,356,153380,1,0,0:0:0:0:
143,168,153590,6,0,P|164:214|158:266,1,105
95,318,153938,2,0,B|136:347|189:347|189:347|136:347|95:318,1,140
379,127,154659,6,0,L|351:152,1,35
393,172,154876,2,0,L|358:186,1,35
392,221,155093,2,0,L|354:222,1,35
373,266,155311,2,0,L|338:254,1,35
162,128,155669,5,0,0:0:0:0:
133,142,155755,2,0,P|126:207|181:258,1,140
216,258,156185,1,0,0:0:0:0:
395,172,156360,2,0,L|385:253,1,70
368,154,156610,6,0,L|360:164,1,8.75
341,119,157602,6,0,L|460:120,1,105.000004005432
150,154,157868,6,0,L|92:50,1,105.000004005432
278,302,158202,6,0,P|227:207|155:299,1,262.500010013581
217,273,158668,6,0,P|327:349|218:271,1,420.000016021729
316,115,159481,5,0,0:0:0:0:
338,136,159528,1,0,0:0:0:0:
304,148,159589,2,0,B|254:78|209:197|184:75|72:136,1,245
72,243,160545,6,0,L|108:224,1,35
68,270,160698,2,0,B|106:365|148:240|186:333|186:333|231:317|278:337,1,245
426,332,161656,6,0,B|452:336|452:316|452:316|452:291|413:245|360:237,1,146.999995513916
139,196,162138,6,0,L|122:164,1,35
45,55,162342,6,0,L|81:56,1,35
214,45,162517,6,0,L|194:75,2,35
281,223,162845,1,0,0:0:0:0:
376,177,163408,6,0,L|417:216,1,35
397,255,163678,2,0,L|359:211,1,52.5
302,162,163978,6,0,B|363:103|376:45|376:45|389:103|448:164,1,280
317,310,164669,5,0,0:0:0:0:
229,363,164750,2,0,L|214:333,1,17.5
231,258,164865,2,0,L|216:282,1,17.5
157,310,164992,6,0,P|114:268|183:80,1,280
288,94,165802,1,0,0:0:0:0:
384,92,165963,1,0,0:0:0:0:
388,96,166043,1,0,0:0:0:0:
392,100,166124,1,0,0:0:0:0:
396,104,166205,1,0,0:0:0:0:
416,128,166285,2,0,L|432:137,12,11.6666666666667
273,98,166983,1,0,0:0:0:0:
380,280,167830,6,0,B|371:270|362:275|357:286|369:291,1,35
369,292,167988,6,0,B|377:301|386:296|391:285|379:280,1,35
272,116,168805,2,0,B|322:65|322:65|281:262,1,245
256,308,169948,6,0,P|209:331|180:320,1,70
128,236,172667,1,0,0:0:0:0:
248,236,173054,1,0,0:0:0:0:
253,211,173115,1,0,0:0:0:0:
258,187,173177,1,0,0:0:0:0:
263,162,173229,1,0,0:0:0:0:
268,138,173294,1,0,0:0:0:0:
273,113,173360,1,0,0:0:0:0:
278,89,173426,1,0,0:0:0:0:
283,64,173491,1,0,0:0:0:0:
464,32,173802,5,0,0:0:0:0:
176,80,174710,5,0,0:0:0:0:
200,103,174769,1,0,0:0:0:0:
196,155,174847,1,0,0:0:0:0:
241,146,174901,2,0,P|222:240|340:316,1,245
130,270,175661,6,0,L|129:306,1,35
426,180,175937,2,0,L|425:211,1,17.5
424,212,176068,1,0,0:0:0:0:
420,224,176123,1,0,0:0:0:0:
360,260,176185,1,0,0:0:0:0:
122,99,176397,1,0,0:0:0:0:
190,103,176762,1,0,0:0:0:0:
294,172,176889,2,0,P|333:163|358:188,1,70
208,342,177522,6,0,L|248:339,1,23.3333333333333
300,346,177615,2,0,L|261:348,1,23.3333333333333
202,293,177709,2,0,L|246:295,1,23.3333333333333
303,299,177803,2,0,L|262:297,1,23.3333333333333
194,246,177897,2,0,L|238:255,1,25.6666674499512
317,248,177990,2,0,L|277:242,1,25.6666674499512
179,195,178084,2,0,L|232:188,1,27.9999991455078
332,199,178178,2,0,L|280:184,1,27.9999991455078
171,142,178272,2,0,L|207:152,1,32.6666656697591
342,154,178366,2,0,L|291:137,1,32.6666656697591
155,90,178459,2,0,L|200:82,1,41.9999987182618
357,104,178553,2,0,L|310:106,1,41.9999987182618
151,37,178647,2,0,L|206:46,1,44.3333321495057
370,49,178741,2,0,L|409:25,1,44.3333321495057
471,200,178835,2,0,L|512:231,1,46.6666666666667
425,343,178928,6,8,P|304:380|89:73,1,560,8|0,0:0|0:0,0:0:0:0:
248,184,180791,6,0,L|224:117,1,70
227,278,181214,2,0,L|139:250,1,70
49,262,181663,2,0,B|49:147|185:107|247:187|247:187|273:173,1,297.5
484,384,183140,6,0,L|462:353,1,35
463,355,183407,6,0,L|484:310,1,48.9999985046387
483,310,183561,6,0,L|444:255,1,62.9999980773926
446,258,183729,6,0,L|475:185,1,70
471,192,183871,6,0,L|453:97,1,87.5
454,106,184030,6,0,L|504:14,1,105.000004005432
508,4,184137,1,0,0:2:0:0:
51,146,184869,5,0,0:0:0:0:
149,370,185017,5,0,0:0:0:0:
332,242,185154,5,0,0:0:0:0:
266,384,185291,5,0,0:0:0:0:
194,125,185432,5,0,0:0:0:0:
100,347,185548,5,0,0:0:0:0:
272,181,185677,5,0,0:0:0:0:
416,351,185828,5,0,0:0:0:0:
281,142,185957,5,0,0:0:0:0:
184,382,186096,5,0,0:0:0:0:
221,185,186223,5,0,0:0:0:0:
230,374,186369,5,0,0:0:0:0:
359,250,186499,5,0,0:0:0:0:
149,329,186635,5,0,0:0:0:0:
297,225,186781,5,0,0:0:0:0:
97,276,186920,5,0,0:0:0:0:
217,163,187069,5,0,0:0:0:0:
209,297,187191,5,0,0:0:0:0:
301,169,187327,5,0,0:0:0:0:
312,336,187483,5,0,0:0:0:0:
240,176,187608,5,0,0:0:0:0:
237,352,187759,5,0,0:0:0:0:
272,91,187911,5,0,0:0:0:0:
243,276,188019,5,0,0:0:0:0:
114,232,188166,5,0,0:0:0:0:
202,151,188307,5,0,0:0:0:0:
66,159,188452,5,0,0:0:0:0:
0,0,188578,5,0,0:0:0:0:
264,52,188781,1,0,0:0:0:0:
136,48,189006,6,0,P|85:198|224:207,1,335.999989746094
128,186,191118,6,0,L|189:227,1,70
186,225,191368,2,0,P|289:134|358:119,1,210.000008010865
343,222,191924,2,0,L|343:270,1,45.4999979171754
48,280,192684,6,0,B|58:303|58:303|37:309|37:309|43:272,1,70
33,261,192971,2,0,L|208:68,1,251.999992309571
365,44,193759,6,0,P|280:132|355:169,1,245
340,105,194059,2,0,P|452:172|232:256,1,525
339,287,194996,1,0,0:0:0:0:
352,192,195103,2,0,L|385:215,2,35
220,151,195474,5,0,0:0:0:0:
113,284,195589,5,0,0:0:0:0:
128,150,195685,5,0,0:0:0:0:
259,274,195785,5,0,0:0:0:0:
129,218,195908,5,0,0:0:0:0:
262,207,196019,5,0,0:0:0:0:
69,177,196146,5,0,0:0:0:0:
256,120,196247,5,0,0:0:0:0:
141,294,196367,5,0,0:0:0:0:
356,240,196494,5,0,0:0:0:0:
194,155,196602,5,0,0:0:0:0:
226,315,196701,5,0,0:0:0:0:
188,79,196805,5,0,0:0:0:0:
290,273,196907,5,0,0:0:0:0:
260,73,197144,5,0,0:0:0:0:
450,60,197281,6,0,P|472:90|484:125,1,70
485,196,197556,1,0,0:0:0:0:
390,265,197701,1,0,0:0:0:0:
358,237,197768,1,0,0:0:0:0:
331,202,197828,2,0,P|308:152|316:64,1,140
167,233,198444,5,0,0:0:0:0:
82,86,198672,2,0,L|81:155,1,70
28,154,199158,2,0,L|56:216,1,70
166,377,199644,2,0,L|7:237,1,210.000008010865
163,158,200915,5,0,0:0:0:0:
400,223,202582,5,0,0:0:0:0:
309,246,202667,2,0,P|345:300|394:317,1,112
400,223,203124,1,0,0:0:0:0:
424,315,203267,2,0,P|494:224|387:129,1,280
214,220,205788,5,0,0:0:0:0:
169,244,207605,6,0,P|168:201|195:176,2,70
271,254,208017,1,0,0:0:0:0:
281,224,208049,1,0,0:0:0:0:
275,189,208114,1,0,0:0:0:0:
249,165,208182,1,0,0:0:0:0:
258,145,209481,6,0,L|252:184,1,35
212,324,209737,2,0,L|256:288,1,52.5
331,260,209936,2,0,P|349:292|281:352,1,140
256,210,211391,5,0,0:0:0:0:
239,201,211448,1,0,0:0:0:0:
239,182,211505,1,0,0:0:0:0:
256,173,211563,1,0,0:0:0:0:
272,182,211620,1,0,0:0:0:0:
272,201,211678,1,0,0:0:0:0:
368,112,212069,2,0,B|346:98|346:98|330:98|330:82|330:82|314:70|282:62|254:82|254:82|250:76|236:60|208:72|208:72|184:64|176:88|176:88|144:96|144:96|128:120,1,280
100,200,213198,6,0,L|92:190,1,8.75
366,223,214401,5,0,0:0:0:0:
339,244,214484,2,0,P|311:263|288:263,1,52.5
300,325,214698,2,0,P|216:329|179:293,1,140
159,184,215190,1,0,0:0:0:0:
181,139,215243,1,0,0:0:0:0:
230,127,215297,1,0,0:0:0:0:
278,141,215350,1,0,0:0:0:0:
306,180,215404,1,0,0:0:0:0:
326,226,215456,2,0,P|379:244|430:188,1,140
398,94,216261,5,0,0:0:0:0:
398,73,216336,1,0,0:0:0:0:
379,84,216411,1,0,0:0:0:0:
401,96,216487,1,0,0:0:0:0:
401,69,216562,1,0,0:0:0:0:
376,84,216637,1,0,0:0:0:0:
406,104,216713,1,0,0:0:0:0:
406,61,216788,1,0,0:0:0:0:
367,84,216864,1,0,0:0:0:0:
394,83,216901,1,0,0:0:0:0:
135,97,217718,5,0,0:0:0:0:
135,76,217804,1,0,0:0:0:0:
116,87,217891,1,0,0:0:0:0:
138,99,217978,1,0,0:0:0:0:
138,72,218064,1,0,0:0:0:0:
113,87,218151,1,0,0:0:0:0:
143,107,218238,1,0,0:0:0:0:
143,64,218324,1,0,0:0:0:0:
104,87,218411,1,0,0:0:0:0:
146,111,218498,1,0,0:0:0:0:
146,59,218585,1,0,0:0:0:0:
99,87,218671,1,0,0:0:0:0:
153,120,218758,1,0,0:0:0:0:
153,48,218845,1,0,0:0:0:0:
87,87,218931,1,0,0:0:0:0:
115,284,219592,5,0,0:0:0:0:
102,218,219766,1,0,0:0:0:0:
124,298,219910,1,0,0:0:0:0:
92,205,220053,1,0,0:0:0:0:
144,299,220226,1,0,0:0:0:0:
73,204,220401,1,0,0:0:0:0:
271,316,220653,6,0,L|278:351,1,35
372,219,221031,6,0,L|412:230,2,35
325,101,221294,6,0,B|271:68|192:69|131:116|116:162|116:162|118:172|118:172|95:155,1,280
290,164,222157,6,0,L|306:201,1,35
221,252,222332,1,0,0:0:0:0:
212,264,222374,1,0,0:0:0:0:
201,272,222418,2,0,P|111:228|224:192,1,280
170,220,223380,5,0,0:0:0:0:
151,162,224403,6,0,L|165:204,1,35
331,283,224625,2,0,L|319:249,1,35
427,104,224845,2,0,L|438:137,1,35
285,124,225153,2,0,L|270:155,1,35
124,339,225528,2,0,L|107:301,1,35
165,72,225989,2,0,L|182:110,1,35
376,21,226344,2,0,L|359:59,1,35
404,180,227605,6,0,B|414:194|414:194|405:182|405:182|415:179|415:179|404:196|404:196|406:165|406:165|404:167|404:167|393:189|393:189|416:181|416:181|417:171|417:171|410:175|422:186|422:186|388:181|388:181|369:180|420:184|420:184|389:167|389:167|400:187|400:187|420:175|420:175|405:167|405:167|411:166|411:166|407:172|407:172|397:167|397:167|416:184|416:184|418:186|418:186|428:183|403:180|403:180,1,420
92,152,229295,5,2,0:0:0:0:
109,192,229348,1,2,0:0:0:0:
125,226,229402,2,0,L|154:288,1,70,2|0,0:0|0:0,0:0:0:0:
150,41,229723,1,2,0:0:0:0:
167,74,229776,1,2,0:0:0:0:
183,106,229830,2,0,L|286:309,1,224,2|0,0:0|0:0,0:0:0:0:
375,124,230660,6,0,L|347:132,1,26.25
380,160,230767,2,0,L|372:188,1,26.25
408,144,230927,2,0,L|468:128,1,61.25
408,106,231221,2,0,L|416:86,3,17.5
405,50,231508,2,0,L|359:34,1,43.75
234,80,231688,2,0,L|252:100,1,26.25
276,108,231758,5,0,0:0:0:0:
283,228,231968,1,0,0:0:0:0:
412,308,232106,2,0,L|380:372,1,70
289,313,232507,1,0,0:0:0:0:
168,320,232713,2,0,L|208:380,1,70
248,136,233092,5,0,0:0:0:0:
208,192,233307,1,0,0:0:0:0:
80,36,233504,5,0,0:0:0:0:
184,56,233706,1,0,0:0:0:0:
126,234,234113,5,0,0:0:0:0:
154,206,234172,1,0,0:0:0:0:
181,234,234242,1,0,0:0:0:0:
154,262,234294,1,0,0:0:0:0:
346,119,234872,6,0,L|398:95,1,52.5
371,145,235108,2,0,L|395:93,1,52.5
442,166,235344,2,0,P|436:21|332:36,1,280
154,222,236747,5,0,0:0:0:0:
154,222,237328,1,0,0:0:0:0:
154,226,237383,1,0,0:0:0:0:
154,230,237439,1,0,0:0:0:0:
154,234,237494,1,0,0:0:0:0:
308,232,238275,6,0,L|300:176,1,52.5
372,160,238547,2,0,L|404:200,1,45.4999979171754
476,232,238853,2,0,L|456:244,1,20.9999993591309
400,323,239116,2,0,L|380:316,1,17.5
320,248,239393,2,0,L|308:256,1,14
224,328,240378,6,0,P|226:244|70:269,1,280
140,104,242163,5,0,0:0:0:0:
90,206,242334,2,0,L|95:247,1,35
153,284,242600,1,0,0:0:0:0:
208,104,242857,2,0,L|228:128,2,23.3333333333333
163,96,243066,2,0,L|143:140,1,35
146,286,243414,1,0,0:0:0:0:
151,290,243537,1,0,0:0:0:0:
240,36,243761,1,0,0:0:0:0:
264,296,244010,6,0,B|256:279|271:266|271:266|300:268|316:235|298:206|298:206|325:191|327:162|327:162|307:136|339:121|339:121|310:93|329:62,1,280
404,319,245072,6,0,L|459:329,2,46.6666666666667
301,314,245454,2,0,P|319:258|396:215,1,140
108,319,245955,6,0,L|68:219,1,105
108,319,246121,2,0,P|144:259|92:63,1,280
307,43,246574,5,0,0:0:0:0:
442,164,246736,1,0,0:0:0:0:
314,268,246900,2,0,L|217:228,1,105
377,215,247530,1,0,0:0:0:0:
330,347,247745,1,0,0:0:0:0:
255,324,247898,6,0,B|167:289|167:289|126:210,1,183.750007009506
90,296,248222,2,0,P|38:180|215:237,1,420.000016021729
378,33,249090,5,0,0:0:0:0:
443,66,249239,1,0,0:0:0:0:
406,127,249393,1,0,0:0:0:0:
344,94,249551,1,0,0:0:0:0:
480,131,249759,2,0,L|475:239,1,105.000004005432
423,215,250101,6,0,B|422:233|422:233|363:247|320:304,1,140
229,137,251301,6,0,L|264:156,1,35
313,101,251543,6,0,L|282:84,1,35
150,101,251921,2,0,P|146:161|205:220,1,140
416,158,252500,5,0,0:0:0:0:
416,195,252560,1,0,0:0:0:0:
410,230,252649,2,0,P|392:276|312:304,1,140
327,150,253037,1,0,0:0:0:0:
328,223,253176,2,0,P|289:223|216:244,1,97.9999970092774
11,358,253413,1,0,0:0:0:0:
65,224,253890,5,0,0:0:0:0:
123,151,254023,1,0,0:0:0:0:
206,108,254147,2,0,P|305:96|409:139,1,210
375,99,255736,5,0,0:0:0:0:
438,169,255861,1,0,0:0:0:0:
345,150,255986,1,0,0:0:0:0:
467,116,256111,1,0,0:0:0:0:
353,206,256236,2,0,L|374:188,1,17.5
440,65,256379,1,0,0:0:0:0:
388,252,256492,1,0,0:0:0:0:
397,26,256589,6,0,P|349:18|287:89,1,140
249,62,259236,5,0,0:0:0:0:
81,138,259370,1,0,0:0:0:0:
230,238,259513,1,0,0:0:0:0:
160,121,259776,1,0,0:0:0:0:
154,172,259841,2,0,P|144:190|101:216,1,70
328,202,260333,1,0,0:0:0:0:
326,277,260446,2,0,P|301:314|209:340,1,140
11,340,261797,5,0,0:0:0:0:
31,356,261862,1,0,0:0:0:0:
41,327,261928,2,0,P|116:298|207:208,1,210
297,151,263891,5,0,0:0:0:0:
292,210,263948,2,0,L|324:180,1,35
32,384,264997,6,0,L|32:352,1,17.5
96,384,265122,2,0,L|96:344,1,26.2500010013581
160,384,265268,2,0,L|160:324,1,52.5000020027161
224,384,265422,2,0,L|224:296,1,83.9999974365235
288,384,265551,2,0,L|288:280,1,83.9999974365235
352,384,265698,2,0,L|352:228,1,140
416,384,265843,2,0,L|416:124,1,238.00000453949
480,384,265986,2,0,L|480:100,2,280
175,126,266539,6,0,L|176:141,1,8.75
372,184,267435,6,0,L|360:192,1,8.75
143,307,268181,6,0,L|148:295,1,8.75
358,316,269472,6,0,L|347:310,1,8.75
344,256,269870,1,0,0:0:0:0:
313,239,269952,2,0,L|303:226,1,11.6666666666667
337,213,270012,1,0,0:0:0:0:
316,174,270072,1,0,0:0:0:0:
333,133,270132,1,0,0:0:0:0:
335,89,270192,1,0,0:0:0:0:
296,68,270252,1,0,0:0:0:0:
278,107,270312,1,0,0:0:0:0:
241,83,270372,1,0,0:0:0:0:
202,96,270432,1,0,0:0:0:0:
163,138,270495,1,0,0:0:0:0:
157,180,270559,1,0,0:0:0:0:
197,191,270622,1,0,0:0:0:0:
167,215,270686,1,0,0:0:0:0:
225,222,270749,1,0,0:0:0:0:
204,256,270813,1,0,0:0:0:0:
255,263,270876,1,0,0:0:0:0:
286,291,270966,6,0,L|210:304,1,70
312,360,271221,2,0,L|380:348,1,70
392,188,271458,1,0,0:0:0:0:
132,124,271582,6,0,L|132:224,1,70
334,209,271826,2,0,L|334:109,1,70
229,80,272067,2,0,L|181:102,1,52.5000020027161
104,256,272295,5,0,0:0:0:0:
108,280,272366,1,0,0:0:0:0:
116,303,272485,2,0,L|149:342,1,46.6666666666667
189,346,272657,1,0,0:0:0:0:
371,305,272795,2,0,L|408:249,1,59.5000011348725
130,39,273049,6,0,L|101:59,1,35
218,193,273269,2,0,L|258:165,2,48.9999985046387
144,155,273638,6,0,P|188:113|218:108,1,89.2500017023087
296,107,273865,1,0,0:0:0:0:
372,145,274085,1,0,0:0:0:0:
252,334,274346,2,0,P|352:352|443:212,1,280
321,231,275271,1,0,0:0:0:0:
233,192,275499,6,0,L|251:123,1,70
397,107,275971,2,0,L|419:209,1,105
376,304,276443,2,0,L|228:272,1,140
96,280,276968,6,2,L|284:120,1,245
452,164,277789,1,0,0:0:0:0:
303,278,278272,2,0,L|286:236,1,35
84,126,278938,2,0,P|133:169|284:157,1,210
199,46,279854,1,0,0:0:0:0:
353,187,280304,2,0,L|354:230,1,35
360,300,280591,1,0,0:0:0:0:
408,368,280970,6,0,B|309:414|251:275|251:275|292:200,1,280.000010681153
508,192,281859,2,2,B|369:192|369:192|492:192|492:192|384:192|384:192|475:192|475:192|410:192|410:192|474:192|474:192|388:192|388:192|468:192|468:192|393:192|393:192|448:192|448:192|417:192|417:192|485:192|485:192|413:192|413:192|458:192|458:192|412:192|412:192|454:192|454:192|397:192|397:192|478:192|478:192|406:192|406:192|450:192|450:192|401:192|401:192|465:192|465:192|393:192|393:192|465:192|465:192|393:192|393:192|465:192|465:192|397:192|397:192|441:192|441:192|406:192|406:192|461:192|461:192|406:192|406:192|465:192|465:192|413:192|413:192|464:192|464:192|408:192|408:192|436:192|436:192|432:192|432:192|376:192|376:192|444:192|444:192|366:192|366:192|428:192|428:192|364:192|364:192|424:192|424:192|420:192|420:192|404:192|404:192|360:192,1,2800,0|0,0:2|0:2,0:3:0:0:
282,232,286100,5,8,1:3:0:0:
197,218,287028,2,8,L|204:223,8,8.75
197,218,287581,1,8,0:0:0:0:
197,218,287879,1,8,0:0:0:0:
372,117,288640,6,8,L|376:129,16,8.75
370,265,289221,1,8,0:0:0:0:
398,93,289515,1,8,0:0:0:0:
396,241,289669,1,8,0:0:0:0:
217,221,290502,6,8,L|206:219,24,11.6666666666667
192,362,291285,1,8,0:0:0:0:
232,232,291421,1,8,0:0:0:0:
148,136,292033,1,8,0:0:0:0:
148,136,292313,1,8,0:0:0:0:
148,136,292593,1,4,0:2:0:0:
281,139,293784,6,8,L|278:155,16,8.75
90,237,294916,1,8,0:0:0:0:
248,140,295368,1,8,0:0:0:0:
95,243,295504,1,8,0:0:0:0:
364,150,295819,1,8,0:0:0:0:
364,150,296087,1,8,0:0:0:0:
368,138,296391,6,0,P|382:108|386:67,1,70
263,75,296812,1,0,0:0:0:0:
244,165,296949,1,8,0:0:0:0:
141,104,297212,6,8,P|131:205|245:285,1,251.999992309571,4|0,0:2|0:0,0:0:0:0:
56,284,299755,6,0,B|52:305|63:323|63:323|75:306|79:294|79:294|78:311|84:319|84:319|85:303|96:288|96:288|103:305|97:325|97:325|106:314|106:300|106:300|112:313|122:323|122:323|117:303|122:294|122:294|127:313|142:325|142:325|139:308|146:297|146:297|158:305|160:323|160:323|164:310|160:294|160:294|171:304|173:322|173:322|173:300|184:294|184:294|181:312|191:326|191:326|199:318|199:302|199:302|197:323|208:323|208:323|205:310|211:295|211:295|231:290|250:279|263:262|271:244,1,630
332,204,300560,5,0,0:0:0:0:
0,156,301076,5,0,0:0:0:0:
148,116,301490,5,0,0:0:0:0:
420,56,302156,6,0,L|147:145,1,280
46,164,302374,6,0,L|334:256,1,280
421,238,302593,6,0,L|121:251,1,280
64,340,302819,6,0,L|353:269,1,280
451,160,303031,6,0,L|135:252,1,280
96,231,303244,6,0,L|368:128,1,280
432,236,303450,6,0,L|150:183,1,280
223,73,303688,6,0,B|221:79|221:79|231:72|231:72|221:85|221:85|236:71|236:71|223:92|223:92|242:73|242:73|225:98|225:98|248:73|248:73|228:103|228:103|253:77|253:77|231:108|231:108|259:80|259:80|236:111|236:111|264:85|264:85|240:115|240:115|268:89|268:89|245:116|245:116|271:94|271:94|250:118|250:118|274:99|274:99|256:119|256:119|276:103|276:103|264:119|264:119|276:110|276:110|273:117|273:117,1,700
39,291,304044,5,0,0:0:0:0:
83,355,304186,1,0,0:0:0:0:
123,287,304329,1,0,0:0:0:0:
138,288,304401,1,0,0:0:0:0:
203,375,304615,1,0,0:0:0:0:
275,363,304722,2,0,B|266:349|277:339|287:351|275:363|275:363|483:329,1,238.00000453949
219,218,305544,6,0,P|182:244|220:220,1,140
312,212,306648,2,0,P|336:197|365:162,1,70
281,140,306982,2,0,P|271:89|279:141,1,167.999994873047
21,198,308362,2,0,L|9:340,1,140,0|0,2:0|2:0,2:0:0:0:
160,224,308974,2,0,L|157:261,2,35,0|0|0,2:0|2:0|2:0,2:0:0:0:
230,87,309381,2,0,P|324:80|355:100,1,125.999996154785
375,125,309826,1,0,0:0:0:0:
452,199,310003,2,0,P|363:231|283:179,1,195.999994018555
194,137,311079,5,0,0:0:0:0:
180,151,311129,1,0,0:0:0:0:
171,170,311180,1,0,0:0:0:0:
165,190,311231,2,0,P|164:232|282:305,1,192.5
363,294,311915,1,0,0:0:0:0:
358,208,312063,2,0,P|307:196|258:213,1,105
117,289,312412,6,0,P|136:317|165:344,1,70
389,378,312849,1,0,0:0:0:0:
139,56,313192,5,0,0:0:0:0:
108,24,314034,2,0,P|173:27|172:91,2,140
399,215,315305,6,0,L|368:153,2,70
492,217,316006,2,0,L|479:360,1,140
479,356,316434,2,0,L|361:273,1,140
364,275,316906,2,0,L|497:214,1,140
492,217,317357,2,0,P|437:214|362:171,1,140
364,173,317808,6,0,P|352:156|336:151,1,35
56,196,318033,1,0,0:0:0:0:
69,293,318267,1,0,0:0:0:0:
141,354,318484,1,0,0:0:0:0:
238,359,318710,2,0,P|225:335|214:293,2,70
363,366,319386,2,0,P|339:291|376:238,1,140
368,242,319837,2,0,P|337:200|255:163,1,140
144,124,320535,1,0,0:0:0:0:
132,134,320819,5,0,0:0:0:0:
207,226,321082,2,0,L|218:320,1,90.9999958343508
199,219,321731,6,0,L|183:275,1,52.5
199,219,322385,5,0,0:0:0:0:
207,226,322489,1,0,0:0:0:0:
199,219,323970,5,0,0:0:0:0:
207,226,324069,1,0,0:0:0:0:
223,283,324179,2,0,L|302:336,1,70
384,375,324478,1,0,0:0:0:0:
425,356,324582,1,0,0:0:0:0:
361,237,324820,2,0,L|428:203,1,73.4999977569581,0|0,0:3|0:3,0:3:0:0:
434,117,325208,2,0,L|294:191,1,154.000004699707
207,226,325745,1,0,0:0:0:0:
210,267,325862,1,0,0:0:0:0:
238,289,325979,2,0,L|304:313,1,70
384,281,326339,1,0,0:0:0:0:
383,244,326408,1,0,0:0:0:0:
368,212,326471,2,0,L|330:186,1,35
233,107,326851,5,0,0:0:0:0:
494,383,327619,1,2,0:0:0:0:
445,335,327707,1,2,0:0:0:0:
512,317,327796,1,2,0:0:0:0:
463,269,327884,2,0,P|436:192|266:106,1,280,2|0,0:0|0:0,0:0:0:0:
112,245,329704,5,0,0:0:0:0:
281,106,330743,5,2,0:0:0:0:
246,92,330797,1,2,0:0:0:0:
208,92,330851,1,2,0:0:0:0:
175,111,330906,2,0,P|120:124|74:110,1,105,2|0,0:0|0:0,0:0:0:0:
0,0,331780,6,0,P|271:48|465:244,1,560
212,145,333531,5,0,0:0:0:0:
211,188,333634,2,0,L|289:216,1,70
385,294,334029,1,0,0:0:0:0:
210,303,334263,1,0,0:0:0:0:
41,254,334500,2,0,P|21:285|76:359,1,140
171,342,335114,2,0,P|200:329|209:297,2,61.25
304,140,336073,5,0,0:0:0:0:
372,148,336194,1,0,0:0:0:0:
420,188,336275,1,0,0:0:0:0:
372,280,336397,5,0,0:0:0:0:
327,273,336477,1,0,0:0:0:0:
287,252,336598,1,0,0:0:0:0:
222,293,336749,5,0,0:0:0:0:
324,352,336907,1,0,0:0:0:0:
392,348,337005,1,0,0:0:0:0:
450,313,337081,2,0,B|443:270|443:270|451:261|451:261|428:264,1,70
175,158,338466,6,0,L|225:151,1,35
326,231,338660,1,2,0:0:0:0:
312,268,338739,1,2,0:0:0:0:
296,280,338797,1,0,0:0:0:0:
244,280,338913,1,0,0:0:0:0:
296,160,339135,2,0,P|336:168|412:232,1,140
332,293,340053,6,0,P|372:288|385:254,1,70
256,332,340624,1,0,0:0:0:0:
340,357,340787,2,0,P|396:346|433:212,1,210
373,84,342415,5,0,0:0:0:0:
345,132,342551,1,0,0:0:0:0:
378,160,342687,1,0,0:0:0:0:
342,198,342824,1,0,0:0:0:0:
310,231,342960,1,0,0:0:0:0:
338,274,343096,1,0,0:0:0:0:
334,237,343165,5,0,0:0:0:0:
325,222,343197,1,0,0:0:0:0:
322,204,343230,1,0,0:0:0:0:
325,187,343263,1,0,0:0:0:0:
337,173,343296,1,0,0:0:0:0:
352,165,343329,1,0,0:0:0:0:
369,163,343362,1,0,0:0:0:0:
385,160,343395,1,0,0:0:0:0:
397,148,343428,1,0,0:0:0:0:
403,132,343461,1,0,0:0:0:0:
402,115,343493,1,0,0:0:0:0:
395,99,343526,1,0,0:0:0:0:
382,87,343559,1,0,0:0:0:0:
369,76,343592,1,0,0:0:0:0:
352,67,343625,2,0,L|212:9,1,140
436,324,346214,6,0,B|361:313|308:274|308:274|404:225|404:225|358:177|281:186,1,363.999983337403
55,82,348064,6,0,L|199:89,1,140
303,105,348664,1,0,0:0:0:0:
367,116,348832,2,0,L|360:198,1,73.4999977569581
423,149,349099,2,0,L|396:293,1,140
230,265,349746,5,0,0:0:0:0:
217,260,349841,2,0,P|197:238|182:212,1,52.5
202,173,350123,2,0,P|273:173|330:209,1,140
114,201,353479,5,0,0:0:0:0:
121,245,353571,1,0,0:0:0:0:
77,251,353644,1,0,0:0:0:0:
71,208,353726,2,0,P|53:144|-1:96,1,140
208,200,354527,5,0,0:0:0:0:
232,256,354661,1,0,0:0:0:0:
292,216,354812,1,0,0:0:0:0:
336,248,354966,1,0,0:0:0:0:
364,248,355122,1,0,0:0:0:0:
444,248,355318,1,0,0:0:0:0:
484,136,355488,1,0,0:0:0:0:
392,102,355749,6,0,P|286:107|227:153,1,181.999991668702
353,180,356989,5,0,0:0:0:0:
364,225,357094,2,0,P|353:273|273:321,1,140
259,324,357582,1,0,0:0:0:0:
224,318,357676,1,0,0:0:0:0:
204,289,357818,2,0,P|192:270|104:263,1,119.000002269745
112,332,358188,2,0,P|71:310|54:285,1,70
208,200,358785,5,0,0:0:0:0:
232,256,358922,1,0,0:0:0:0:
292,216,359151,1,0,0:0:0:0:
336,248,359243,1,0,0:0:0:0:
364,248,359338,1,0,0:0:0:0:
444,248,359412,2,0,L|468:272,1,17.5
484,136,359589,2,0,L|504:92,1,35
408,124,359775,1,0,0:0:0:0:
304,36,359915,1,0,0:0:0:0:
288,56,360009,1,0,0:0:0:0:
252,104,360116,1,0,0:0:0:0:
238,129,360195,6,0,L|234:153,4,17.5
264,336,360567,2,0,L|280:336,5,11.6666666666667
312,351,360762,2,0,B|319:353|319:353|318:350|318:350|319:356|319:356|322:351|322:351|324:357|324:357|326:352|326:352|329:358|329:358|330:353|330:353|334:358|334:358|334:354|334:354|339:358|339:358|339:354|339:354|345:358|345:358|344:354|344:354|348:358|348:358|349:353|349:353|353:358|353:358|354:353|354:353|358:357|358:357|358:352|358:352|362:355|362:355|362:351|362:351|366:353|366:353|366:349|366:349|362:351|362:351|370:348|370:348|371:352|371:352|371:349,3,140
400,192,361581,2,0,L|368:192,15,17.5
352,192,362196,2,0,L|336:220,1,17.5
336,176,362267,2,0,L|312:164,1,17.5
309,115,363070,5,0,0:0:0:0:
381,79,363433,2,0,P|413:186|376:236,1,181.999991668702
193,203,364200,2,0,P|135:197|78:136,2,140
212,275,364958,2,0,P|89:257|4:139,1,271.25
210,124,365899,5,0,0:0:0:0:
337,204,366161,1,0,0:0:0:0:
337,193,366265,1,0,0:0:0:0:
347,193,366370,1,0,0:0:0:0:
348,204,366475,2,0,L|361:223,7,17.5
355,239,366762,2,0,P|325:262|219:259,1,140
139,157,367172,1,0,0:0:0:0:
281,91,367312,1,0,0:0:0:0:
380,30,367999,6,2,L|356:14,3,17.5
400,48,368241,1,2,0:0:0:0:
446,144,368525,2,0,L|424:148,1,17.5
454,152,368681,1,0,0:0:0:0:
458,156,368774,1,0,0:0:0:0:
428,242,369221,1,0,0:0:0:0:
432,246,369284,1,0,0:0:0:0:
436,250,369385,1,0,0:0:0:0:
440,254,369481,1,0,0:0:0:0:
230,340,369887,6,0,P|298:351|363:325,1,140
356,164,370783,5,0,0:0:0:0:
176,44,370957,1,0,0:0:0:0:
285,226,371142,1,0,0:0:0:0:
80,88,371305,1,0,0:0:0:0:
67,261,371479,1,0,0:0:0:0:
192,184,371605,1,0,0:0:0:0:
203,193,371667,1,0,0:0:0:0:
339,164,371846,1,0,0:0:0:0:
166,275,372026,1,0,0:0:0:0:
300,76,372212,1,0,0:0:0:0:
189,59,372508,5,0,0:0:0:0:
185,63,372560,1,0,0:0:0:0:
181,67,372612,1,0,0:0:0:0:
177,71,372665,1,0,0:0:0:0:
172,76,372731,2,0,P|136:124|134:210,1,140
169,309,373275,2,0,B|254:294|254:327|341:309,1,167.999994873047
367,281,373828,5,0,0:0:0:0:
354,252,373897,1,0,0:0:0:0:
309,191,374029,1,0,0:0:0:0:
233,217,374123,1,0,0:0:0:0:
407,171,374293,2,0,P|365:108|321:93,1,115.50000352478
169,128,374880,6,0,L|206:131,1,35
26,116,376760,5,0,0:0:0:0:
471,249,377649,5,0,0:0:0:0:
473,272,377708,1,0,0:0:0:0:
470,296,377768,1,0,0:0:0:0:
460,318,377827,1,0,0:0:0:0:
462,365,377887,1,0,0:0:0:0:
440,374,377936,1,0,0:0:0:0:
416,377,377985,1,0,0:0:0:0:
392,373,378034,1,0,0:0:0:0:
351,384,378083,1,0,0:0:0:0:
333,368,378125,1,0,0:0:0:0:
320,347,378168,1,0,0:0:0:0:
320,322,378210,1,0,0:0:0:0:
292,289,378253,2,0,P|316:189|476:128,1,265.999992897034
347,195,379735,6,0,L|325:238,1,35
182,113,379904,5,0,0:0:0:0:
125,190,380010,2,0,P|113:258|138:293,1,105
360,290,380577,6,0,L|333:283,1,26.25
309,259,380862,2,0,L|432:231,1,122.5
445,217,381256,2,0,L|366:202,1,70,0|2,0:0|0:0,0:0:0:0:
341,195,381363,5,2,0:0:0:0:
304,188,381408,1,2,0:0:0:0:
268,180,381454,1,2,0:0:0:0:
235,170,381499,1,2,0:0:0:0:
199,160,381545,1,2,0:0:0:0:
161,147,381590,1,2,0:0:0:0:
125,135,381635,2,0,L|104:98,1,34.1249984378815,2|0,0:0|0:0,0:0:0:0:
64,12,381700,5,0,0:0:0:0:
124,32,382313,6,0,L|156:96,2,70
0,52,382741,1,0,0:0:0:0:
19,176,382897,1,0,0:0:0:0:
151,109,383076,6,0,B|163:114|163:114|138:104|138:104|162:101|162:101|139:117|139:117|149:96|149:96|152:121|152:121,1,140
377,105,383681,1,0,0:0:0:0:
296,224,384003,1,0,0:0:0:0:
176,228,384314,1,0,0:0:0:0:
325,105,384621,6,2,L|259:144,1,70
247,62,384971,2,0,L|187:124,1,83.9999974365235
135,76,385240,2,0,P|120:102|117:118,1,42
107,180,385451,6,0,B|79:188|79:188|95:172|55:184|55:184|70:243|134:235|163:180,1,210
99,176,386166,5,0,0:0:0:0:
107,180,386203,1,0,0:0:0:0:
113,183,386279,1,0,0:0:0:0:
95,166,386901,5,0,0:0:0:0:
145,129,387017,1,0,0:0:0:0:
198,96,387139,1,0,0:0:0:0:
253,68,387219,1,0,0:0:0:0:
313,58,387320,1,0,0:0:0:0:
374,58,387425,1,0,0:0:0:0:
434,70,387530,1,0,0:0:0:0:
487,98,387628,6,0,B|409:106|507:1|513:59|513:102,1,140
485,126,388126,1,0,0:0:0:0:
473,165,388249,1,0,0:0:0:0:
452,200,388373,1,0,0:0:0:0:
415,222,388501,1,0,0:0:0:0:
374,228,388625,1,0,0:0:0:0:
354,180,388808,6,0,B|337:172|337:172|339:193|339:193|355:200|355:200|373:192|373:192|372:170|372:170|354:160|354:160|337:172|337:172,1,140
354,180,389679,5,2,0:0:0:0:
309,236,389895,1,0,0:0:0:0:
326,114,390052,1,0,0:0:0:0:
422,191,390191,1,0,0:0:0:0:
490,266,390400,1,0,0:0:0:0:
487,296,390539,1,0,0:0:0:0:
478,309,390641,1,0,0:0:0:0:
440,318,390780,1,0,0:0:0:0:
399,313,390890,6,0,B|371:314|352:273|352:273|333:298|399:313,1,140
385,365,391751,1,0,0:0:0:0:
405,374,391823,2,2,P|448:371|488:279,1,140
443,325,392505,5,0,0:0:0:0:
399,349,392638,1,0,0:0:0:0:
425,302,392709,1,0,0:0:0:0:
379,320,392780,1,0,0:0:0:0:
412,279,392852,1,0,0:0:0:0:
366,283,392923,1,0,0:0:0:0:
402,254,392995,1,0,0:0:0:0:
359,252,393066,1,0,0:0:0:0:
355,215,393155,6,2,L|336:165,1,35
343,170,394872,6,2,P|350:126|340:170,1,140
39,27,395882,5,0,0:0:0:0:
93,34,395992,1,0,0:0:0:0:
62,73,396102,1,0,0:0:0:0:
122,131,396204,1,0,0:0:0:0:
234,103,396338,1,0,0:0:0:0:
301,186,396469,1,0,0:0:0:0:
449,193,396595,1,0,0:0:0:0:
298,276,396704,6,0,P|332:297|400:313,1,105
456,297,397093,1,0,0:0:0:0:
163,23,398423,5,0,0:0:0:0:
245,94,398506,1,0,0:0:0:0:
301,309,400008,6,0,P|276:297|260:288,1,35
206,216,400163,6,0,L|349:210,1,140
477,213,400806,1,0,0:0:0:0:
410,301,401092,1,0,0:0:0:0:
411,124,401199,2,0,B|271:100|271:100|274:157|346:210,1,280
346,210,401894,1,0,0:0:0:0:
486,144,403617,5,2,0:0:0:0:
486,144,403721,2,2,L|508:204,1,52.5
487,225,403936,1,2,0:0:0:0:
388,380,404103,5,2,0:0:0:0:
359,254,404321,5,2,0:0:0:0:
359,254,404404,1,2,0:0:0:0:
229,282,404563,5,2,0:0:0:0:
229,282,404670,1,2,0:0:0:0:
181,107,404885,5,2,0:0:0:0:
181,107,404968,1,2,0:0:0:0:
181,107,405051,1,2,0:0:0:0:
181,107,405151,1,2,0:0:0:0:
270,184,405317,5,2,0:0:0:0:
134,308,405459,1,2,0:0:0:0:
134,308,405546,1,2,0:0:0:0:
134,308,405633,2,2,L|84:279,1,58.3333333333333
64,229,405834,1,2,0:0:0:0:
77,138,405941,2,2,L|115:161,1,35
144,192,406083,1,2,0:0:0:0:
172,112,406742,2,0,L|170:77,1,35
281,51,406908,2,0,L|283:98,1,35
245,190,407098,2,0,P|324:189|372:150,1,140
413,183,407916,6,0,P|391:220|306:267,1,140
116,372,408103,2,0,P|47:355|-7:256,1,140
112,152,408307,2,0,P|176:104|188:36,1,140
341,20,408497,2,0,P|404:61|471:59,1,140
468,232,408697,2,0,P|419:279|418:347,1,140
248,352,408887,2,0,P|235:283|192:229,1,140
216,40,409082,2,0,P|283:57|336:101,1,140
472,212,409260,2,0,P|384:237|325:214,1,140
184,368,409444,2,0,P|198:292|147:243,1,140
109,69,409638,2,0,P|62:68|34:50,1,70
17,27,409701,6,2,L|7:17,47,11.6666666666667
21,66,410806,5,0,0:0:0:0:
156,128,411047,1,0,0:0:0:0:
112,256,411297,1,0,0:0:0:0:
248,224,411531,1,0,0:0:0:0:
282,108,411765,2,0,L|332:148,1,62.9999980773926
348,184,411948,1,0,0:0:0:0:
368,180,411991,6,0,L|400:208,5,35
420,228,412514,6,0,P|412:268|344:308,1,122.5
324,348,413035,2,0,P|260:352|67:296,1,262.5
86,259,413736,2,0,P|153:286|323:303,1,245
264,88,414468,5,0,0:0:0:0:
228,116,414591,1,0,0:0:0:0:
208,156,414715,1,0,0:0:0:0:
216,208,414839,1,0,0:0:0:0:
336,220,414963,5,0,0:0:0:0:
288,168,415087,1,0,0:0:0:0:
208,156,415211,1,0,0:0:0:0:
132,172,415335,1,0,0:0:0:0:
77,226,415459,2,0,L|16:200,1,61.25
54,91,416022,2,0,P|31:6|52:92,1,280
495,188,417621,6,0,L|458:200,1,35
428,256,417763,1,0,0:0:0:0:
412,154,417864,2,0,P|388:122|319:246,1,280
334,118,419289,5,0,0:0:0:0:
326,120,419331,2,0,L|341:139,5,23.3333333333333
264,189,419765,2,0,L|259:210,7,17.5
277,275,420277,1,0,0:0:0:0:
295,304,420373,1,0,0:0:0:0:
322,325,420469,1,0,0:0:0:0:
353,339,420565,2,0,P|392:343|491:312,1,140
160,263,422481,5,0,0:0:0:0:
131,293,422690,1,0,0:0:0:0:
119,252,422881,1,0,0:0:0:0:
225,356,423074,1,0,0:0:0:0:
20,302,423268,1,0,0:0:0:0:
164,150,423498,1,0,0:0:0:0:
288,228,423707,6,0,L|276:295,1,52.5
326,308,423984,2,0,P|360:224|474:219,1,199.499994672775
420,297,424540,1,0,0:0:0:0:
378,358,424748,2,0,P|426:371|471:351,2,99.7499973363877
495,281,425342,1,0,0:0:0:0:
183,120,427570,6,0,L|193:198,1,70
175,127,428060,2,0,L|185:205,1,70
91,260,428570,2,0,P|121:300|218:314,1,140
230,309,429153,1,0,0:0:0:0:
273,284,429233,1,0,0:0:0:0:
315,233,429306,1,2,0:2:0:0:
333,156,429360,2,0,B|306:145|294:120|294:120|253:85|171:104,1,173.133333597514
294,120,429540,2,0,B|216:135|216:135|175:97,1,128.333333333333,0|0,0:0|1:0,0:0:0:0:
382,268,430227,5,0,0:0:0:0:
160,176,430419,1,0,0:0:0:0:
305,308,430622,2,0,P|249:311|193:246,1,140
32,241,431246,5,0,0:0:0:0:
80,235,431387,1,0,0:0:0:0:
117,265,431529,1,0,0:0:0:0:
93,169,431778,1,0,0:0:0:0:
180,239,431920,1,0,0:0:0:0:
212,219,431992,2,0,L|335:192,1,116.666666666667
398,263,432700,5,0,0:0:0:0:
180,239,432918,1,0,0:0:0:0:
221,238,433028,1,0,0:0:0:0:
263,236,433137,2,0,P|257:202|201:120,1,105
338,176,433613,2,0,P|330:153|303:103,1,70
293,86,433932,1,0,0:0:0:0:
273,62,434010,1,0,0:0:0:0:
249,43,434088,1,0,0:0:0:0:
216,32,434166,1,0,0:0:0:0:
254,249,434698,5,0,0:0:0:0:
171,192,434801,2,0,L|203:120,1,70
89,136,435204,2,0,L|157:59,1,70
171,192,435652,1,0,0:0:0:0:
265,228,435926,1,0,0:0:0:0:
364,226,436250,1,0,0:0:0:0:
446,181,436458,2,0,L|410:46,1,140
324,62,436974,1,0,0:0:0:0:
225,85,437109,1,0,0:0:0:0:
192,183,437270,2,0,B|146:143|146:143|141:129|141:129|89:83,1,140
329,340,438362,5,0,0:0:0:0:
296,181,438774,1,0,0:0:0:0:
315,105,438928,1,0,0:0:0:0:
258,50,439160,1,0,0:0:0:0:
193,320,439849,6,0,B|106:187|193:187|98:49,1,280
445,272,441676,6,0,P|437:230|454:184,1,85.7499973831178
404,139,442103,2,0,P|387:166|376:279,1,146.999995513916
319,314,442538,2,0,P|311:182|373:76,1,245
331,25,443038,2,0,P|259:128|260:346,1,341.249984378815
205,346,443874,5,0,0:0:0:0:
170,333,443952,1,0,0:0:0:0:
155,294,444045,1,0,0:0:0:0:
134,295,444105,1,0,0:0:0:0:
99,282,444195,1,0,0:0:0:0:
105,231,444297,1,0,0:0:0:0:
90,221,444354,1,0,0:0:0:0:
90,182,444445,1,0,0:0:0:0:
106,153,444520,1,0,0:0:0:0:
79,133,444593,1,0,0:0:0:0:
123,94,444725,1,0,0:0:0:0:
120,57,444813,1,0,0:0:0:0:
86,40,444895,1,0,0:0:0:0:
74,47,444942,1,0,0:0:0:0:
67,35,444991,1,0,0:0:0:0:
16,16,445113,1,0,0:0:0:0:
288,312,445560,5,0,0:0:0:0:
288,312,445812,1,0,0:0:0:0:
288,312,446135,6,0,B|253:312|253:312|253:277|253:277|288:277|288:277|288:312|288:312,1,140
288,312,446917,6,2,L|228:252,1,81.6666641743979
194,247,447368,2,0,L|190:253,6,8.16666641743979
241,173,447829,1,0,0:0:0:0:
378,190,448305,2,0,L|359:196,3,11.6666666666667
333,189,448414,2,0,L|344:161,1,23.3333333333333
334,123,448498,2,0,P|308:93|256:72,1,85.7499973831178
228,104,448973,2,0,P|247:139|240:216,1,112
170,289,449620,6,0,B|242:318|241:296|241:296|255:301|255:301|247:294|247:294|258:292|258:292|260:299|260:299|264:289|264:289|274:273|307:308|341:299|341:299|369:269|370:238,1,280
466,175,450778,1,0,0:0:0:0:
428,104,451002,2,0,P|375:120|348:140,1,83.9999974365235
344,188,451661,2,0,P|319:193|268:136,1,98
198,163,452149,2,0,B|204:200|176:244|125:249|125:249|120:338,1,204.749993751526
164,344,452939,5,0,0:0:0:0:
194,382,453005,2,0,P|238:325|229:191,1,210.000008010865
276,232,453588,1,0,0:0:0:0:
304,277,453629,2,0,L|375:209,1,90.9999958343508
493,170,454098,1,0,0:0:0:0:
451,216,454216,1,0,0:0:0:0:
431,157,454356,2,0,B|411:119|384:98|384:98|385:50|346:75|346:75|331:25|289:54|289:54|261:9|241:46,1,280
219,154,455268,6,0,P|292:176|331:230,2,121.333327779134
130,117,456205,2,0,P|127:182|172:238,1,131.25000500679
219,154,456374,1,0,0:0:0:0:
65,186,456674,2,0,P|99:257|195:309,1,188.999994232178
193,373,457143,5,0,0:0:0:0:
156,365,457217,1,0,0:0:0:0:
120,352,457291,1,0,0:0:0:0:
88,332,457365,1,0,0:0:0:0:
60,307,457439,1,0,0:0:0:0:
36,278,457513,1,0,0:0:0:0:
19,244,457587,5,0,0:0:0:0:
11,207,457661,1,0,0:0:0:0:
6,170,457735,1,0,0:0:0:0:
10,132,457809,1,0,0:0:0:0:
22,96,457883,1,0,0:0:0:0:
340,158,457977,5,0,0:0:0:0:
197,171,458207,1,0,0:0:0:0:
269,152,458438,1,0,0:0:0:0:
322,89,458623,6,0,P|252:87|180:103,1,140
263,211,459234,5,0,0:0:0:0:
165,207,459443,1,0,0:0:0:0:
219,277,459662,1,0,0:0:0:0:
142,294,459899,1,0,0:0:0:0:
57,254,460144,1,0,0:0:0:0:
225,180,460350,6,2,P|176:169|91:190,1,140
112,17,460789,1,0,0:0:0:0:
82,12,460885,1,0,0:0:0:0:
109,6,460981,1,0,0:0:0:0:
84,24,461077,1,0,0:0:0:0:
99,0,461173,1,0,0:0:0:0:
94,30,461269,1,0,0:0:0:0:
89,59,461349,1,0,0:0:0:0:
93,94,461439,5,0,0:0:0:0:
111,117,461524,1,0,0:0:0:0:
88,102,461609,1,0,0:0:0:0:
117,106,461717,1,0,0:0:0:0:
90,111,461807,1,0,0:0:0:0:
113,93,461898,1,0,0:0:0:0:
98,116,462009,1,0,0:0:0:0:
102,87,462092,1,0,0:0:0:0:
105,114,462175,1,0,0:0:0:0:
87,91,462259,1,0,0:0:0:0:
105,114,462371,1,0,0:0:0:0:
192,57,462840,5,0,0:0:0:0:
187,54,462918,2,0,L|145:59,1,35
237,54,463074,2,0,L|278:47,1,35
187,54,463230,2,0,L|151:40,1,35
237,54,463386,2,0,L|278:61,1,35
187,54,463543,2,0,L|139:50,1,35
232,50,463699,1,0,0:0:0:0:
33,192,463885,5,0,0:0:0:0:
20,209,463983,1,0,0:0:0:0:
0,202,464082,1,0,0:0:0:0:
0,182,464181,1,0,0:0:0:0:
20,175,464279,1,0,0:0:0:0:
0,52,464705,6,0,B|35:77|35:77|100:-8,1,140
172,0,465737,6,0,P|150:46|161:97,1,105.000004005432
131,180,466025,2,0,P|228:154|234:49,1,210.000008010865
276,84,466629,6,0,L|320:116,1,48.9999985046387
256,200,466929,2,0,L|312:192,1,48.9999985046387
380,144,467229,1,0,0:0:0:0:
480,104,467369,2,0,B|492:108|492:108|472:116|472:116|492:124|492:124|472:132|472:132|492:140|492:140|472:148|472:148|492:156|492:156|472:164|472:164|492:172|492:172|472:180|472:180|492:188|492:188|472:196|472:196,1,238.00000453949
87,236,468160,6,0,P|53:184|159:143,1,210.000008010865
207,243,468547,1,0,0:0:0:0:
305,243,468630,1,0,0:0:0:0:
425,236,468841,6,0,P|459:184|353:143,1,210.000008010865
204,70,469396,2,0,L|318:181,1,140
307,70,469677,2,0,L|193:181,1,140
57,112,470451,2,0,L|125:128,1,70
286,235,470705,2,0,L|245:177,3,70
147,255,471186,2,0,B|139:315|219:296|187:382,1,140
296,144,471891,1,0,0:0:0:0:
414,353,472129,6,0,P|354:285|480:246,1,245
495,317,472410,2,0,P|457:276|309:379,1,280
288,131,473067,2,0,L|70:182,1,210
20,139,473773,2,0,P|26:108|99:24,1,140
202,165,474400,1,0,0:0:0:0:
299,50,474649,2,0,P|218:34|95:85,1,210
110,146,475252,1,0,0:0:0:0:
202,165,475457,5,0,0:0:0:0:
254,157,475543,1,0,0:0:0:0:
302,177,475629,1,0,0:0:0:0:
330,209,475695,1,0,0:0:0:0:
272,276,475813,1,0,0:0:0:0:
198,253,476012,1,0,0:0:0:0:
183,263,476134,1,0,0:0:0:0:
175,328,476320,2,0,P|207:338|316:338,1,140
476,144,476900,1,0,0:0:0:0:
484,147,477019,1,0,0:0:0:0:
491,151,477138,2,0,P|466:234|308:339,1,280
281,182,477879,5,0,0:0:0:0:
288,149,479557,6,0,L|320:125,2,35
389,145,479836,1,0,0:0:0:0:
411,160,479906,1,0,0:0:0:0:
428,176,479976,2,0,B|456:313|456:313|260:336,1,315
216,264,480905,6,0,L|179:224,1,35
113,131,481207,2,0,L|244:125,1,105
269,75,481734,2,0,P|316:114|352:188,1,140
200,209,483130,6,0,L|249:189,2,32.6666656697591
171,246,483377,2,0,P|215:266|363:239,1,195.999994018555
90,159,484099,5,0,0:0:0:0:
122,163,484210,1,0,0:0:0:0:
145,188,484318,1,0,0:0:0:0:
174,184,484431,1,0,0:0:0:0:
219,165,484557,1,0,0:0:0:0:
223,201,484660,1,0,0:0:0:0:
266,182,484769,1,0,0:0:0:0:
283,182,484862,1,0,0:0:0:0:
331,199,484978,1,0,0:0:0:0:
357,226,485084,1,0,0:0:0:0:
367,214,485207,1,0,0:0:0:0:
392,199,485307,1,0,0:0:0:0:
432,216,485417,6,0,B|448:207|448:207|416:220|416:220|451:218|451:218|417:210|417:210|447:226|447:226|423:200|423:200|440:232|440:232|433:198|433:198|430:232|430:232|442:201|442:201|421:229,1,362.249988945008,8|0,0:0|0:0,0:0:0:0:
89,96,486207,1,0,0:0:0:0:
94,100,486291,1,0,0:0:0:0:
99,104,486363,1,0,0:0:0:0:
104,108,486392,2,0,L|122:125,1,17.5
313,96,487230,1,0,0:0:0:0:
318,100,487299,1,0,0:0:0:0:
323,104,487387,1,0,0:0:0:0:
328,108,487472,2,0,P|280:77|181:82,1,154.000004699707
179,287,488387,5,0,0:0:0:0:
174,308,488485,1,0,0:0:0:0:
168,328,488584,2,0,P|132:296|131:208,1,140
190,256,488948,5,0,0:0:0:0:
244,340,489047,2,0,P|244:304|276:220,1,105
296,204,489396,1,0,0:0:0:0:
361,178,489479,2,0,L|409:186,1,35
447,282,489647,5,0,0:0:0:0:
438,289,489764,2,0,P|455:279|479:250,1,52.5
466,267,489951,2,0,P|490:231|366:79,1,280
11,367,491959,6,0,P|9:359|4:332,1,31.4999990386963
11,367,492116,6,0,P|9:359|3:318,1,41.9999987182618
11,367,492254,6,0,P|9:359|3:309,1,52.5000020027161
11,367,492403,6,0,P|9:359|3:299,1,62.9999980773926
11,367,492569,6,0,P|9:359|4:285,1,73.4999977569581
11,367,492694,6,0,P|9:359|5:275,1,83.9999974365235
11,367,492860,6,0,P|9:359|40:184,1,175
48,172,493124,2,0,P|304:24|480:80,1,490
488,104,493574,2,0,L|509:134,7,35
488,176,494255,1,0,0:0:0:0:
439,258,494488,5,0,0:0:0:0:
386,304,494550,1,0,0:0:0:0:
320,328,494631,1,0,0:0:0:0:
251,336,494726,1,0,0:0:0:0:
138,305,494845,2,0,L|114:265,1,35
137,214,494964,1,0,0:0:0:0:
289,233,495175,2,0,L|275:145,1,87.5
228,115,495413,2,0,L|216:115,11,11.6666666666667
112,179,495874,2,0,L|150:158,1,41.9999987182618
457,171,496342,6,0,L|488:194,3,35
410,77,496851,1,0,0:0:0:0:
369,75,496954,1,0,0:0:0:0:
341,87,497034,1,0,0:0:0:0:
329,97,497118,6,0,L|326:114,1,17.5
317,184,497239,1,0,0:0:0:0:
329,219,497291,2,0,P|283:220|223:293,1,140
178,290,497677,1,0,0:0:0:0:
167,262,497746,1,0,0:0:0:0:
158,253,497777,2,0,P|137:222|49:168,1,140
396,376,498345,6,0,L|325:346,1,70
311,306,498669,1,0,0:0:0:0:
53,89,498843,1,0,0:0:0:0:
67,74,498915,1,0,0:0:0:0:
95,64,498987,2,2,B|110:64|128:67|144:80|151:101|153:125|133:149|107:158|107:158|103:163|103:163|111:162|111:162|103:167|103:167|111:166|111:166|104:171|104:171|111:170|111:170|105:175|105:175|111:174|111:174|106:179|106:179|112:178|112:178|107:183|107:183|112:182|112:182|107:187|107:187|112:186|112:186|107:191|107:191|113:190|113:190|107:194|107:194|112:194|112:194|107:198|107:198|112:197|112:197|107:202|107:202,1,280
118,223,499966,5,0,0:0:0:0:
157,113,501003,5,0,0:0:0:0:
139,197,501084,1,0,0:0:0:0:
191,240,501165,1,0,0:0:0:0:
200,296,501246,1,0,0:0:0:0:
241,314,501327,1,0,0:0:0:0:
249,326,501381,1,0,0:0:0:0:
251,339,501435,1,0,0:0:0:0:
251,339,501489,1,0,0:0:0:0:
256,342,501533,6,2,B|256:-416,1,700
256,342,504913,2,2,B|256:-416,1,700
446,265,519120,5,0,0:0:0:0:
373,197,519295,1,0,0:0:0:0:
440,126,519455,1,0,0:0:0:0:
512,192,519615,1,0,0:0:0:0:
380,364,519797,1,0,0:0:0:0:
401,376,519888,2,0,L|344:385,1,52.5
301,325,520157,2,0,L|253:330,1,35
264,258,520489,2,0,P|229:264|210:276,1,52.5
178,306,520694,6,0,L|169:264,1,43.75
150,304,520861,2,0,L|153:269,1,35
120,298,521029,2,0,L|133:258,1,35
95,284,521196,2,0,L|118:248,1,35
74,264,521364,2,0,L|105:236,1,35
59,238,521495,2,0,L|96:219,1,35
52,210,521662,2,0,L|93:201,1,35
51,181,521796,2,0,L|93:183,1,35
58,153,521939,2,0,L|97:166,1,35
73,128,522065,2,0,L|108:151,1,35
93,107,522209,2,0,L|120:138,1,35,0|0,0:0|0:0,0:0:0:0:
119,93,522334,2,0,L|137:130,1,35,0|0,0:0|0:0,0:0:0:0:
147,85,522485,2,0,L|155:126,1,35,0|0,0:0|0:0,0:0:0:0:
175,85,522642,2,0,L|172:127,1,35
209,88,522723,6,0,L|286:73,1,70
164,195,523012,2,0,L|233:210,1,70
185,343,523412,2,0,L|253:303,1,70
303,185,523693,2,0,L|337:201,1,35
385,281,523859,2,0,L|401:274,3,17.5
424,240,523994,6,0,P|460:193|441:65,1,195.999994018555
76,160,524676,1,0,0:0:0:0:
208,92,524793,1,0,0:0:0:0:
72,164,524936,2,0,P|98:160|142:152,1,70
496,124,525367,2,0,L|480:104,6,17.5
470,92,525679,2,0,P|434:52|212:24,1,280
101,55,527498,6,0,B|87:93|87:93|91:133,1,70
114,158,527742,1,0,0:0:0:0:
120,164,527857,1,0,0:0:0:0:
133,167,527957,1,0,0:0:0:0:
154,201,528092,1,0,0:0:0:0:
182,159,528209,2,0,L|172:123,4,35
195,163,528762,5,0,0:0:0:0:
220,164,528815,1,0,0:0:0:0:
268,156,528899,1,0,0:0:0:0:
319,133,529008,1,0,0:0:0:0:
371,79,529112,2,0,L|330:75,3,35
449,38,529538,5,0,0:0:0:0:
474,112,529706,2,0,L|516:89,1,35
488,176,529909,2,0,L|475:220,1,35
405,223,530109,2,0,L|431:259,1,35
401,319,530443,5,0,0:0:0:0:
367,378,530564,1,0,0:0:0:0:
308,345,530681,1,0,0:0:0:0:
341,285,530866,1,0,0:0:0:0:
94,355,531135,6,0,L|61:318,2,35
135,338,531484,1,0,0:0:0:0:
165,306,531602,1,0,0:0:0:0:
178,254,531703,1,0,0:0:0:0:
168,195,531807,1,0,0:0:0:0:
229,200,531870,1,0,0:0:0:0:
290,182,531997,1,0,0:0:0:0:
335,142,532129,1,0,0:0:0:0:
450,235,532246,5,0,0:0:0:0:
433,310,532384,1,0,0:0:0:0:
360,336,532494,1,0,0:0:0:0:
348,225,532594,1,0,0:0:0:0:
271,118,532706,1,0,0:0:0:0:
137,88,532801,2,0,P|101:87|78:111,1,52.5000020027161
277,185,533286,6,0,P|313:185|345:201,1,70
365,221,533595,1,0,0:0:0:0:
332,234,533698,6,0,P|342:268|336:303,1,70
320,327,533985,1,0,0:0:0:0:
295,349,534110,1,0,0:0:0:0:
263,361,534222,1,0,0:0:0:0:
232,369,534326,1,0,0:0:0:0:
197,365,534441,1,0,0:0:0:0:
170,349,534579,6,0,P|130:292|116:224,1,140
96,204,534918,5,0,0:0:0:0:
116,224,534955,2,0,P|167:199|195:126,1,119.000002269745
229,147,535174,5,0,0:0:0:0:
194,145,535281,2,0,P|249:59|401:14,1,262.5
280,200,535719,6,0,L|318:265,1,70
128,175,536481,1,0,0:0:0:0:
144,169,536549,2,0,L|286:202,2,140
288,124,537364,1,0,0:0:0:0:
423,187,537527,1,0,0:0:0:0:
456,220,537604,6,0,P|504:260|720:152,1,335.999989746094
