osu file format v14

[General]
AudioFilename: audio.mp3
AudioLeadIn: 0
PreviewTime: 10511
Countdown: 0
SampleSet: Soft
StackLeniency: 0.7
Mode: 3
LetterboxInBreaks: 0
EpilepsyWarning: 1
SpecialStyle: 0
WidescreenStoryboard: 1

[Editor]
Bookmarks: 20582
DistanceSpacing: 0.1
BeatDivisor: 12
GridSize: 32
TimelineZoom: 1.8

[Metadata]
Title:diamond
TitleUnicode:diamond
Artist:bill wurtz
ArtistUnicode:bill wurtz
Creator:Ucitysm
Version:collab normal
Source:
Tags:what the fuck ixcors boxes taste like mush im i'm a billy wilds pop english fa featured artist mpg mg mappers mappers' guild priority quest true cooperation indoroid tigerinity lott silentwuffer
BeatmapID:4455940
BeatmapSetID:2120841

[Difficulty]
HPDrainRate:7
CircleSize:4
OverallDifficulty:7
ApproachRate:5
SliderMultiplier:1.4
SliderTickRate:1

[Events]
//Background and Video events
0,0,"this_is_black_diamond.jpg",0,0
//Break Periods
//Storyboard Layer 0 (Background)
//Storyboard Layer 1 (Fail)
//Storyboard Layer 2 (Pass)
//Storyboard Layer 3 (Foreground)
//Storyboard Layer 4 (Overlay)
//Storyboard Sound Samples
Sample,10582,0,"crash.wav",50
Sample,20297,0,"crash.wav",30
Sample,20582,0,"crash.wav",30
Sample,29439,0,"crash.wav",30

[TimingPoints]
2297,571.428571428572,4,2,1,20,1,0

[HitObjects]
192,192,392,128,0,2297:0:0:0:0:
320,192,2297,1,0,0:0:0:80:kick.wav
448,192,2297,1,0,0:0:0:0:
192,192,2582,1,0,0:0:0:0:
64,192,2868,1,0,0:0:0:80:kick.wav
448,192,2868,1,0,0:0:0:0:
192,192,3154,1,0,0:0:0:0:
320,192,3439,128,0,3725:0:0:0:80:kick.wav
448,192,3439,1,0,0:0:0:0:
64,192,4582,1,0,0:0:0:80:kick.wav
192,192,4582,1,0,0:0:0:0:
320,192,4868,1,0,0:0:0:0:
64,192,5154,1,0,0:0:0:80:kick.wav
448,192,5154,1,0,0:0:0:0:
320,192,5439,1,0,0:0:0:0:
64,192,5725,1,0,0:0:0:80:kick.wav
192,192,5725,128,0,6011:0:0:0:0:
320,192,6868,1,0,0:0:0:80:kick.wav
448,192,6868,1,0,0:0:0:0:
192,192,7154,1,0,0:0:0:0:
64,192,7439,1,0,0:0:0:80:kick.wav
448,192,7439,1,0,0:0:0:0:
192,192,7725,1,0,0:0:0:0:
320,192,8011,1,0,0:0:0:80:kick.wav
448,192,8011,128,0,8439:0:0:0:0:
64,192,8439,1,0,0:0:0:100:tick.wav
448,192,8868,1,0,0:0:0:100:tick.wav
64,192,9154,1,0,0:0:0:80:kick.wav
192,192,9154,1,0,0:0:0:0:
320,192,9725,1,0,0:0:0:80:kick.wav
448,192,9725,1,0,0:0:0:0:
192,192,9868,1,0,0:0:0:80:kick.wav
64,192,10297,128,0,10582:0:0:0:80:kick.wav
448,192,10297,1,0,0:0:0:0:
320,192,10582,1,0,0:0:0:100:tom_f#5.wav
192,192,10725,1,0,0:0:0:100:tom_f#5.wav
192,192,11011,1,0,0:0:0:100:tom_c#5.wav
320,192,11154,1,0,0:0:0:50:crash.wav
64,192,11439,1,0,0:0:0:80:kick.wav
448,192,11439,128,0,13439:0:0:0:70:crash.wav
320,192,11868,1,0,0:0:0:70:tom_a#4.wav
192,192,12297,1,0,0:0:0:0:
64,192,12582,1,0,0:0:0:70:crash.wav
192,192,12582,1,0,0:0:0:0:
64,192,13011,1,0,0:0:0:0:
320,192,13154,128,0,13439:0:0:0:0:
64,192,13439,128,0,14011:0:0:0:70:crash.wav
192,192,13439,1,0,0:0:0:0:
448,192,14011,1,0,0:0:0:55:crash.wav
64,192,14297,1,0,0:0:0:70:crash.wav
192,192,14297,1,0,0:0:0:0:
320,192,14582,1,0,0:0:0:0:
64,192,14868,1,0,0:0:0:70:crash.wav
448,192,14868,1,0,0:0:0:0:
320,192,15154,128,0,15582:0:0:0:100:tom_a#4.wav
192,192,15582,128,0,16011:0:0:0:100:tom_c#5.wav
64,192,16011,128,0,18011:0:0:0:80:kick.wav
448,192,16011,1,0,0:0:0:70:crash.wav
192,192,16439,1,0,0:0:0:70:tom_a#4.wav
320,192,16868,1,0,0:0:0:0:
320,192,17154,1,0,0:0:0:70:crash.wav
448,192,17154,1,0,0:0:0:0:
192,192,17582,128,0,18011:0:0:0:0:
320,192,18011,1,0,0:0:0:70:crash.wav
448,192,18011,128,0,18582:0:0:0:0:
64,192,18582,1,0,0:0:0:55:crash.wav
320,192,18868,1,0,0:0:0:55:crash.wav
448,192,18868,1,0,0:0:0:0:
192,192,19154,1,0,0:0:0:0:
64,192,19439,1,0,0:0:0:70:crash.wav
448,192,19439,1,0,0:0:0:0:
192,192,19725,1,0,0:0:0:100:tom_c#5.wav
320,192,19868,1,0,0:0:0:100:tom_a#4.wav
320,192,20297,1,0,0:0:0:100:tom_b4.wav
192,192,20439,1,0,0:0:0:100:tom_a#4.wav
448,192,20582,128,0,20868:0:0:0:100:tom_a#4.wav
64,192,21154,128,0,21439:0:0:0:70:crash.wav
192,192,21154,1,0,0:0:0:0:
320,192,21725,1,0,0:0:0:70:crash.wav
448,192,21725,128,0,22011:0:0:0:0:
192,192,22297,1,0,0:0:0:70:crash.wav
320,192,22297,128,0,22725:0:0:0:0:
64,192,22725,1,0,0:0:0:0:
192,192,23154,1,0,0:0:0:70:crash.wav
448,192,23154,128,0,23725:0:0:0:0:
320,192,23582,1,0,0:0:0:0:
64,192,23725,128,0,24011:0:0:0:0:
192,192,24011,1,0,0:0:0:70:crash.wav
448,192,24011,1,0,0:0:0:0:
320,192,24297,128,0,24582:0:0:0:0:
192,192,24582,1,0,0:0:0:100:tom_c#5.wav
320,192,24725,1,0,0:0:0:100:tom_a#4.wav
64,192,24868,128,0,25439:0:0:0:100:tom_a#4.wav
448,192,24868,1,0,0:0:0:70:crash.wav
192,192,25439,1,0,0:0:0:0:
192,192,25725,1,0,0:0:0:40:crash.wav
320,192,26154,1,0,0:0:0:100:tom_a#4.wav
64,192,26297,1,0,0:0:0:100:tom_c#5.wav
320,192,26582,1,0,0:0:0:70:crash.wav
448,192,26582,128,0,26868:0:0:0:0:
64,192,27154,128,0,27725:0:0:0:40:crash.wav
320,192,27154,1,0,0:0:0:0:
192,192,27725,1,0,0:0:0:20:crash.wav
192,192,28439,1,0,0:0:0:0:
320,192,28582,128,0,29439:0:0:0:70:crash.wav
448,192,28582,1,0,0:0:0:0:
192,192,29011,1,0,0:0:0:100:tom_c#5.wav
64,192,29439,1,0,0:0:0:100:tom_f#5.wav
192,192,29582,1,0,0:0:0:100:tom_c#5.wav
64,192,29725,1,0,0:0:0:100:tom_a#4.wav
448,192,29725,1,0,0:0:0:70:crash.wav
192,192,30011,128,0,30868:0:0:0:0:
448,192,30297,1,0,0:0:0:0:
64,192,30582,1,0,0:0:0:0:
320,192,30868,1,0,0:0:0:70:crash.wav
448,192,30868,1,0,0:0:0:0:
64,192,31154,1,0,0:0:0:0:
192,192,31439,1,0,0:0:0:0:
448,192,31439,1,0,0:0:0:0:
64,192,31725,128,0,32439:0:0:0:70:crash.wav
320,192,31725,1,0,0:0:0:0:
320,192,32439,1,0,0:0:0:100:tom_d5.wav
448,192,32582,1,0,0:0:0:30:crash.wav
192,192,32868,1,0,0:0:0:70:tom_a#4.wav
64,192,33154,1,0,0:0:0:70:crash.wav
320,192,33154,128,0,34011:0:0:0:0:
448,192,33582,1,0,0:0:0:100:tom_a#4.wav
64,192,34011,1,0,0:0:0:100:tom_d5.wav
192,192,34154,1,0,0:0:0:100:tom_a#4.wav
64,192,34297,128,0,38582:0:0:0:70:crash.wav
448,192,34297,128,0,38582:0:0:0:0:
