osu file format v14

[General]
AudioFilename: audio.mp3
AudioLeadIn: 0
PreviewTime: 10582
Countdown: 0
SampleSet: Normal
StackLeniency: 0
Mode: 1
LetterboxInBreaks: 0
WidescreenStoryboard: 1

[Editor]
Bookmarks: 11439,20582,23154,34297
DistanceSpacing: 0.1
BeatDivisor: 4
GridSize: 32
TimelineZoom: 1

[Metadata]
Title:diamond
TitleUnicode:diamond
Artist:bill wurtz
ArtistUnicode:bill wurtz
Creator:Froskya
Version:futsuu
Source:
Tags:im a i'm mush featured artist fa english pop what the fuck mappers' guild mpg revialink
BeatmapID:3550992
BeatmapSetID:1737352

[Difficulty]
HPDrainRate:8
CircleSize:2
OverallDifficulty:3
ApproachRate:10
SliderMultiplier:1.4
SliderTickRate:1

[Events]
//Background and Video events
0,0,"blue.jpg",0,-130
//Break Periods
//Storyboard Layer 0 (Background)
//Storyboard Layer 1 (Fail)
//Storyboard Layer 2 (Pass)
//Storyboard Layer 3 (Foreground)
//Storyboard Layer 4 (Overlay)
//Storyboard Sound Samples

[TimingPoints]
2297,571.428571428572,4,1,0,40,1,0
10582,-100,4,1,0,55,0,0
11439,-100,4,1,0,70,0,0
20582,-100,4,1,0,55,0,0
21725,-100,4,1,0,70,0,0

[HitObjects]
256,192,2297,5,0,0:0:0:0:
256,192,2868,1,8,0:0:0:0:
256,192,3154,1,8,0:0:0:0:
256,192,3439,1,0,0:0:0:0:
256,192,4582,5,0,0:0:0:0:
256,192,5154,1,8,0:0:0:0:
256,192,5439,1,8,0:0:0:0:
256,192,5725,1,0,0:0:0:0:
256,192,6868,5,0,0:0:0:0:
256,192,7439,1,8,0:0:0:0:
256,192,7725,1,8,0:0:0:0:
256,192,8011,1,0,0:0:0:0:
256,192,8439,1,8,0:0:0:0:
256,192,8868,1,8,0:0:0:0:
256,192,9154,1,0,0:0:0:0:
256,192,9725,1,8,0:0:0:0:
256,192,10297,1,0,0:0:0:0:
256,192,10868,1,0,0:0:0:0:
256,192,11154,1,0,0:0:0:0:
256,192,11439,1,12,0:0:0:0:
256,192,12582,5,4,0:0:0:0:
256,192,13439,1,12,0:0:0:0:
256,192,14011,1,8,0:0:0:0:
256,192,14297,1,8,0:0:0:0:
256,192,14868,1,0,0:0:0:0:
256,192,15154,1,8,0:0:0:0:
256,192,15582,1,0,0:0:0:0:
256,192,16011,1,12,0:0:0:0:
256,192,17154,5,4,0:0:0:0:
256,192,18011,1,12,0:0:0:0:
256,192,18582,1,8,0:0:0:0:
256,192,18869,1,8,0:0:0:0:
256,192,19440,1,0,0:0:0:0:
256,192,19726,1,8,0:0:0:0:
256,192,20154,1,8,0:0:0:0:
256,192,20582,1,0,0:0:0:0:
256,192,21154,1,12,0:0:0:0:
256,192,21725,1,12,0:0:0:0:
256,192,22297,1,12,0:0:0:0:
256,192,22725,1,0,0:0:0:0:
256,192,23154,1,12,0:0:0:0:
256,192,23725,1,0,0:0:0:0:
256,192,24011,1,12,0:0:0:0:
256,192,24582,1,0,0:0:0:0:
256,192,24868,1,12,0:0:0:0:
256,192,26297,5,0,0:0:0:0:
256,192,26582,1,12,0:0:0:0:
256,192,27154,1,12,0:0:0:0:
256,192,28011,1,0,0:0:0:0:
256,192,28582,1,12,0:0:0:0:
256,192,29011,1,0,0:0:0:0:
256,192,29439,1,0,0:0:0:0:
256,192,29725,1,12,0:0:0:0:
256,192,30868,5,12,0:0:0:0:
256,192,31154,1,0,0:0:0:0:
256,192,31439,1,0,0:0:0:0:
256,192,31725,1,12,0:0:0:0:
256,192,32439,1,0,0:0:0:0:
256,192,32868,1,0,0:0:0:0:
256,192,33154,1,12,0:0:0:0:
256,192,33582,1,0,0:0:0:0:
256,192,34011,1,0,0:0:0:0:
256,192,34297,1,12,0:0:0:0:
256,192,34582,12,0,38439,0:0:0:0:
