osu file format v14

[General]
AudioFilename: audio.mp3
AudioLeadIn: 0
PreviewTime: 10582
Countdown: 0
SampleSet: Normal
StackLeniency: 0
Mode: 1
LetterboxInBreaks: 0
WidescreenStoryboard: 0

[Editor]
Bookmarks: 11439,20582,23154,34297
DistanceSpacing: 0.1
BeatDivisor: 4
GridSize: 32
TimelineZoom: 1

[Metadata]
Title:diamond
TitleUnicode:diamond
Artist:bill wurtz
ArtistUnicode:bill wurtz
Creator:Froskya
Version:brilliant
Source:
Tags:im a i'm mush featured artist fa english pop what the fuck mappers' guild mpg revialink
BeatmapID:3550991
BeatmapSetID:1737352

[Difficulty]
HPDrainRate:6
CircleSize:2
OverallDifficulty:5
ApproachRate:10
SliderMultiplier:1.4
SliderTickRate:1

[Events]
//Background and Video events
0,0,"blue.jpg",0,-130
//Break Periods
//Storyboard Layer 0 (Background)
//Storyboard Layer 1 (Fail)
//Storyboard Layer 2 (Pass)
//Storyboard Layer 3 (Foreground)
//Storyboard Layer 4 (Overlay)
//Storyboard Sound Samples

[TimingPoints]
2297,571.428571428572,4,1,0,40,1,0
9725,-99.009900990099,4,1,0,40,0,0
9868,-98.0392156862745,4,1,0,40,0,0
10296,-95.2380952380952,4,1,0,40,0,0
10582,-90.9090909090909,4,1,0,55,0,0
10725,-86.9565217391304,4,1,0,55,0,0
10868,-83.3333333333333,4,1,0,55,0,0
11011,-80,4,1,0,55,0,0
11154,-76.9230769230769,4,1,0,55,0,0
11297,-74.0740740740741,4,1,0,55,0,0
11439,-71.4285714285714,4,1,0,70,0,0
19439,-71.9424460431655,4,1,0,70,0,0
19725,-72.7272727272727,4,1,0,70,0,0
19868,-74.0740740740741,4,1,0,70,0,0
20011,-76.9230769230769,4,1,0,70,0,0
20154,-80,4,1,0,70,0,0
20297,-83.3333333333333,4,1,0,70,0,0
20439,-86.9565217391304,4,1,0,70,0,0
20582,-90.9090909090909,4,1,0,55,0,0
21154,-95.2380952380952,4,1,0,55,0,0
21725,-90.9090909090909,4,1,0,70,0,0
22011,-86.9565217391304,4,1,0,70,0,0
22297,-83.3333333333333,4,1,0,70,0,0
22725,-76.9230769230769,4,1,0,70,0,0
23154,-71.4285714285714,4,1,0,70,0,0
32297,-71.9424460431655,4,1,0,70,0,0
32439,-72.463768115942,4,1,0,70,0,0
32582,-72.992700729927,4,1,0,70,0,0
32868,-74.0740740740741,4,1,0,70,0,0
33154,-76.9230769230769,4,1,0,70,0,0
33582,-83.3333333333333,4,1,0,70,0,0
34011,-90.9090909090909,4,1,0,70,0,0
34154,-95.2380952380952,4,1,0,70,0,0
34297,-100,4,1,0,70,0,0

[HitObjects]
256,192,2297,5,0,0:0:0:0:
256,192,2582,1,8,0:0:0:0:
256,192,2725,1,8,0:0:0:0:
256,192,2868,1,0,0:0:0:0:
256,192,3154,1,8,0:0:0:0:
256,192,3439,1,0,0:0:0:0:
256,192,3725,1,0,0:0:0:0:
256,192,3868,1,8,0:0:0:0:
256,192,4154,1,8,0:0:0:0:
256,192,4297,1,8,0:0:0:0:
256,192,4582,1,0,0:0:0:0:
256,192,4867,1,8,0:0:0:0:
256,192,5010,1,8,0:0:0:0:
256,192,5153,1,0,0:0:0:0:
256,192,5439,1,8,0:0:0:0:
256,192,5724,1,0,0:0:0:0:
256,192,6011,1,0,0:0:0:0:
256,192,6153,1,8,0:0:0:0:
256,192,6439,1,0,0:0:0:0:
256,192,6582,1,8,0:0:0:0:
256,192,6868,1,0,0:0:0:0:
256,192,7153,1,8,0:0:0:0:
256,192,7296,1,8,0:0:0:0:
256,192,7439,1,0,0:0:0:0:
256,192,7725,1,8,0:0:0:0:
256,192,8010,1,0,0:0:0:0:
256,192,8297,1,0,0:0:0:0:
256,192,8439,1,8,0:0:0:0:
256,192,8582,1,0,0:0:0:0:
256,192,8725,1,0,0:0:0:0:
256,192,8868,1,8,0:0:0:0:
256,192,9153,1,0,0:0:0:0:
256,192,9439,1,8,0:0:0:0:
256,192,9725,1,8,0:0:0:0:
256,192,9868,1,0,0:0:0:0:
256,192,10296,1,0,0:0:0:0:
256,192,10582,1,8,0:0:0:0:
256,192,10725,1,0,0:0:0:0:
256,192,10868,1,8,0:0:0:0:
256,192,11011,1,8,0:0:0:0:
256,192,11154,1,0,0:0:0:0:
256,192,11297,1,0,0:0:0:0:
256,192,11439,1,12,0:0:0:0:
256,192,11868,1,8,0:0:0:0:
256,192,12011,1,0,0:0:0:0:
256,192,12297,1,0,0:0:0:0:
256,192,12439,1,0,0:0:0:0:
256,192,12582,1,12,0:0:0:0:
256,192,13011,1,8,0:0:0:0:
256,192,13154,1,0,0:0:0:0:
256,192,13439,1,12,0:0:0:0:
256,192,13725,1,8,0:0:0:0:
256,192,13868,1,0,0:0:0:0:
256,192,14011,1,0,0:0:0:0:
256,192,14297,1,12,0:0:0:0:
256,192,14582,1,0,0:0:0:0:
256,192,14868,1,12,0:0:0:0:
256,192,15154,1,0,0:0:0:0:
256,192,15439,1,8,0:0:0:0:
256,192,15582,1,0,0:0:0:0:
256,192,16011,1,12,0:0:0:0:
256,192,16439,1,8,0:0:0:0:
256,192,16582,1,0,0:0:0:0:
256,192,16868,1,0,0:0:0:0:
256,192,17010,1,0,0:0:0:0:
256,192,17153,1,12,0:0:0:0:
256,192,17582,1,8,0:0:0:0:
256,192,17725,1,0,0:0:0:0:
256,192,18010,1,12,0:0:0:0:
256,192,18296,1,8,0:0:0:0:
256,192,18439,1,0,0:0:0:0:
256,192,18582,1,0,0:0:0:0:
256,192,18868,1,8,0:0:0:0:
256,192,19153,1,0,0:0:0:0:
256,192,19439,1,12,0:0:0:0:
256,192,19725,1,8,0:0:0:0:
256,192,19868,1,0,0:0:0:0:
256,192,20011,1,0,0:0:0:0:
256,192,20154,1,8,0:0:0:0:
256,192,20297,1,0,0:0:0:0:
256,192,20439,1,0,0:0:0:0:
256,192,20582,1,0,0:0:0:0:
256,192,21154,1,12,0:0:0:0:
256,192,21725,1,12,0:0:0:0:
256,192,22011,1,0,0:0:0:0:
256,192,22297,1,12,0:0:0:0:
256,192,22725,1,0,0:0:0:0:
256,192,23154,1,12,0:0:0:0:
256,192,23439,1,0,0:0:0:0:
256,192,23582,1,8,0:0:0:0:
256,192,23725,1,0,0:0:0:0:
256,192,24011,1,12,0:0:0:0:
256,192,24297,1,8,0:0:0:0:
256,192,24439,1,8,0:0:0:0:
256,192,24582,1,0,0:0:0:0:
256,192,24725,1,0,0:0:0:0:
256,192,24868,1,12,0:0:0:0:
256,192,25439,1,0,0:0:0:0:
256,192,25725,1,8,0:0:0:0:
256,192,26154,1,0,0:0:0:0:
256,192,26297,1,0,0:0:0:0:
256,192,26582,1,12,0:0:0:0:
256,192,26868,1,0,0:0:0:0:
256,192,27011,1,0,0:0:0:0:
256,192,27154,1,12,0:0:0:0:
256,192,27725,1,8,0:0:0:0:
256,192,28011,1,0,0:0:0:0:
256,192,28297,1,0,0:0:0:0:
256,192,28439,1,0,0:0:0:0:
256,192,28582,1,12,0:0:0:0:
256,192,29011,1,0,0:0:0:0:
256,192,29297,1,8,0:0:0:0:
256,192,29439,1,0,0:0:0:0:
256,192,29582,1,0,0:0:0:0:
256,192,29725,1,12,0:0:0:0:
256,192,30011,1,8,0:0:0:0:
256,192,30297,1,0,0:0:0:0:
256,192,30582,1,0,0:0:0:0:
256,192,30868,1,12,0:0:0:0:
256,192,31154,1,0,0:0:0:0:
256,192,31439,1,0,0:0:0:0:
256,192,31725,1,12,0:0:0:0:
256,192,32297,1,8,0:0:0:0:
256,192,32439,1,0,0:0:0:0:
256,192,32582,1,8,0:0:0:0:
256,192,32868,1,0,0:0:0:0:
256,192,33154,1,12,0:0:0:0:
256,192,33582,1,0,0:0:0:0:
256,192,34011,1,0,0:0:0:0:
256,192,34154,1,0,0:0:0:0:
256,192,34297,1,12,0:0:0:0:
256,192,34439,8,0,38439,0:0:0:0:
