osu file format v14

[General]
AudioFilename: audio.mp3
AudioLeadIn: 0
PreviewTime: 88807
Countdown: 0
SampleSet: Soft
StackLeniency: 0.7
Mode: 0
LetterboxInBreaks: 0
WidescreenStoryboard: 0

[Editor]
DistanceSpacing: 1
BeatDivisor: 4
GridSize: 32
TimelineZoom: 1.4

[Metadata]
Title:risuyu krov'yu
TitleUnicode:рисую кровью
Artist:bilbordy
ArtistUnicode:билборды
Creator:nemidnight
Version:tears
Source:
Tags:mocaotic namki paradoxa parad0xa i draw with blood russian rock alternative emo punk billboards billboards21 русский рок эмо панк альтернатива
BeatmapID:3646595
BeatmapSetID:1780595

[Difficulty]
HPDrainRate:5
CircleSize:4
OverallDifficulty:8.5
ApproachRate:9.2
SliderMultiplier:1.8
SliderTickRate:1

[Events]
//Background and Video events
0,0,"tears.jpg",0,0
//Break Periods
2,78059,88260
2,100001,109517
//Storyboard Layer 0 (Background)
//Storyboard Layer 1 (Fail)
//Storyboard Layer 2 (Pass)
//Storyboard Layer 3 (Foreground)
//Storyboard Layer 4 (Overlay)
//Storyboard Sound Samples

[TimingPoints]
1059,342.857142857143,4,2,1,62,1,0
1059,-120.481927710843,4,2,1,62,0,0
10659,-120.481927710843,4,2,2,46,0,0
12030,-95.2380952380952,4,2,1,90,0,1
12887,-181.818181818182,4,2,1,90,0,1
13401,-95.2380952380952,4,2,1,90,0,1
14773,-75.7575757575758,4,2,1,90,0,1
15116,-95.2380952380952,4,2,1,90,0,1
17516,-75.7575757575758,4,2,1,90,0,1
17859,-95.2380952380952,4,2,1,90,0,1
18373,-181.818181818182,4,2,1,90,0,1
18887,-95.2380952380952,4,2,1,90,0,1
23859,-181.818181818182,4,2,1,90,0,1
24373,-95.2380952380952,4,2,1,90,0,1
25744,-75.7575757575758,4,2,1,90,0,1
26087,-95.2380952380952,4,2,1,90,0,1
28487,-75.7575757575758,4,2,1,90,0,1
28830,-95.2380952380952,4,2,1,90,0,1
29344,-181.818181818182,4,2,1,90,0,1
29859,-95.2380952380952,4,2,1,90,0,1
33973,-200,4,2,1,62,0,0
34487,-125,4,2,1,62,0,0
36716,-200,4,2,1,62,0,0
37573,-125,4,2,1,62,0,0
39459,-200,4,2,1,62,0,0
40316,-125,4,2,1,62,0,0
42201,-200,4,2,1,62,0,0
43059,-125,4,2,1,62,0,0
44944,-105.263157894737,4,2,1,70,0,0
54544,-144.927536231884,4,2,1,70,0,0
55916,-70.4225352112676,4,2,1,90,0,1
56259,-89.2857142857143,4,2,1,90,0,1
56773,-181.818181818182,4,2,1,90,0,1
57287,-89.2857142857143,4,2,1,90,0,1
58659,-75.7575757575758,4,2,1,90,0,1
59001,-95.2380952380952,4,2,1,90,0,1
61401,-75.7575757575758,4,2,1,90,0,1
61744,-95.2380952380952,4,2,1,90,0,1
62259,-181.818181818182,4,2,1,90,0,1
62773,-89.2857142857143,4,2,1,90,0,1
66887,-70.4225352112676,4,2,1,90,0,1
67230,-89.2857142857143,4,2,1,90,0,1
67744,-181.818181818182,4,2,1,90,0,1
68259,-89.2857142857143,4,2,1,90,0,1
69630,-70.4225352112676,4,2,1,90,0,1
69973,-89.2857142857143,4,2,1,90,0,1
72373,-75.7575757575758,4,2,1,90,0,1
72716,-95.2380952380952,4,2,1,90,0,1
73230,-181.818181818182,4,2,1,90,0,1
73744,-89.2857142857143,4,2,1,90,0,1
77859,-117.647058823529,4,2,1,62,0,0
88830,-200,4,2,1,62,0,0
89859,-125,4,2,1,62,0,0
91573,-200,4,2,1,62,0,0
92601,-125,4,2,1,62,0,0
94316,-200,4,2,1,62,0,0
95344,-125,4,2,1,62,0,0
97059,-200,4,2,1,62,0,0
98087,-125,4,2,1,62,0,0
99801,-500,4,2,1,62,0,0
110773,-67.5675675675676,4,2,1,90,0,1
111116,-84.7457627118644,4,2,1,90,0,1
111630,-181.818181818182,4,2,1,90,0,1
112144,-84.7457627118644,4,2,1,90,0,1
113516,-67.5675675675676,4,2,1,90,0,1
113859,-84.7457627118644,4,2,1,90,0,1
116259,-67.5675675675676,4,2,1,90,0,1
116601,-84.7457627118644,4,2,1,90,0,1
117116,-181.818181818182,4,2,1,90,0,1
117630,-84.7457627118644,4,2,1,90,0,1
121744,-67.5675675675676,4,2,1,90,0,1
122087,-84.7457627118644,4,2,1,90,0,1
122601,-181.818181818182,4,2,1,90,0,1
123116,-84.7457627118644,4,2,1,90,0,1
124487,-67.5675675675676,4,2,1,90,0,1
124830,-84.7457627118644,4,2,1,90,0,1
127230,-67.5675675675676,4,2,1,90,0,1
127573,-84.7457627118644,4,2,1,90,0,1
128087,-181.818181818182,4,2,1,90,0,1
128601,-84.7457627118644,4,2,1,90,0,1
132716,-95.2380952380952,4,2,1,90,0,0
133573,-181.818181818182,4,2,1,90,0,0
135459,-95.2380952380952,4,2,1,90,0,0
139059,-181.818181818182,4,2,1,90,0,0
140944,-95.2380952380952,4,2,1,90,0,0

[Colours]
Combo1 : 117,103,81
Combo2 : 177,171,163

[HitObjects]
190,23,1059,6,0,P|220:35|230:81,1,74.70000108284,2|0,3:2|3:2,0:0:0:0:
190,176,1401,2,0,P|138:154|108:132,1,74.70000108284,10|0,0:0|0:0,0:0:0:0:
0,101,1744,1,2,3:2:0:0:
40,33,1916,2,0,P|53:116|65:201,1,149.40000216568,8|0,0:0|3:2,0:0:0:0:
62,180,2430,5,2,3:2:0:0:
117,244,2601,1,0,3:2:0:0:
113,375,2773,2,0,P|146:366|192:349,1,74.70000108284,10|0,0:0|3:2,0:0:0:0:
235,299,3030,1,8,0:0:0:0:
229,291,3116,2,0,P|264:303|300:313,1,74.70000108284,2|0,3:2|3:2,0:0:0:0:
469,271,3459,6,0,P|454:337|446:365,2,74.70000108284,10|0|2,0:0|3:2|3:2,0:0:0:0:
469,271,4144,2,0,P|442:296|403:292,1,74.70000108284,10|0,0:0|0:0,0:0:0:0:
333,181,4487,1,2,3:2:0:0:
414,203,4659,2,0,B|328:225|379:250|282:276,1,149.40000216568,8|0,0:0|3:2,0:0:0:0:
286,274,5173,5,2,3:2:0:0:
218,243,5344,1,0,3:2:0:0:
317,156,5516,2,0,P|361:146|395:134,1,74.70000108284,10|0,0:0|3:2,0:0:0:0:
298,146,5773,1,8,0:0:0:0:
304,154,5859,2,0,P|269:142|233:132,1,74.70000108284,2|0,3:2|3:2,0:0:0:0:
85,38,6201,6,0,P|90:55|104:68,1,37.35000054142,10|0,0:0|0:0,0:0:0:0:
244,55,6373,2,0,P|225:51|207:56,1,37.35000054142,0|0,3:2|0:0,0:0:0:0:
159,135,6544,6,0,P|169:194|180:269,1,112.05000162426,2|0,3:2|0:0,0:0:0:0:
176,245,6887,2,0,P|138:237|97:226,1,74.70000108284,10|0,0:0|0:0,0:0:0:0:
161,353,7230,1,2,3:2:0:0:
84,350,7401,2,0,P|122:341|240:313,1,149.40000216568,8|0,0:0|3:2,0:0:0:0:
229,315,7916,5,2,3:2:0:0:
301,350,8087,1,0,3:2:0:0:
406,284,8259,2,0,P|434:306|439:342,1,74.70000108284,10|0,0:0|3:2,0:0:0:0:
327,282,8516,1,8,0:0:0:0:
323,273,8601,2,0,P|327:236|356:214,1,74.70000108284,2|0,3:2|3:2,0:0:0:0:
467,129,8944,6,0,P|480:173|493:210,2,74.70000108284,10|0|2,0:0|3:2|3:2,0:0:0:0:
467,129,9630,2,0,P|423:143|390:150,1,74.70000108284,10|0,0:0|0:0,0:0:0:0:
265,111,9973,1,2,3:2:0:0:
330,50,10144,2,0,P|286:36|253:29,1,74.70000108284,8|2,0:0|0:0,0:0:0:0:
123,41,10487,1,0,3:2:0:0:
157,136,10659,5,0,3:2:0:0:
157,136,10830,1,0,3:2:0:0:
102,223,11001,1,8,0:0:0:0:
164,125,11173,5,0,3:2:0:0:
164,115,11259,1,8,0:0:0:0:
162,105,11344,1,0,3:2:0:0:
107,233,11516,1,0,3:2:0:0:
156,95,11687,1,8,0:0:0:0:
114,242,11859,1,0,3:2:0:0:
67,98,12030,5,6,3:2:0:0:
234,164,12201,1,0,3:2:0:0:
136,274,12373,2,0,B|65:307|100:333|19:367,1,141.749995674133,10|0,0:0|0:0,0:0:0:0:
0,283,12716,5,2,3:2:0:0:
193,351,12888,2,0,P|244:366|291:375,1,99.0000030212403,8|0,0:0|3:2,0:0:0:0:
288,374,13401,6,0,P|254:380|228:390,1,47.2499985580445,2|0,3:2|0:0,0:0:0:0:
461,277,13573,2,0,P|483:283|507:285,1,47.2499985580445,0|0,3:2|0:0,0:0:0:0:
390,359,13744,1,10,0:0:0:0:
257,225,13916,5,0,3:2:0:0:
262,211,14001,1,8,0:0:0:0:
269,197,14087,1,2,3:2:0:0:
321,280,14259,1,0,3:2:0:0:
196,138,14430,2,0,P|256:125|313:115,1,94.499997116089,10|0,0:0|3:2,0:0:0:0:
16,91,14773,6,0,P|97:98|119:192,1,178.199999456177,6|0,3:2|0:0,0:0:0:0:
149,258,15116,2,0,P|89:245|32:235,1,94.499997116089,10|0,0:0|0:0,0:0:0:0:
242,203,15459,5,2,3:2:0:0:
315,215,15630,1,8,0:0:0:0:
497,128,15801,5,2,0:0:0:0:
424,140,15972,1,0,3:2:0:0:
321,97,16144,5,2,3:2:0:0:
443,273,16316,1,0,3:2:0:0:
335,91,16487,2,0,P|345:52|359:-4,1,94.499997116089,10|0,0:0|3:2,0:0:0:0:
270,17,16744,5,8,0:0:0:0:
261,25,16830,1,2,3:2:0:0:
416,154,17001,1,0,3:2:0:0:
362,219,17173,6,0,P|344:203|335:182,1,47.2499985580445,10|0,0:0|0:0,0:0:0:0:
322,343,17344,2,0,P|304:358|295:379,1,47.2499985580445,0|0,3:2|0:0,0:0:0:0:
433,294,17516,6,0,B|346:258|346:332|255:326,1,178.199999456177,6|0,3:2|0:0,0:0:0:0:
192,295,17859,2,0,P|137:289|85:284,1,94.499997116089,10|0,0:0|0:0,0:0:0:0:
78,94,18201,1,2,3:2:0:0:
31,174,18373,2,0,P|87:162|143:152,1,99.0000030212403,8|0,0:0|3:2,0:0:0:0:
128,154,18887,6,0,P|120:176|105:194,1,47.2499985580445,2|0,3:2|0:0,0:0:0:0:
298,55,19059,2,0,P|290:32|275:14,1,47.2499985580445,0|0,3:2|0:0,0:0:0:0:
200,94,19230,1,10,0:0:0:0:
320,239,19401,5,0,3:2:0:0:
334,237,19487,1,8,0:0:0:0:
347,229,19573,5,2,3:2:0:0:
398,164,19744,1,0,3:2:0:0:
371,79,19916,1,10,0:0:0:0:
512,169,20087,1,0,3:2:0:0:
321,140,20259,5,6,3:2:0:0:
381,92,20430,1,0,3:2:0:0:
157,223,20601,5,10,0:0:0:0:
177,300,20772,1,0,0:0:0:0:
195,59,20944,5,2,3:2:0:0:
118,38,21115,1,8,0:0:0:0:
233,163,21287,5,2,0:0:0:0:
233,163,21459,1,0,3:2:0:0:
397,255,21630,5,2,3:2:0:0:
339,304,21801,1,0,3:2:0:0:
161,370,21973,5,10,0:0:0:0:
221,191,22144,1,0,3:2:0:0:
230,202,22230,1,8,0:0:0:0:
230,216,22316,1,2,3:2:0:0:
150,282,22487,1,0,3:2:0:0:
158,105,22659,5,10,0:0:0:0:
331,219,22830,1,0,3:2:0:0:
301,98,23001,5,6,3:2:0:0:
140,212,23173,1,0,3:2:0:0:
292,79,23344,2,0,B|387:110|322:127|404:179,1,141.749995674133,10|0,0:0|0:0,0:0:0:0:
470,189,23687,5,2,3:2:0:0:
328,323,23859,2,0,P|277:344|229:367,1,99.0000030212403,8|0,0:0|3:2,0:0:0:0:
237,362,24373,6,0,P|272:370|293:374,1,47.2499985580445,2|0,3:2|0:0,0:0:0:0:
54,299,24544,2,0,P|77:294|100:289,1,47.2499985580445,0|0,3:2|0:0,0:0:0:0:
148,368,24716,1,10,0:0:0:0:
235,200,24887,5,0,3:2:0:0:
230,187,24973,1,8,0:0:0:0:
221,175,25059,1,2,3:2:0:0:
189,275,25230,1,0,3:2:0:0:
29,174,25401,2,0,P|80:161|127:149,1,94.499997116089,10|0,0:0|3:2,0:0:0:0:
318,17,25744,6,0,B|288:110|288:110|301:163|378:148,1,178.199999456177,6|0,3:2|0:0,0:0:0:0:
427,174,26087,2,0,P|439:132|411:89,1,94.499997116089,10|0,0:0|0:0,0:0:0:0:
215,115,26430,1,2,3:2:0:0:
245,32,26601,2,0,P|199:42|150:54,1,94.499997116089,8|2,0:0|0:0,0:0:0:0:
311,159,26944,1,0,3:2:0:0:
219,229,27116,5,2,3:2:0:0:
327,43,27287,1,0,3:2:0:0:
234,242,27459,1,10,0:0:0:0:
323,319,27630,5,0,3:2:0:0:
337,314,27716,1,8,0:0:0:0:
346,302,27801,1,2,3:2:0:0:
243,359,27973,1,0,3:2:0:0:
362,214,28144,6,0,P|329:226|299:235,1,47.2499985580445,10|0,0:0|0:0,0:0:0:0:
180,301,28316,2,0,P|157:309|135:316,1,47.2499985580445,0|0,3:2|0:0,0:0:0:0:
50,363,28487,6,0,B|76:274|76:274|10:205,1,178.199999456177,6|0,3:2|0:0,0:0:0:0:
5,137,28830,2,0,P|63:127|106:117,1,94.499997116089,10|0,0:0|0:0,0:0:0:0:
282,77,29173,1,2,3:2:0:0:
204,29,29344,2,0,P|182:64|197:116,1,99.0000030212403,8|0,0:0|3:2,0:0:0:0:
197,116,29859,6,0,P|185:155|171:179,1,47.2499985580445,2|0,3:2|0:0,0:0:0:0:
312,263,30030,2,0,P|324:224|338:200,1,47.2499985580445,0|0,3:2|0:0,0:0:0:0:
310,102,30201,1,10,0:0:0:0:
202,258,30373,5,0,3:2:0:0:
190,268,30459,1,8,0:0:0:0:
173,268,30544,1,2,3:2:0:0:
109,216,30716,1,0,3:2:0:0:
204,372,30887,5,10,0:0:0:0:
268,320,31059,1,0,3:2:0:0:
457,238,31230,5,6,3:2:0:0:
473,314,31401,1,0,3:2:0:0:
405,111,31573,5,10,0:0:0:0:
389,187,31744,1,0,0:0:0:0:
496,28,31916,5,2,3:2:0:0:
512,104,32087,1,8,0:0:0:0:
400,8,32259,5,2,0:0:0:0:
400,8,32430,1,0,3:2:0:0:
306,171,32601,5,2,3:2:0:0:
383,208,32773,1,0,3:2:0:0:
229,90,32944,5,10,0:0:0:0:
153,264,33116,1,0,3:2:0:0:
139,257,33201,1,8,0:0:0:0:
137,243,33287,1,2,3:2:0:0:
124,159,33459,1,0,3:2:0:0:
229,294,33630,5,10,0:0:0:0:
46,346,33801,1,0,3:2:0:0:
240,296,33973,6,0,P|271:313|339:325,1,90,2|10,3:2|0:0,0:0:0:0:
461,350,34487,2,0,P|449:302|435:261,1,72,2|0,0:0|3:2,0:0:0:0:
362,222,34830,2,0,P|374:174|388:133,1,72,10|2,0:0|0:0,0:0:0:0:
380,152,35173,1,2,3:2:0:0:
454,64,35344,5,2,3:2:0:0:
454,64,35429,1,0,3:2:0:0:
454,64,35516,2,0,P|462:97|469:112,1,36,2|0,3:2|3:2,0:0:0:0:
471,180,35687,1,10,0:0:0:0:
332,69,35858,5,2,3:2:0:0:
332,69,35944,2,0,P|308:93|295:103,1,36,8|2,0:0|3:2,0:0:0:0:
233,232,36201,5,2,3:2:0:0:
211,162,36373,1,10,0:0:0:0:
187,91,36544,1,2,3:2:0:0:
31,155,36716,5,2,3:2:0:0:
39,129,36887,2,0,L|54:187,1,45,2|8,3:2|0:0,0:0:0:0:
116,228,37230,2,0,P|103:267|87:308,1,67.5,2|0,0:0|0:0,0:0:0:0:
93,291,37573,6,0,P|121:313|170:305,1,72,10|2,0:0|0:0,0:0:0:0:
226,346,37916,1,2,3:2:0:0:
286,232,38087,5,2,3:2:0:0:
286,232,38172,1,0,3:2:0:0:
286,232,38259,2,0,P|248:246|223:252,1,36,2|0,3:2|3:2,0:0:0:0:
325,317,38430,5,10,0:0:0:0:
334,320,38515,1,0,3:2:0:0:
341,325,38601,1,2,3:2:0:0:
347,330,38687,2,0,P|385:344|410:350,1,36,8|2,3:2|3:2,0:0:0:0:
481,233,38858,1,0,0:0:0:0:
481,233,38944,6,0,P|467:244|451:253,1,36,2|0,3:2|0:0,0:0:0:0:
352,200,39116,2,0,P|338:211|323:220,1,36,10|0,0:0|0:0,0:0:0:0:
410,71,39287,2,0,P|395:81|380:90,1,36,2|0,3:2|0:0,0:0:0:0:
495,127,39459,5,2,3:2:0:0:
504,135,39630,2,0,P|473:151|449:165,1,45,2|8,3:2|0:0,0:0:0:0:
366,206,39973,2,0,P|333:194|307:187,1,45,2|0,0:0|3:2,0:0:0:0:
223,143,40316,6,0,P|240:110|286:96,1,72,10|2,0:0|0:0,0:0:0:0:
270,95,40659,1,2,3:2:0:0:
232,235,40830,5,2,3:2:0:0:
232,235,40915,1,0,3:2:0:0:
232,235,41001,2,0,P|196:226|170:210,1,36,2|0,3:2|3:2,0:0:0:0:
125,170,41173,1,10,0:0:0:0:
63,319,41344,5,2,3:2:0:0:
63,319,41430,2,0,P|99:310|125:294,1,36,8|2,0:0|3:2,0:0:0:0:
115,196,41687,5,2,3:2:0:0:
34,160,41859,2,0,P|38:142|41:124,1,36,10|0,0:0|0:0,0:0:0:0:
158,78,42030,1,2,3:2:0:0:
238,221,42201,5,2,3:2:0:0:
228,214,42373,2,0,P|260:209|279:186,1,45,2|8,3:2|0:0,0:0:0:0:
377,150,42716,2,0,P|354:149|335:137,1,45,2|0,0:0|3:2,0:0:0:0:
258,78,43059,6,0,P|287:164|314:239,1,144,10|2,0:0|3:2,0:0:0:0:
414,346,43573,5,2,3:2:0:0:
414,346,43658,1,0,3:2:0:0:
414,346,43744,2,0,P|442:313|450:290,1,36,2|0,3:2|0:0,0:0:0:0:
321,214,43916,5,10,0:0:0:0:
314,220,44001,1,0,3:2:0:0:
307,227,44087,1,2,3:2:0:0:
302,235,44173,2,0,P|274:268|266:291,1,36,8|2,0:0|3:2,0:0:0:0:
311,353,44430,1,0,3:2:0:0:
126,371,44601,5,10,3:3:0:0:
88,362,44686,1,8,3:3:0:0:
61,334,44772,1,4,3:3:0:0:
53,296,44858,1,4,3:3:0:0:
67,260,44944,6,0,P|76:296|79:308,1,42.7499988584519,2|0,3:2|0:0,0:0:0:0:
156,379,45116,2,0,P|166:331|176:290,1,85.4999977169037,2|10,3:2|0:0,0:0:0:0:
152,210,45373,1,0,3:2:0:0:
152,210,45459,2,0,P|128:169|79:167,1,85.4999977169037,2|0,0:0|3:2,0:0:0:0:
158,57,45801,5,10,0:0:0:0:
158,57,45887,1,0,3:2:0:0:
158,57,45973,2,0,P|186:71|207:77,1,42.7499988584519,2|0,0:0|0:0,0:0:0:0:
268,138,46144,2,0,P|296:124|317:118,1,42.7499988584519,2|0,3:2|0:0,0:0:0:0:
377,57,46316,5,2,3:2:0:0:
459,146,46487,1,2,3:2:0:0:
348,209,46659,5,10,0:0:0:0:
478,148,46830,1,2,3:2:0:0:
478,148,46916,1,8,0:0:0:0:
478,148,47001,1,2,3:2:0:0:
306,120,47173,1,2,3:2:0:0:
469,301,47344,5,10,0:0:0:0:
440,332,47429,1,0,3:2:0:0:
401,350,47515,1,2,3:2:0:0:
359,351,47601,1,0,3:2:0:0:
320,335,47687,6,0,P|353:323|373:313,1,42.7499988584519,2|0,3:2|0:0,0:0:0:0:
244,377,47859,2,0,P|197:366|153:353,1,85.4999977169037,2|8,3:2|0:0,0:0:0:0:
78,327,48116,1,0,0:0:0:0:
78,327,48201,2,0,P|94:286|153:273,1,85.4999977169037,2|0,0:0|3:2,0:0:0:0:
151,257,48459,5,0,3:2:0:0:
163,266,48544,2,0,P|202:281|224:287,1,42.7499988584519,10|0,0:0|0:0,0:0:0:0:
165,185,48716,2,0,P|206:178|228:172,1,42.7499988584519,2|0,0:0|0:0,0:0:0:0:
116,116,48887,2,0,P|148:89|164:73,1,42.7499988584519,2|0,3:2|0:0,0:0:0:0:
151,257,49059,5,2,3:2:0:0:
326,177,49230,1,2,3:2:0:0:
220,161,49401,5,10,0:0:0:0:
386,241,49573,1,2,3:2:0:0:
386,241,49659,1,8,0:0:0:0:
386,241,49744,1,2,3:2:0:0:
225,174,49916,1,2,3:2:0:0:
307,31,50087,5,10,0:0:0:0:
344,12,50173,1,0,3:2:0:0:
386,17,50258,1,2,3:2:0:0:
419,44,50344,1,0,3:2:0:0:
431,84,50430,6,0,P|422:114|412:137,1,42.7499988584519,2|0,3:2|0:0,0:0:0:0:
449,220,50601,2,0,P|463:278|480:334,1,85.4999977169037,2|8,3:2|0:0,0:0:0:0:
402,362,50859,1,0,0:0:0:0:
402,362,50944,2,0,P|388:304|371:248,1,85.4999977169037,2|0,0:0|3:2,0:0:0:0:
370,257,51201,5,0,3:2:0:0:
359,250,51287,2,0,P|343:268|320:281,1,42.7499988584519,10|0,0:0|0:0,0:0:0:0:
272,353,51459,2,0,P|256:335|233:322,1,42.7499988584519,2|0,0:0|0:0,0:0:0:0:
181,254,51630,2,0,P|165:272|142:285,1,42.7499988584519,2|0,3:2|0:0,0:0:0:0:
47,352,51801,5,2,3:2:0:0:
117,194,51973,1,2,3:2:0:0:
280,258,52144,5,10,0:0:0:0:
133,297,52316,1,2,3:2:0:0:
133,297,52401,1,8,0:0:0:0:
133,297,52487,1,2,3:2:0:0:
205,158,52659,1,2,3:2:0:0:
79,37,52830,5,10,0:0:0:0:
113,12,52915,1,0,3:2:0:0:
155,4,53001,1,2,3:2:0:0:
196,14,53087,1,0,3:2:0:0:
230,40,53173,6,0,P|264:62|295:66,1,42.7499988584519,2|0,3:2|0:0,0:0:0:0:
344,103,53344,2,0,P|397:89|438:74,1,85.4999977169037,2|8,3:2|0:0,0:0:0:0:
498,127,53601,1,0,0:0:0:0:
498,127,53687,2,0,P|518:168|480:213,1,85.4999977169037,2|0,0:0|3:2,0:0:0:0:
390,235,54030,5,10,0:0:0:0:
390,235,54116,1,0,3:2:0:0:
390,235,54201,2,0,P|402:197|406:185,1,42.7499988584519,2|0,0:0|0:0,0:0:0:0:
324,101,54373,2,0,P|317:121|311:141,1,42.7499988584519,2|0,3:2|0:0,0:0:0:0:
264,292,54544,6,0,P|278:279|281:237,1,62.1000000947571,2|2,3:2|3:2,0:0:0:0:
232,165,54887,2,0,P|227:183|253:217,1,62.1000000947571,10|2,0:0|3:2,0:0:0:0:
327,240,55230,2,0,P|319:222|275:215,1,62.1000000947571,2|0,3:2|3:2,0:0:0:0:
212,243,55573,6,0,P|219:248|244:251,1,31.0500000473785,10|8,3:3|3:3,0:0:0:0:
302,167,55744,2,0,P|292:167|272:184,1,31.0500000473785,4|4,3:3|3:3,0:0:0:0:
320,248,55916,6,0,B|209:263|276:335|156:361,1,191.699990347138,6|0,3:2|0:0,0:0:0:0:
100,329,56259,2,0,P|68:288|103:227,1,100.800001230469,10|0,0:0|0:0,0:0:0:0:
122,242,56516,5,0,3:2:0:0:
122,242,56601,1,2,3:2:0:0:
257,132,56773,2,0,P|266:155|275:178,2,49.5000015106202,8|2|0,0:0|0:0|3:2,0:0:0:0:
257,132,57287,6,0,P|242:150|207:171,1,50.4000006152344,2|0,3:2|0:0,0:0:0:0:
394,231,57459,2,0,P|409:249|442:269,1,50.4000006152344,0|0,3:2|0:0,0:0:0:0:
364,143,57630,1,10,0:0:0:0:
249,304,57801,5,0,3:2:0:0:
252,319,57887,1,8,0:0:0:0:
261,330,57973,1,2,3:2:0:0:
354,326,58144,1,0,3:2:0:0:
171,247,58316,6,0,P|136:258|113:267,1,50.4000006152344,10|0,0:0|0:0,0:0:0:0:
330,206,58487,2,0,P|352:213|379:223,1,50.4000006152344,0|0,3:2|0:0,0:0:0:0:
150,131,58659,6,0,B|195:134|238:151|238:151|261:113|309:80,1,178.199999456177,6|0,3:2|0:0,0:0:0:0:
253,23,59001,2,0,P|206:41|150:52,1,94.499997116089,10|0,0:0|0:0,0:0:0:0:
39,203,59344,1,2,3:2:0:0:
27,4,59516,5,8,0:0:0:0:
42,8,59601,1,0,3:2:0:0:
52,20,59687,1,2,3:2:0:0:
0,111,59859,1,0,3:2:0:0:
137,253,60030,5,2,3:2:0:0:
319,111,60201,1,0,3:2:0:0:
131,264,60373,2,0,P|177:281|225:296,1,94.499997116089,10|0,0:0|3:2,0:0:0:0:
255,285,60630,5,8,0:0:0:0:
255,285,60716,1,2,3:2:0:0:
481,360,60887,1,0,3:2:0:0:
426,299,61059,6,0,P|407:319|402:348,1,47.2499985580445,10|0,0:0|0:0,0:0:0:0:
376,171,61230,2,0,P|357:151|352:122,1,47.2499985580445,0|0,3:2|0:0,0:0:0:0:
512,231,61401,6,0,B|407:212|455:287|336:304,1,178.199999456177,6|0,3:2|0:0,0:0:0:0:
278,283,61744,2,0,P|210:297|165:315,1,94.499997116089,10|0,0:0|0:0,0:0:0:0:
335,229,62087,5,2,3:2:0:0:
140,366,62259,2,0,P|80:354|27:342,1,99.0000030212403,8|0,0:0|3:2,0:0:0:0:
43,345,62773,6,0,P|76:338|104:327,1,50.4000006152344,2|0,3:2|0:0,0:0:0:0:
233,206,62944,2,0,P|209:214|184:219,1,50.4000006152344,0|0,3:2|0:0,0:0:0:0:
83,205,63116,1,10,0:0:0:0:
286,292,63287,5,0,3:2:0:0:
298,281,63373,1,8,0:0:0:0:
305,265,63459,1,2,3:2:0:0:
208,295,63630,1,0,3:2:0:0:
374,173,63801,5,10,0:0:0:0:
288,147,63973,1,0,3:2:0:0:
438,269,64144,5,6,3:2:0:0:
485,161,64316,1,0,3:2:0:0:
252,156,64487,5,10,0:0:0:0:
348,88,64659,1,0,3:2:0:0:
348,88,64744,1,0,3:2:0:0:
348,88,64830,6,0,P|344:119|340:144,1,50.4000006152344,2|0,3:2|0:0,0:0:0:0:
295,324,65001,2,0,P|291:299|288:274,1,50.4000006152344,8|0,0:0|0:0,0:0:0:0:
221,154,65173,5,2,0:0:0:0:
221,154,65344,1,0,3:2:0:0:
147,353,65516,6,0,P|141:308|137:270,1,50.4000006152344,2|0,3:2|0:0,0:0:0:0:
129,228,65687,2,0,P|123:183|119:145,1,50.4000006152344,0|0,3:2|0:0,0:0:0:0:
85,4,65859,5,10,0:0:0:0:
232,154,66030,1,0,3:2:0:0:
244,145,66116,1,8,0:0:0:0:
249,130,66202,1,2,3:2:0:0:
201,33,66373,1,0,3:2:0:0:
23,159,66544,5,10,0:0:0:0:
73,276,66716,1,0,3:2:0:0:
296,230,66887,6,0,B|250:252|197:261|197:261|191:327|252:341,1,191.699990347138,6|0,3:2|0:0,0:0:0:0:
304,368,67230,2,0,P|360:373|406:378,1,100.800001230469,10|0,0:0|0:0,0:0:0:0:
439,365,67487,5,0,3:2:0:0:
439,365,67573,1,2,3:2:0:0:
394,193,67744,2,0,P|384:229|375:253,2,49.5000015106202,8|2|0,0:0|0:0|3:2,0:0:0:0:
394,193,68259,6,0,P|402:214|424:234,1,50.4000006152344,2|0,3:2|0:0,0:0:0:0:
276,60,68430,2,0,P|268:81|246:101,1,50.4000006152344,0|0,3:2|0:0,0:0:0:0:
384,20,68601,1,10,0:0:0:0:
277,203,68773,5,0,3:2:0:0:
264,212,68859,1,8,0:0:0:0:
248,211,68944,1,2,3:2:0:0:
341,131,69116,1,0,3:2:0:0:
132,95,69287,6,0,P|94:110|65:114,1,50.4000006152344,10|0,0:0|0:0,0:0:0:0:
47,271,69459,2,0,P|22:264|0:254,1,50.4000006152344,0|0,3:2|0:0,0:0:0:0:
220,141,69630,6,0,P|153:193|191:290,1,191.699990347138,6|0,3:2|0:0,0:0:0:0:
260,306,69973,1,10,0:0:0:0:
272,300,70059,1,0,3:2:0:0:
282,289,70144,1,0,3:2:0:0:
192,359,70316,5,2,3:2:0:0:
385,287,70487,1,8,0:0:0:0:
386,273,70573,1,0,3:2:0:0:
382,259,70658,1,2,3:2:0:0:
335,358,70830,1,0,3:2:0:0:
305,151,71001,5,2,3:2:0:0:
512,261,71173,1,0,3:2:0:0:
300,135,71344,1,10,0:0:0:0:
403,85,71516,5,0,3:2:0:0:
411,100,71601,1,8,0:0:0:0:
410,116,71687,1,2,3:2:0:0:
318,41,71859,1,0,3:2:0:0:
460,205,72030,6,0,P|407:191|383:178,1,50.4000006152344,10|0,0:0|0:0,0:0:0:0:
258,214,72201,2,0,P|219:175|204:152,1,50.4000006152344,0|0,3:2|0:0,0:0:0:0:
135,16,72373,6,0,P|166:76|68:148,1,178.199999456177,6|0,3:2|0:0,0:0:0:0:
43,207,72716,2,0,P|24:160|10:109,1,94.499997116089,10|0,0:0|0:0,0:0:0:0:
0,278,73059,5,2,3:2:0:0:
166,381,73230,2,0,P|185:334|200:275,1,99.0000030212403,8|0,0:0|3:2,0:0:0:0:
197,287,73744,6,0,P|204:321|213:348,1,50.4000006152344,2|0,3:2|0:0,0:0:0:0:
378,211,73916,2,0,P|371:244|362:271,1,50.4000006152344,0|0,3:2|0:0,0:0:0:0:
305,358,74087,1,10,0:0:0:0:
218,172,74259,5,0,3:2:0:0:
202,166,74344,1,8,0:0:0:0:
185,168,74430,1,2,3:2:0:0:
127,235,74601,1,0,3:2:0:0:
334,252,74773,5,10,0:0:0:0:
302,165,74944,1,0,3:2:0:0:
502,96,75116,5,6,3:2:0:0:
413,170,75287,1,0,3:2:0:0:
231,27,75459,5,10,0:0:0:0:
325,110,75630,1,0,3:2:0:0:
325,110,75716,1,0,3:2:0:0:
325,110,75801,6,0,P|311:157|305:179,1,50.4000006152344,2|0,3:2|0:0,0:0:0:0:
404,326,75973,2,0,P|410:301|418:277,1,50.4000006152344,8|0,0:0|0:0,0:0:0:0:
412,187,76144,5,2,0:0:0:0:
412,187,76316,1,0,3:2:0:0:
274,347,76487,6,0,P|228:336|214:332,1,50.4000006152344,2|0,3:2|0:0,0:0:0:0:
144,309,76659,2,0,P|98:298|84:294,1,50.4000006152344,0|0,3:2|0:0,0:0:0:0:
0,144,76830,5,10,0:0:0:0:
207,104,77001,1,0,3:2:0:0:
211,121,77087,1,8,0:0:0:0:
205,135,77173,5,2,3:2:0:0:
179,241,77344,1,0,3:2:0:0:
26,370,77516,5,10,0:0:0:0:
0,229,77687,1,0,3:2:0:0:
84,305,77859,5,6,3:2:0:0:
3,45,88830,5,2,3:2:0:0:
0,65,89001,2,0,P|28:81|60:88,1,45,0|10,3:2|0:0,0:0:0:0:
107,143,89344,2,0,P|151:133|206:110,1,90,2|10,0:0|0:0,0:0:0:0:
192,116,89859,1,2,0:0:0:0:
260,168,90030,1,2,3:2:0:0:
203,293,90201,5,2,3:2:0:0:
203,293,90287,1,0,3:2:0:0:
203,293,90373,2,0,P|188:258|185:240,1,36,2|0,3:2|0:0,0:0:0:0:
278,341,90544,1,10,0:0:0:0:
120,373,90716,5,2,3:2:0:0:
120,373,90801,2,0,P|82:368|65:362,1,36,8|2,0:0|3:2,0:0:0:0:
69,197,91059,5,2,3:2:0:0:
113,264,91230,1,10,0:0:0:0:
185,239,91401,1,2,3:2:0:0:
305,339,91573,5,2,3:2:0:0:
328,347,91744,2,0,P|356:339|375:330,1,45,2|8,3:2|0:0,0:0:0:0:
451,293,92087,2,0,P|403:263|362:244,1,90,2|10,0:0|0:0,0:0:0:0:
372,248,92601,5,2,0:0:0:0:
434,190,92773,1,2,3:2:0:0:
266,158,92944,5,2,3:2:0:0:
266,158,93030,1,0,3:2:0:0:
266,158,93116,2,0,P|302:169|321:171,1,36,2|0,3:2|0:0,0:0:0:0:
236,269,93287,5,10,0:0:0:0:
229,274,93373,1,0,3:2:0:0:
222,279,93459,1,2,3:2:0:0:
215,285,93544,2,0,P|179:296|160:298,1,36,8|2,0:0|3:2,0:0:0:0:
57,225,93801,6,0,P|43:258|37:269,1,36,2|0,3:2|0:0,0:0:0:0:
154,172,93973,2,0,P|140:205|134:216,1,36,10|0,0:0|0:0,0:0:0:0:
87,90,94144,2,0,P|73:123|67:134,1,36,2|0,3:2|0:0,0:0:0:0:
235,45,94316,5,2,3:2:0:0:
216,58,94487,2,0,P|202:91|194:113,1,45,2|8,3:2|0:0,0:0:0:0:
257,168,94830,2,0,P|308:172|339:128,1,90,2|10,0:0|0:0,0:0:0:0:
333,146,95344,5,2,0:0:0:0:
417,178,95516,1,2,3:2:0:0:
510,51,95687,5,2,3:2:0:0:
510,51,95773,1,0,3:2:0:0:
510,51,95859,2,0,B|501:13|494:-11,1,36,2|0,3:2|0:0,0:0:0:0:
413,91,96030,1,10,0:0:0:0:
269,0,96201,5,2,3:2:0:0:
269,0,96287,2,0,B|269:-3|260:34,1,36,8|2,0:0|3:2,0:0:0:0:
172,182,96544,5,2,3:2:0:0:
247,122,96716,2,0,P|257:160|265:184,1,36,10|0,0:0|0:0,0:0:0:0:
158,85,96887,1,2,3:2:0:0:
97,241,97059,5,2,3:2:0:0:
85,254,97230,2,0,B|63:248|35:244,1,45,2|8,3:2|0:0,0:0:0:0:
128,328,97573,2,0,P|179:318|219:309,1,90,2|10,0:0|0:0,0:0:0:0:
216,309,98087,5,2,0:0:0:0:
301,359,98259,1,2,3:2:0:0:
424,242,98430,5,2,3:2:0:0:
424,242,98516,1,0,3:2:0:0:
424,242,98601,2,0,P|416:280|412:293,1,36,2|0,3:2|0:0,0:0:0:0:
293,276,98773,5,10,0:0:0:0:
295,266,98859,1,0,3:2:0:0:
298,257,98944,1,2,3:2:0:0:
300,247,99030,2,0,P|304:229|307:211,1,36,8|2,0:0|3:2,0:0:0:0:
376,150,99287,1,0,3:2:0:0:
226,64,99459,5,10,0:0:0:0:
191,138,99630,1,2,3:2:0:0:
225,51,99801,1,2,3:2:0:0:
451,139,110087,6,0,L|447:159,3,18,2|2|2|2,0:0|0:0|0:0|0:0,0:0:0:0:
398,61,110773,5,6,3:2:0:0:
508,238,110944,1,0,3:2:0:0:
446,311,111116,2,0,P|393:325|333:341,1,106.199996272888,10|0,0:0|0:0,0:0:0:0:
271,310,111373,5,0,3:2:0:0:
271,310,111459,1,2,3:2:0:0:
387,160,111630,5,8,0:0:0:0:
313,193,111801,1,2,0:0:0:0:
252,136,111973,1,0,3:2:0:0:
387,160,112144,6,0,P|392:191|401:243,1,53.0999981364442,2|0,3:2|0:0,0:0:0:0:
239,75,112316,2,0,P|234:106|225:158,1,53.0999981364442,0|0,3:2|0:0,0:0:0:0:
352,45,112487,1,10,0:0:0:0:
245,251,112659,5,0,3:2:0:0:
232,261,112744,1,8,0:0:0:0:
216,263,112830,1,2,3:2:0:0:
306,185,113001,1,0,3:2:0:0:
108,79,113173,6,0,P|69:96|47:99,1,53.0999981364442,10|0,0:0|0:0,0:0:0:0:
0,241,113344,2,0,P|25:247|49:259,1,53.0999981364442,0|0,3:2|0:0,0:0:0:0:
255,131,113516,6,0,P|154:149|56:183,1,199.80000487793,6|0,3:2|0:0,0:0:0:0:
131,243,113859,2,0,P|159:268|147:333,1,106.199996272888,10|0,0:0|0:0,0:0:0:0:
120,357,114116,1,0,3:2:0:0:
120,357,114201,1,2,3:2:0:0:
221,191,114373,5,8,0:0:0:0:
232,205,114459,1,0,3:2:0:0:
238,219,114544,1,2,3:2:0:0:
232,320,114716,1,0,3:2:0:0:
446,376,114887,6,0,P|437:340|428:306,1,53.0999981364442,2|0,3:2|0:0,0:0:0:0:
389,123,115059,2,0,P|382:148|375:174,1,53.0999981364442,0|0,3:2|0:0,0:0:0:0:
429,373,115230,1,10,0:0:0:0:
500,162,115401,5,0,3:2:0:0:
500,180,115487,1,8,0:0:0:0:
490,192,115573,1,2,3:2:0:0:
285,279,115744,1,0,3:2:0:0:
356,319,115916,6,0,P|366:281|360:251,1,53.0999981364442,10|0,0:0|0:0,0:0:0:0:
164,283,116087,2,0,P|154:245|160:215,1,53.0999981364442,0|0,3:2|0:0,0:0:0:0:
279,374,116259,6,0,P|270:296|255:169,1,199.80000487793,6|0,3:2|0:0,0:0:0:0:
319,105,116601,2,0,B|293:76|262:84|262:84|288:87|308:108,1,106.199996272888,10|0,0:0|0:0,0:0:0:0:
338,190,116944,5,2,3:2:0:0:
118,152,117116,2,0,B|142:126|173:134|173:134|147:137|127:158,1,99.0000030212403,8|0,0:0|3:2,0:0:0:0:
138,147,117630,6,0,P|110:143|79:137,1,53.0999981364442,2|0,3:2|0:0,0:0:0:0:
143,314,117801,2,0,P|125:336|104:360,1,53.0999981364442,0|0,3:2|0:0,0:0:0:0:
204,222,117973,1,10,0:0:0:0:
376,361,118144,5,0,3:2:0:0:
390,352,118230,1,8,0:0:0:0:
397,337,118316,1,2,3:2:0:0:
287,366,118487,1,0,3:2:0:0:
407,196,118659,5,10,0:0:0:0:
512,226,118830,1,0,3:2:0:0:
341,83,119001,5,6,3:2:0:0:
288,217,119173,1,0,3:2:0:0:
108,86,119344,5,10,0:0:0:0:
155,205,119516,2,0,P|151:233|145:265,1,53.0999981364442
56,183,119687,5,2,3:2:0:0:
273,130,119859,2,0,P|245:134|213:140,1,53.0999981364442,8|0,0:0|0:0,0:0:0:0:
39,171,120030,5,2,0:0:0:0:
39,171,120201,1,0,3:2:0:0:
170,13,120373,6,0,P|166:41|160:73,1,53.0999981364442,2|0,3:2|0:0,0:0:0:0:
148,155,120544,2,0,P|144:183|138:215,1,53.0999981364442,0|0,3:2|0:0,0:0:0:0:
50,376,120716,1,10,0:0:0:0:
267,330,120887,5,0,3:2:0:0:
265,315,120973,1,8,0:0:0:0:
254,306,121059,1,2,3:2:0:0:
156,326,121230,1,0,3:2:0:0:
374,369,121401,5,10,0:0:0:0:
504,327,121573,1,0,3:2:0:0:
315,208,121744,5,6,3:2:0:0:
489,347,121916,1,0,3:2:0:0:
510,242,122087,2,0,P|451:261|403:275,1,106.199996272888,10|0,0:0|0:0,0:0:0:0:
374,270,122344,5,0,3:2:0:0:
374,270,122430,1,2,3:2:0:0:
431,54,122601,5,8,0:0:0:0:
385,116,122773,1,2,0:0:0:0:
397,192,122944,1,0,3:2:0:0:
431,54,123116,6,0,P|459:65|493:71,1,53.0999981364442,2|0,3:2|0:0,0:0:0:0:
236,142,123287,2,0,P|261:136|286:126,1,53.0999981364442,0|0,3:2|0:0,0:0:0:0:
327,11,123459,1,10,0:0:0:0:
348,222,123630,5,0,3:2:0:0:
364,217,123716,1,8,0:0:0:0:
374,203,123801,1,2,3:2:0:0:
294,111,123973,1,0,3:2:0:0:
190,287,124144,6,0,P|205:321|220:345,1,53.0999981364442,10|0,0:0|0:0,0:0:0:0:
39,264,124316,2,0,P|51:240|62:216,1,53.0999981364442,0|0,3:2|0:0,0:0:0:0:
57,63,124487,6,0,P|84:122|213:123,1,199.80000487793,6|0,3:2|0:0,0:0:0:0:
245,51,124830,1,10,0:0:0:0:
237,38,124916,1,0,3:2:0:0:
224,31,125001,1,0,3:2:0:0:
146,67,125173,1,2,3:2:0:0:
355,140,125344,5,8,0:0:0:0:
362,126,125430,1,0,3:2:0:0:
362,112,125515,1,2,3:2:0:0:
337,28,125687,1,0,3:2:0:0:
236,219,125859,6,0,P|280:210|298:205,1,53.0999981364442,2|0,3:2|0:0,0:0:0:0:
501,147,126030,2,0,P|457:156|439:161,1,53.0999981364442,0|0,3:2|0:0,0:0:0:0:
227,211,126201,1,10,0:0:0:0:
416,337,126373,5,0,3:2:0:0:
425,324,126459,1,8,0:0:0:0:
425,309,126544,1,2,3:2:0:0:
204,369,126716,1,0,3:2:0:0:
161,300,126887,6,0,P|185:295|211:277,1,53.0999981364442,10|0,0:0|0:0,0:0:0:0:
84,157,127059,2,0,P|105:142|131:136,1,53.0999981364442,0|0,3:2|0:0,0:0:0:0:
35,293,127230,6,0,B|160:267|73:208|227:190,1,199.80000487793,6|0,3:2|0:0,0:0:0:0:
254,120,127573,2,0,B|283:146|275:177|275:177|272:151|251:131,1,106.199996272888,10|0,0:0|0:0,0:0:0:0:
196,64,127916,5,2,3:2:0:0:
334,256,128087,2,0,B|363:230|355:199|355:199|352:225|329:243,1,99.0000030212403,8|0,0:0|3:2,0:0:0:0:
341,230,128601,6,0,P|367:225|392:217,1,53.0999981364442,2|0,3:2|0:0,0:0:0:0:
461,53,128773,2,0,P|487:57|512:65,1,53.0999981364442,0|0,3:2|0:0,0:0:0:0:
351,86,128944,1,10,0:0:0:0:
471,274,129116,5,0,3:2:0:0:
481,262,129202,1,8,0:0:0:0:
485,247,129287,1,2,3:2:0:0:
442,149,129459,1,0,3:2:0:0:
263,254,129630,5,10,0:0:0:0:
300,358,129801,1,0,3:2:0:0:
279,135,129973,5,6,3:2:0:0:
162,243,130144,1,0,3:2:0:0:
57,45,130316,5,10,0:0:0:0:
175,150,130487,2,0,P|188:112|195:88,1,53.0999981364442
269,45,130659,5,2,3:2:0:0:
62,127,130830,2,0,P|69:152|78:177,1,53.0999981364442,8|0,0:0|0:0,0:0:0:0:
202,322,131001,5,2,0:0:0:0:
202,322,131173,1,0,3:2:0:0:
373,179,131344,6,0,P|316:193|299:198,1,53.0999981364442,2|0,3:2|0:0,0:0:0:0:
240,212,131516,2,0,P|183:226|166:231,1,53.0999981364442,0|0,3:2|0:0,0:0:0:0:
25,331,131687,1,10,0:0:0:0:
121,129,131859,5,0,3:2:0:0:
134,141,131944,1,8,0:0:0:0:
139,156,132030,1,2,3:2:0:0:
56,252,132201,1,0,3:2:0:0:
272,341,132373,5,10,0:0:0:0:
177,246,132544,1,0,3:2:0:0:
113,357,132716,6,0,P|126:325|181:319,1,94.499997116089,4|0,3:2|3:2,0:0:0:0:
75,144,133059,2,0,P|105:210|209:222,1,141.749995674133,8|0,0:0|0:0,0:0:0:0:
221,187,133401,5,0,3:2:0:0:
294,343,133573,2,0,P|258:315|255:263,1,99.0000030212403,8|0,0:0|3:2,0:0:0:0:
295,185,134087,5,0,3:2:0:0:
351,244,134259,1,0,3:2:0:0:
433,330,134430,5,8,0:0:0:0:
504,299,134601,1,0,3:2:0:0:
504,299,134687,1,8,0:0:0:0:
504,299,134773,1,0,3:2:0:0:
499,221,134944,1,0,3:2:0:0:
372,137,135116,5,8,0:0:0:0:
417,204,135287,1,0,3:2:0:0:
503,65,135459,6,0,L|515:9,1,47.2499985580445,6|0,3:2|0:0,0:0:0:0:
360,131,135630,2,0,L|350:177,1,47.2499985580445,0|0,3:2|0:0,0:0:0:0:
241,13,135801,2,0,P|230:88|216:190,1,141.749995674133,10|0,0:0|0:0,0:0:0:0:
256,219,136144,5,2,3:2:0:0:
112,330,136316,2,0,B|83:289|83:289|104:245,1,94.499997116089,8|2,0:0|0:0,0:0:0:0:
276,298,136659,1,0,3:2:0:0:
340,237,136830,5,2,3:2:0:0:
194,292,137001,1,0,3:2:0:0:
330,366,137173,1,10,0:0:0:0:
246,220,137344,6,0,L|234:160,2,47.2499985580445,0|8|2,3:2|0:0|3:2,0:0:0:0:
285,285,137687,1,0,3:2:0:0:
435,199,137859,1,8,0:0:0:0:
500,235,138030,1,0,3:2:0:0:
405,112,138201,6,0,P|364:117|300:137,1,94.499997116089,4|0,3:2|3:2,0:0:0:0:
118,242,138544,2,0,P|121:180|225:160,1,141.749995674133,8|0,0:0|0:0,0:0:0:0:
231,82,138887,5,0,3:2:0:0:
338,230,139059,2,0,P|293:198|251:180,1,99.0000030212403,8|0,0:0|3:2,0:0:0:0:
188,223,139573,5,0,3:2:0:0:
246,287,139744,1,0,3:2:0:0:
104,352,139916,5,8,0:0:0:0:
102,268,140087,1,0,3:2:0:0:
102,268,140173,1,8,0:0:0:0:
102,268,140259,1,0,3:2:0:0:
178,316,140430,1,0,3:2:0:0:
77,178,140601,5,8,0:0:0:0:
18,252,140773,1,0,3:2:0:0:
137,129,140944,6,0,P|158:141|173:165,1,47.2499985580445,6|0,3:2|0:0,0:0:0:0:
58,29,141116,2,0,P|44:48|23:59,1,47.2499985580445,0|0,3:2|0:0,0:0:0:0:
181,57,141287,2,0,P|108:96|34:162,1,141.749995674133,10|0,0:0|0:0,0:0:0:0:
28,203,141630,1,2,3:2:0:0:
186,329,141801,2,0,P|214:294|196:242,1,94.499997116089,8|2,0:0|0:0,0:0:0:0:
234,181,142144,5,0,3:2:0:0:
373,279,142316,1,2,3:2:0:0:
422,218,142487,1,0,3:2:0:0:
297,273,142659,1,10,0:0:0:0:
448,350,142830,5,0,3:2:0:0:
448,350,142916,1,8,0:0:0:0:
448,350,143001,1,2,3:2:0:0:
362,369,143173,1,0,3:2:0:0:
484,238,143344,5,8,3:3:0:0:
490,191,143430,1,8,3:3:0:0:
464,151,143516,1,4,3:3:0:0:
417,142,143601,1,4,3:3:0:0:
372,158,143687,1,2,3:2:0:0:
