osu file format v14

[General]
AudioFilename: audio.mp3
AudioLeadIn: 0
PreviewTime: 88807
Countdown: 0
SampleSet: Soft
StackLeniency: 0.7
Mode: 0
LetterboxInBreaks: 0
WidescreenStoryboard: 1

[Editor]
DistanceSpacing: 2.1
BeatDivisor: 4
GridSize: 32
TimelineZoom: 1.4

[Metadata]
Title:risuyu krov'yu
TitleUnicode:рисую кровью
Artist:bilbordy
ArtistUnicode:билборды
Creator:nemidnight
Version:paradoxa's insane
Source:
Tags:mocaotic namki paradoxa parad0xa i draw with blood russian rock alternative emo punk billboards billboards21 русский рок эмо панк альтернатива
BeatmapID:3705203
BeatmapSetID:1780595

[Difficulty]
HPDrainRate:5
CircleSize:3.8
OverallDifficulty:7.5
ApproachRate:9
SliderMultiplier:1.65
SliderTickRate:1

[Events]
//Background and Video events
0,0,"tears.jpg",0,0
//Break Periods
2,78059,88230
2,100001,110173
//Storyboard Layer 0 (Background)
//Storyboard Layer 1 (Fail)
//Storyboard Layer 2 (Pass)
//Storyboard Layer 3 (Foreground)
//Storyboard Layer 4 (Overlay)
//Storyboard Sound Samples

[TimingPoints]
1059,342.857142857143,4,2,1,62,1,0
1059,-125,4,2,1,62,0,0
10659,-125,4,2,2,46,0,0
11944,-125,4,2,2,5,0,0
12030,-90.9090909090909,4,2,1,90,0,1
22916,-90.9090909090909,4,2,1,90,0,0
23001,-90.9090909090909,4,2,1,90,0,1
33973,-111.111111111111,4,2,1,62,0,0
44944,-111.111111111111,4,2,1,70,0,0
54544,-111.111111111111,4,2,1,70,0,0
55830,-111.111111111111,4,2,1,70,0,0
55916,-90.9090909090909,4,2,1,90,0,1
66801,-90.9090909090909,4,2,1,90,0,0
66887,-90.9090909090909,4,2,1,90,0,1
77859,-125,4,2,1,62,0,0
88830,-111.111111111111,4,2,1,62,0,0
99801,-142.857142857143,4,2,1,62,0,0
110773,-90.9090909090909,4,2,1,90,0,1
121659,-90.9090909090909,4,2,1,90,0,0
121744,-90.9090909090909,4,2,1,90,0,1
132716,-90.9090909090909,4,2,1,90,0,0
143687,-142.857142857143,4,2,1,90,0,0

[Colours]
Combo1 : 117,103,81
Combo2 : 177,171,163

[HitObjects]
457,22,1059,6,0,P|449:56|441:93,1,66,2|0,3:2|3:2,0:0:0:0:
317,159,1401,2,0,P|344:131|376:128,1,66,10|0,0:0|0:0,0:0:0:0:
470,164,1744,1,2,3:2:0:0:
470,164,1916,2,0,B|397:191|439:211|359:245,1,132,8|0,0:0|3:2,0:0:0:0:
234,279,2430,6,0,P|265:271|287:247,1,66,2|0,3:2|3:2,0:0:0:0:
173,152,2773,2,0,P|163:183|173:213,1,66,10|0,0:0|3:2,0:0:0:0:
183,221,3030,1,8,0:0:0:0:
183,221,3116,1,2,3:2:0:0:
247,116,3287,1,0,3:2:0:0:
182,64,3459,2,0,P|175:31|168:0,1,66,10|0,0:0|3:2,0:0:0:0:
55,83,3801,6,0,P|77:107|109:115,1,66,2|0,3:2|3:2,0:0:0:0:
173,204,4144,2,0,P|138:211|101:219,1,66,10|0,0:0|0:0,0:0:0:0:
42,309,4487,1,2,3:2:0:0:
42,309,4659,2,0,B|59:284|85:260|85:260|55:238|30:206,1,132,8|0,0:0|3:2,0:0:0:0:
64,112,5173,6,0,P|57:79|50:47,1,66,2|0,3:2|3:2,0:0:0:0:
163,122,5516,2,0,P|155:153|131:175,1,66,10|0,0:0|3:2,0:0:0:0:
120,179,5773,1,8,0:0:0:0:
120,179,5859,1,2,3:2:0:0:
224,205,6030,1,0,3:2:0:0:
278,153,6201,2,0,P|310:146|342:139,1,66,10|0,0:0|3:2,0:0:0:0:
327,304,6544,6,0,P|302:282|295:250,1,66,2|0,3:2|3:2,0:0:0:0:
404,307,6887,2,0,P|397:339|390:371,1,66,10|0,0:0|0:0,0:0:0:0:
370,221,7230,1,2,3:2:0:0:
370,221,7401,2,0,P|416:222|462:153,1,132,8|0,0:0|3:2,0:0:0:0:
391,38,7916,6,0,P|397:70|404:102,1,66,2|0,3:2|3:2,0:0:0:0:
262,45,8259,2,0,P|293:37|315:13,1,66,10|0,0:0|3:2,0:0:0:0:
316,1,8516,1,8,0:0:0:0:
316,1,8602,1,2,3:2:0:0:
179,54,8773,1,0,3:2:0:0:
233,121,8944,2,0,P|226:153|219:185,1,66,10|0,0:0|3:2,0:0:0:0:
90,270,9287,6,0,P|111:245|143:238,1,66,2|0,3:2|3:2,0:0:0:0:
241,321,9630,2,0,P|208:314|176:307,1,66,10|0,0:0|0:0,0:0:0:0:
300,261,9973,1,2,3:2:0:0:
300,261,10144,2,0,B|368:236|335:208|421:181,1,132,8|0,0:0|3:2,0:0:0:0:
256,192,10659,12,0,11944,0:0:0:0:
100,17,12030,6,0,B|68:46|28:68|28:68|61:100|96:144,1,181.500005538941,6|10,3:2|0:0,0:0:0:0:
149,200,12544,1,0,0:0:0:0:
64,250,12716,1,2,3:2:0:0:
229,355,12887,1,8,0:0:0:0:
294,289,13059,2,0,P|338:279|384:269,1,90.7500027694703,2|0,0:0|3:2,0:0:0:0:
204,101,13401,6,0,P|208:145|242:173,1,90.7500027694703,2|0,3:2|3:2,0:0:0:0:
329,45,13744,2,0,P|362:73|367:117,1,90.7500027694703,10|0,0:0|3:2,0:0:0:0:
361,131,14001,1,8,0:0:0:0:
352,139,14087,1,2,3:2:0:0:
492,275,14259,1,0,3:2:0:0:
433,376,14430,2,0,P|422:331|414:287,1,90.7500027694703,10|0,0:0|3:2,0:0:0:0:
500,127,14773,6,0,B|392:154|463:192|353:225,1,181.500005538941,6|10,3:2|0:0,0:0:0:0:
291,283,15287,1,0,0:0:0:0:
206,345,15459,1,2,3:2:0:0:
89,171,15630,1,8,0:0:0:0:
164,212,15801,2,0,B|136:248|136:248|82:258,1,90.7500027694703,2|0,0:0|3:2,0:0:0:0:
180,0,16144,6,0,P|170:44|160:90,1,90.7500027694703,2|0,3:2|3:2,0:0:0:0:
322,113,16487,2,0,P|330:68|340:24,1,90.7500027694703,10|0,0:0|3:2,0:0:0:0:
344,12,16744,1,8,0:0:0:0:
351,3,16830,1,2,3:2:0:0:
238,185,17001,1,0,3:2:0:0:
282,269,17173,2,0,P|317:242|325:199,1,90.7500027694703,10|0,0:0|3:2,0:0:0:0:
161,88,17516,6,0,B|67:121|141:174|30:215,1,181.500005538941,6|10,3:2|0:0,0:0:0:0:
0,288,18030,1,0,0:0:0:0:
63,352,18201,1,2,3:2:0:0:
238,185,18373,1,8,0:0:0:0:
174,248,18544,2,0,P|183:293|192:336,1,90.7500027694703,2|0,0:0|3:2,0:0:0:0:
418,190,18887,6,0,B|388:153|388:153|336:146,1,90.7500027694703,2|0,3:2|3:2,0:0:0:0:
347,313,19230,2,0,B|303:307|303:307|274:270,1,90.7500027694703,10|0,0:0|3:2,0:0:0:0:
272,260,19487,1,8,0:0:0:0:
270,248,19573,1,2,3:2:0:0:
430,367,19744,1,0,3:2:0:0:
494,258,19916,2,0,P|503:303|512:346,1,90.7500027694703,10|0,0:0|3:2,0:0:0:0:
418,190,20259,6,0,B|386:158|356:135|356:135|394:104|431:62,1,181.500005538941,6|10,3:2|0:0,0:0:0:0:
483,0,20773,1,0,0:0:0:0:
511,98,20944,1,2,3:2:0:0:
277,169,21116,1,8,0:0:0:0:
283,72,21287,2,0,P|327:76|355:110,1,90.7500027694703,2|0,0:0|3:2,0:0:0:0:
209,327,21630,6,0,P|172:301|165:257,1,90.7500027694703,2|0,3:2|3:2,0:0:0:0:
339,246,21973,2,0,P|331:202|295:176,1,90.7500027694703,10|0,0:0|3:2,0:0:0:0:
285,171,22230,1,8,0:0:0:0:
277,169,22316,1,2,3:2:0:0:
200,338,22487,1,0,3:2:0:0:
77,277,22659,2,0,P|121:267|167:257,1,90.7500027694703,10|0,0:0|3:2,0:0:0:0:
283,72,23001,6,0,B|257:78|231:82|231:82|213:122|213:122|167:131|119:142,1,181.500005538941,6|10,3:2|0:0,0:0:0:0:
56,97,23516,1,0,0:0:0:0:
96,10,23687,1,2,3:2:0:0:
233,148,23859,1,8,0:0:0:0:
229,236,24030,2,0,P|185:228|159:192,1,90.7500027694703,2|0,0:0|3:2,0:0:0:0:
351,15,24373,6,0,P|360:59|370:103,1,90.7500027694703,2|0,3:2|3:2,0:0:0:0:
198,43,24716,2,0,P|207:87|217:131,1,90.7500027694703,10|0,0:0|3:2,0:0:0:0:
225,143,24973,1,8,0:0:0:0:
233,148,25059,1,2,3:2:0:0:
403,256,25230,1,0,3:2:0:0:
360,335,25401,2,0,P|323:309|316:265,1,90.7500027694703,10|0,0:0|3:2,0:0:0:0:
464,96,25744,6,0,B|366:120|418:153|301:184,1,181.500005538941,6|10,3:2|0:0,0:0:0:0:
225,143,26259,1,0,0:0:0:0:
142,212,26430,1,2,3:2:0:0:
360,335,26601,1,8,0:0:0:0:
274,265,26773,2,0,P|229:275|185:284,1,90.7500027694703,2|0,0:0|3:2,0:0:0:0:
0,117,27116,6,0,P|4:161|38:189,1,90.7500027694703,2|0,3:2|3:2,0:0:0:0:
126,33,27459,2,0,P|159:61|164:105,1,90.7500027694703,10|0,0:0|3:2,0:0:0:0:
161,120,27716,1,8,0:0:0:0:
151,131,27801,1,2,3:2:0:0:
289,0,27973,1,0,3:2:0:0:
390,62,28144,2,0,P|345:72|301:81,1,90.7500027694703,10|0,0:0|3:2,0:0:0:0:
142,212,28487,6,0,B|266:238|266:238|203:261,1,181.500005538941,6|10,3:2|0:0,0:0:0:0:
159,323,29001,1,0,0:0:0:0:
76,363,29173,1,2,3:2:0:0:
266,238,29344,1,8,0:0:0:0:
272,146,29516,2,0,P|262:101|252:57,1,90.7500027694703,2|0,0:0|3:2,0:0:0:0:
427,243,29859,6,0,B|384:237|384:237|354:200,1,90.7500027694703,2|0,3:2|3:2,0:0:0:0:
509,101,30201,2,0,B|479:64|479:64|436:58,1,90.7500027694703,10|0,0:0|3:2,0:0:0:0:
423,60,30459,1,8,0:0:0:0:
413,66,30544,1,2,3:2:0:0:
512,239,30716,1,0,3:2:0:0:
407,331,30887,2,0,P|417:287|427:241,1,90.7500027694703,10|0,0:0|3:2,0:0:0:0:
252,57,31230,6,0,B|214:91|178:110|178:110|214:141|246:179,1,181.500005538941,6|10,3:2|0:0,0:0:0:0:
301,237,31744,1,0,0:0:0:0:
226,301,31916,1,2,3:2:0:0:
42,158,32087,1,8,0:0:0:0:
134,190,32259,2,0,P|124:234|114:278,1,90.7500027694703,2|0,0:0|3:2,0:0:0:0:
341,69,32601,6,0,P|333:25|297:-1,1,90.7500027694703,2|0,3:2|3:2,0:0:0:0:
211,139,32944,2,0,P|175:112|167:69,1,90.7500027694703,10|0,0:0|3:2,0:0:0:0:
169,55,33201,1,8,0:0:0:0:
173,43,33287,1,2,3:2:0:0:
21,240,33459,1,0,3:2:0:0:
134,190,33630,2,0,P|124:234|114:278,1,90.7500027694703,10|0,0:0|3:2,0:0:0:0:
316,376,33973,6,0,B|336:342|322:301|270:288|270:288|284:309|285:326,1,148.49999546814,2|10,3:2|0:0,0:0:0:0:
247,179,34487,2,0,P|264:259|282:338,1,148.49999546814,2|10,0:0|0:0,0:0:0:0:
342,183,35001,1,2,0:0:0:0:
220,111,35173,1,2,3:2:0:0:
313,15,35344,6,0,P|338:43|339:81,1,74.2499977340699,2|2,3:2|3:2,0:0:0:0:
217,121,35687,2,0,P|192:93|191:55,1,74.2499977340699,10|2,0:0|3:2,0:0:0:0:
192,45,35944,1,8,0:0:0:0:
192,45,36030,1,2,3:2:0:0:
127,175,36201,1,2,3:2:0:0:
79,113,36373,2,0,P|35:103|-8:93,1,74.2499977340699,10|2,0:0|3:2,0:0:0:0:
127,175,36716,5,2,3:2:0:0:
148,250,36888,2,0,P|157:215|142:182,1,74.2499977340699,2|8,3:2|0:0,0:0:0:0:
70,310,37230,2,0,B|152:326|112:364|202:381,1,148.49999546814,2|10,0:0|0:0,0:0:0:0:
332,245,37744,1,2,0:0:0:0:
221,296,37916,1,2,3:2:0:0:
372,318,38087,6,0,P|369:281|345:254,1,74.2499977340699,2|2,3:2|3:2,0:0:0:0:
455,205,38430,2,0,P|457:241|481:268,1,74.2499977340699,10|2,0:0|3:2,0:0:0:0:
489,275,38687,1,8,0:0:0:0:
489,275,38773,1,2,3:2:0:0:
366,161,38944,1,2,3:2:0:0:
428,102,39116,2,0,P|435:65|444:29,1,74.2499977340699,10|2,0:0|3:2,0:0:0:0:
258,92,39459,5,2,3:2:0:0:
283,174,39630,2,0,P|319:167|355:158,1,74.2499977340699,2|8,3:2|0:0,0:0:0:0:
178,123,39973,2,0,B|108:155|145:173|55:209,1,148.49999546814,2|10,0:0|0:0,0:0:0:0:
264,277,40487,1,2,0:0:0:0:
200,204,40659,1,2,3:2:0:0:
144,309,40830,6,0,P|116:334|78:335,1,74.2499977340699,2|2,3:2|3:2,0:0:0:0:
38,213,41173,2,0,P|66:188|104:187,1,74.2499977340699,10|2,0:0|3:2,0:0:0:0:
114,188,41430,1,8,0:0:0:0:
114,188,41516,1,2,3:2:0:0:
264,277,41687,1,2,3:2:0:0:
200,204,41859,2,0,P|207:167|216:131,1,74.2499977340699,10|2,0:0|3:2,0:0:0:0:
344,38,42201,5,2,3:2:0:0:
327,122,42373,2,0,P|329:159|354:186,1,74.2499977340699,2|8,3:2|0:0,0:0:0:0:
425,0,42716,2,0,P|439:72|453:144,1,148.49999546814,2|10,0:0|0:0,0:0:0:0:
338,252,43230,2,0,P|340:216|365:190,1,74.2499977340699,2|2,3:2|3:2,0:0:0:0:
461,234,43573,5,2,3:2:0:0:
328,123,43744,1,2,0:0:0:0:
436,310,43916,2,0,P|461:282|462:244,1,74.2499977340699,10|2,0:0|3:2,0:0:0:0:
461,234,44173,1,8,0:0:0:0:
461,234,44259,1,2,3:2:0:0:
353,360,44430,1,0,3:2:0:0:
277,276,44601,1,10,3:3:0:0:
277,276,44687,1,8,3:3:0:0:
277,276,44773,2,0,L|322:265,1,37.1249988670349,4|4,3:3|3:3,0:0:0:0:
202,296,44944,5,2,3:2:0:0:
147,358,45116,2,0,P|122:331|120:294,1,74.2499977340699,2|10,3:2|0:0,0:0:0:0:
218,148,45459,2,0,P|210:220|201:301,1,148.49999546814,2|10,0:0|0:0,0:0:0:0:
132,182,45973,1,2,0:0:0:0:
293,114,46144,1,2,3:2:0:0:
163,39,46316,6,0,P|138:65|136:102,1,74.2499977340699,2|2,3:2|3:2,0:0:0:0:
268,38,46659,2,0,P|293:66|294:104,1,74.2499977340699,10|2,0:0|3:2,0:0:0:0:
293,114,46916,1,8,0:0:0:0:
293,114,47002,1,2,3:2:0:0:
132,182,47173,1,2,3:2:0:0:
72,112,47344,2,0,P|28:102|-15:92,1,74.2499977340699,10|2,0:0|3:2,0:0:0:0:
94,260,47687,5,2,3:2:0:0:
132,182,47859,2,0,P|176:172|219:162,1,74.2499977340699,2|8,3:2|0:0,0:0:0:0:
333,332,48201,2,0,P|291:327|248:240,1,148.49999546814,2|10,0:0|0:0,0:0:0:0:
421,155,48716,1,2,0:0:0:0:
335,246,48887,1,2,3:2:0:0:
482,320,49059,6,0,P|473:283|465:247,1,74.2499977340699,2|2,3:2|3:2,0:0:0:0:
349,334,49401,2,0,P|340:297|332:261,1,74.2499977340699,10|2,0:0|3:2,0:0:0:0:
335,246,49659,1,8,0:0:0:0:
335,246,49744,1,2,3:2:0:0:
355,83,49916,1,2,3:2:0:0:
420,154,50087,2,0,P|457:152|484:128,1,74.2499977340699,10|2,0:0|3:2,0:0:0:0:
293,17,50430,5,2,3:2:0:0:
355,83,50601,2,0,P|346:119|338:155,1,74.2499977340699,2|8,3:2|0:0,0:0:0:0:
207,255,50944,2,0,P|195:229|262:136,1,148.49999546814,2|10,0:0|0:0,0:0:0:0:
370,294,51459,1,2,0:0:0:0:
280,218,51630,1,2,3:2:0:0:
232,358,51801,6,0,P|204:383|166:384,1,74.2499977340699,2|2,3:2|3:2,0:0:0:0:
131,268,52144,2,0,P|159:243|197:242,1,74.2499977340699,10|2,0:0|3:2,0:0:0:0:
207,255,52401,1,8,0:0:0:0:
207,255,52487,1,2,3:2:0:0:
83,347,52659,1,2,3:2:0:0:
16,284,52830,2,0,P|7:247|0:211,1,74.2499977340699,10|2,0:0|3:2,0:0:0:0:
207,255,53173,5,2,3:2:0:0:
274,192,53344,2,0,P|282:155|290:119,1,74.2499977340699,2|8,3:2|0:0,0:0:0:0:
204,11,53687,2,0,B|176:37|146:53|146:53|180:76|208:115,1,148.49999546814,2|10,0:0|0:0,0:0:0:0:
363,26,54201,1,2,0:0:0:0:
290,119,54373,1,2,3:2:0:0:
256,192,54544,12,0,55830,3:3:0:0:
403,225,55916,6,0,B|447:248|507:251|507:251|515:304|461:313,1,181.500005538941,6|10,3:2|0:0,0:0:0:0:
415,373,56430,1,0,0:0:0:0:
330,323,56602,1,2,3:2:0:0:
177,239,56773,1,8,0:0:0:0:
242,173,56945,2,0,P|286:163|332:153,1,90.7500027694703,2|0,0:0|3:2,0:0:0:0:
215,311,57287,6,0,P|211:267|177:239,1,90.7500027694703,2|0,3:2|3:2,0:0:0:0:
90,367,57630,2,0,P|57:339|52:295,1,90.7500027694703,10|0,0:0|3:2,0:0:0:0:
58,281,57887,1,8,0:0:0:0:
67,273,57973,1,2,3:2:0:0:
0,85,58145,1,0,3:2:0:0:
136,157,58316,2,0,P|91:168|47:176,1,90.7500027694703,10|0,0:0|3:2,0:0:0:0:
171,2,58659,6,0,B|277:22|217:78|313:110,1,181.500005538941,6|10,3:2|0:0,0:0:0:0:
392,133,59173,1,0,0:0:0:0:
307,195,59345,1,2,3:2:0:0:
479,280,59516,1,8,0:0:0:0:
438,355,59687,2,0,B|402:327|402:327|392:273,1,90.7500027694703,2|0,0:0|3:2,0:0:0:0:
246,87,60030,6,0,P|236:131|226:177,1,90.7500027694703,2|0,3:2|3:2,0:0:0:0:
388,200,60373,2,0,P|396:155|406:111,1,90.7500027694703,10|0,0:0|3:2,0:0:0:0:
410,99,60630,1,8,0:0:0:0:
417,90,60716,1,2,3:2:0:0:
220,181,60887,1,0,3:2:0:0:
264,265,61059,2,0,P|299:238|307:195,1,90.7500027694703,10|0,0:0|3:2,0:0:0:0:
140,0,61401,6,0,B|108:36|80:52|80:52|127:88|157:127,1,181.500005538941,6|10,3:2|0:0,0:0:0:0:
220,181,61916,1,0,0:0:0:0:
156,244,62087,1,2,3:2:0:0:
0,384,62259,1,8,0:0:0:0:
64,321,62430,2,0,P|55:276|46:233,1,90.7500027694703,2|0,0:0|3:2,0:0:0:0:
304,186,62773,6,0,B|274:149|274:149|222:142,1,90.7500027694703,2|0,3:2|3:2,0:0:0:0:
233,309,63116,2,0,B|189:303|189:303|160:266,1,90.7500027694703,10|0,0:0|3:2,0:0:0:0:
158,256,63373,1,8,0:0:0:0:
156,244,63459,1,2,3:2:0:0:
302,379,63630,1,0,3:2:0:0:
366,270,63802,2,0,P|375:315|384:358,1,90.7500027694703,10|0,0:0|3:2,0:0:0:0:
471,180,64144,6,0,B|436:167|369:161|369:161|346:117|409:93,1,181.500005538941,6|10,3:2|0:0,0:0:0:0:
473,61,64659,1,0,0:0:0:0:
373,0,64830,1,2,3:2:0:0:
274,169,65002,1,8,0:0:0:0:
331,232,65173,2,0,P|365:203|369:159,1,90.7500027694703,2|0,0:0|3:2,0:0:0:0:
156,56,65516,6,0,P|160:100|194:128,1,90.7500027694703,2|0,3:2|3:2,0:0:0:0:
281,0,65859,2,0,P|314:28|319:72,1,90.7500027694703,10|0,0:0|3:2,0:0:0:0:
313,86,66116,1,8,0:0:0:0:
304,94,66202,1,2,3:2:0:0:
178,281,66373,1,0,3:2:0:0:
55,220,66545,2,0,P|99:210|145:200,1,90.7500027694703,10|0,0:0|3:2,0:0:0:0:
334,364,66887,6,0,B|242:346|288:293|153:277,1,181.500005538941,6|10,3:2|0:0,0:0:0:0:
123,362,67402,1,0,0:0:0:0:
66,303,67573,1,2,3:2:0:0:
258,211,67745,1,8,0:0:0:0:
324,272,67916,2,0,P|368:264|394:228,1,90.7500027694703,2|0,0:0|3:2,0:0:0:0:
211,9,68259,6,0,P|202:53|192:97,1,90.7500027694703,2|0,3:2|3:2,0:0:0:0:
364,37,68602,2,0,P|355:81|345:125,1,90.7500027694703,10|0,0:0|3:2,0:0:0:0:
337,137,68859,1,8,0:0:0:0:
329,142,68945,1,2,3:2:0:0:
211,303,69116,1,0,3:2:0:0:
302,279,69287,2,0,P|294:235|257:210,1,90.7500027694703,10|0,0:0|3:2,0:0:0:0:
449,384,69630,6,0,P|469:295|487:206,1,181.500005538941,6|10,3:2|0:0,0:0:0:0:
453,122,70145,1,0,0:0:0:0:
387,210,70316,1,2,3:2:0:0:
206,0,70487,1,8,0:0:0:0:
292,70,70659,2,0,P|337:60|381:51,1,90.7500027694703,2|0,0:0|3:2,0:0:0:0:
236,224,71001,6,0,P|240:180|274:152,1,90.7500027694703,2|0,3:2|3:2,0:0:0:0:
362,308,71345,2,0,P|395:280|400:236,1,90.7500027694703,10|0,0:0|3:2,0:0:0:0:
397,221,71602,1,8,0:0:0:0:
387,210,71687,1,2,3:2:0:0:
219,384,71859,1,0,3:2:0:0:
157,303,72030,2,0,P|112:293|68:284,1,90.7500027694703,10|0,0:0|3:2,0:0:0:0:
274,151,72373,6,0,B|242:188|208:206|208:206|242:243|281:298,1,181.500005538941,6|10,3:2|0:0,0:0:0:0:
315,360,72887,1,0,0:0:0:0:
219,384,73059,1,2,3:2:0:0:
32,184,73230,1,8,0:0:0:0:
128,208,73401,2,0,P|118:253|109:297,1,90.7500027694703,2|0,0:0|3:2,0:0:0:0:
427,243,73745,6,0,B|384:237|384:237|354:200,1,90.7500027694703,2|0,3:2|3:2,0:0:0:0:
509,101,74087,2,0,B|479:64|479:64|436:58,1,90.7500027694703,10|0,0:0|3:2,0:0:0:0:
423,60,74345,1,8,0:0:0:0:
413,66,74430,1,2,3:2:0:0:
512,239,74602,1,0,3:2:0:0:
407,331,74773,2,0,P|417:287|427:241,1,90.7500027694703,10|0,0:0|3:2,0:0:0:0:
252,57,75116,6,0,B|214:91|178:110|178:110|214:141|246:179,1,181.500005538941,6|10,3:2|0:0,0:0:0:0:
301,237,75630,1,0,0:0:0:0:
226,301,75802,1,2,3:2:0:0:
42,158,75973,1,8,0:0:0:0:
134,190,76145,2,0,P|124:234|114:278,1,90.7500027694703,2|0,0:0|3:2,0:0:0:0:
255,71,76487,6,0,P|251:115|217:143,1,90.7500027694703,2|0,3:2|3:2,0:0:0:0:
130,15,76830,2,0,P|97:43|92:87,1,90.7500027694703,10|0,0:0|3:2,0:0:0:0:
98,101,77087,1,8,0:0:0:0:
107,109,77173,1,2,3:2:0:0:
261,261,77345,1,0,3:2:0:0:
211,148,77516,2,0,P|255:158|299:168,1,90.7500027694703,10|0,0:0|3:2,0:0:0:0:
384,186,77859,5,6,3:2:0:0:
148,357,88830,5,2,3:2:0:0:
210,289,89001,2,0,P|201:252|193:216,1,74.2499977340699,0|10,3:2|0:0,0:0:0:0:
174,114,89344,2,0,P|198:169|283:181,1,148.49999546814,2|10,0:0|0:0,0:0:0:0:
346,20,89859,1,2,0:0:0:0:
257,96,90030,1,2,3:2:0:0:
392,187,90201,6,0,P|428:195|464:203,1,74.2499977340699,2|2,3:2|3:2,0:0:0:0:
411,72,90544,2,0,P|447:80|483:88,1,74.2499977340699,10|2,0:0|3:2,0:0:0:0:
496,104,90801,1,8,0:0:0:0:
496,104,90887,1,2,3:2:0:0:
341,119,91059,1,2,3:2:0:0:
278,182,91230,2,0,P|286:218|294:254,1,74.2499977340699,10|2,0:0|3:2,0:0:0:0:
123,337,91573,5,2,3:2:0:0:
207,375,91744,2,0,P|240:363|262:328,1,74.2499977340699,2|8,3:2|0:0,0:0:0:0:
156,192,92087,2,0,P|139:264|122:336,1,148.49999546814,2|10,0:0|0:0,0:0:0:0:
52,219,92601,1,2,0:0:0:0:
212,127,92773,1,2,3:2:0:0:
63,77,92944,6,0,P|65:114|90:140,1,74.2499977340699,2|2,3:2|3:2,0:0:0:0:
186,34,93287,2,0,P|211:62|212:100,1,74.2499977340699,10|2,0:0|3:2,0:0:0:0:
211,110,93544,1,8,0:0:0:0:
211,110,93630,1,2,3:2:0:0:
128,278,93801,1,2,3:2:0:0:
228,208,93973,2,0,P|192:200|156:192,1,74.2499977340699,10|2,0:0|3:2,0:0:0:0:
345,360,94316,5,2,3:2:0:0:
244,290,94488,2,0,P|280:281|316:273,1,74.2499977340699,2|8,3:2|0:0,0:0:0:0:
438,279,94830,2,0,P|391:277|341:193,1,148.49999546814,2|10,0:0|0:0,0:0:0:0:
485,109,95344,1,2,0:0:0:0:
424,196,95516,1,2,3:2:0:0:
320,112,95687,6,0,P|357:110|383:85,1,74.2499977340699,2|2,3:2|3:2,0:0:0:0:
287,26,96030,2,0,P|315:1|353:0,1,74.2499977340699,10|2,0:0|3:2,0:0:0:0:
363,1,96287,1,8,0:0:0:0:
363,1,96373,1,2,3:2:0:0:
259,180,96544,1,2,3:2:0:0:
190,123,96716,2,0,P|182:87|174:51,1,74.2499977340699,10|2,0:0|3:2,0:0:0:0:
54,209,97059,5,2,3:2:0:0:
125,242,97230,2,0,P|162:240|188:215,1,74.2499977340699,2|8,3:2|0:0,0:0:0:0:
1,287,97573,2,0,B|82:303|38:350|147:364,1,148.49999546814,2|10,0:0|0:0,0:0:0:0:
288,265,98087,1,2,0:0:0:0:
209,384,98259,1,2,3:2:0:0:
125,242,98430,6,0,P|117:206|109:170,1,74.2499977340699,2|2,3:2|3:2,0:0:0:0:
230,215,98773,2,0,P|222:179|214:143,1,74.2499977340699,10|2,0:0|3:2,0:0:0:0:
198,130,99030,1,8,0:0:0:0:
198,130,99116,1,2,3:2:0:0:
348,41,99287,1,0,3:2:0:0:
343,130,99459,2,0,P|305:123|275:87,1,74.2499977340699,10|0,0:0|3:2,0:0:0:0:
257,20,99801,1,2,3:2:0:0:
512,202,110773,6,0,B|445:216|445:216|434:229|434:229|332:250,1,181.500005538941,6|10,3:2|0:0,0:0:0:0:
251,303,111287,1,0,0:0:0:0:
186,230,111459,1,2,3:2:0:0:
386,50,111630,1,8,0:0:0:0:
385,148,111801,2,0,P|340:143|312:109,1,90.7500027694703,2|0,0:0|3:2,0:0:0:0:
58,56,112144,6,0,P|62:100|96:128,1,90.7500027694703,2|0,3:2|3:2,0:0:0:0:
183,0,112487,2,0,P|216:28|221:72,1,90.7500027694703,10|0,0:0|3:2,0:0:0:0:
215,86,112744,1,8,0:0:0:0:
206,94,112830,1,2,3:2:0:0:
109,302,113002,1,0,3:2:0:0:
181,166,113173,2,0,P|192:211|200:255,1,90.7500027694703,10|0,0:0|3:2,0:0:0:0:
423,384,113516,6,0,B|329:363|389:307|275:275,1,181.500005538941,6|10,3:2|0:0,0:0:0:0:
199,254,114030,1,0,0:0:0:0:
109,302,114202,1,2,3:2:0:0:
307,190,114373,1,8,0:0:0:0:
310,88,114544,2,0,P|318:43|328:0,1,90.7500027694703,2|0,0:0|3:2,0:0:0:0:
469,207,114887,6,0,P|465:163|431:135,1,90.7500027694703,2|0,3:2|3:2,0:0:0:0:
344,263,115230,2,0,P|311:235|306:191,1,90.7500027694703,10|0,0:0|3:2,0:0:0:0:
312,177,115487,1,8,0:0:0:0:
321,169,115573,1,2,3:2:0:0:
459,290,115744,1,0,3:2:0:0:
462,384,115916,2,0,P|418:378|389:344,1,90.7500027694703,10|0,0:0|3:2,0:0:0:0:
220,181,116258,6,0,B|188:217|160:233|160:233|207:269|237:308,1,181.500005538941,6|10,3:2|0:0,0:0:0:0:
191,377,116773,1,0,0:0:0:0:
127,314,116944,1,2,3:2:0:0:
0,205,117116,1,8,0:0:0:0:
64,142,117287,2,0,P|55:97|46:54,1,90.7500027694703,2|0,0:0|3:2,0:0:0:0:
250,214,117630,6,0,P|206:223|162:233,1,90.7500027694703,2|0,3:2|3:2,0:0:0:0:
222,61,117973,2,0,P|178:70|134:80,1,90.7500027694703,10|0,0:0|3:2,0:0:0:0:
124,76,118230,1,8,0:0:0:0:
119,84,118316,1,2,3:2:0:0:
286,129,118487,1,0,3:2:0:0:
350,20,118659,2,0,P|372:56|368:108,1,90.7500027694703,10|0,0:0|3:2,0:0:0:0:
247,306,119001,6,0,P|268:210|288:114,1,181.500005538941,6|10,3:2|0:0,0:0:0:0:
369,103,119516,1,0,0:0:0:0:
428,200,119687,1,2,3:2:0:0:
226,384,119859,1,8,0:0:0:0:
323,325,120030,2,0,P|366:330|395:364,1,90.7500027694703,2|0,0:0|3:2,0:0:0:0:
141,193,120373,6,0,P|145:237|179:265,1,90.7500027694703,2|0,3:2|3:2,0:0:0:0:
285,128,120716,2,0,P|318:156|323:200,1,90.7500027694703,10|0,0:0|3:2,0:0:0:0:
317,214,120973,1,8,0:0:0:0:
308,222,121059,1,2,3:2:0:0:
173,99,121230,1,0,3:2:0:0:
50,38,121402,2,0,P|94:28|140:18,1,90.7500027694703,10|0,0:0|3:2,0:0:0:0:
179,265,121744,6,0,B|135:242|75:239|75:239|67:186|121:177,1,181.500005538941,6|10,3:2|0:0,0:0:0:0:
173,99,122259,1,0,0:0:0:0:
230,158,122430,1,2,3:2:0:0:
369,63,122602,1,8,0:0:0:0:
435,2,122773,2,0,P|479:10|505:46,1,90.7500027694703,2|0,0:0|3:2,0:0:0:0:
359,255,123116,6,0,P|350:211|340:167,1,90.7500027694703,2|0,3:2|3:2,0:0:0:0:
512,227,123459,2,0,P|503:183|493:139,1,90.7500027694703,10|0,0:0|3:2,0:0:0:0:
485,127,123716,1,8,0:0:0:0:
477,122,123802,1,2,3:2:0:0:
312,329,123973,1,0,3:2:0:0:
443,273,124144,2,0,P|435:317|398:342,1,90.7500027694703,10|0,0:0|3:2,0:0:0:0:
225,141,124487,6,0,B|317:166|261:232|375:259,1,181.500005538941,6|10,3:2|0:0,0:0:0:0:
420,193,125002,1,0,0:0:0:0:
485,127,125173,1,2,3:2:0:0:
223,21,125344,1,8,0:0:0:0:
293,74,125516,2,0,P|338:64|382:55,1,90.7500027694703,2|0,0:0|3:2,0:0:0:0:
263,213,125859,6,0,P|259:169|225:141,1,90.7500027694703,2|0,3:2|3:2,0:0:0:0:
138,280,126202,2,0,P|105:252|100:208,1,90.7500027694703,10|0,0:0|3:2,0:0:0:0:
103,193,126459,1,8,0:0:0:0:
113,182,126544,1,2,3:2:0:0:
283,301,126716,1,0,3:2:0:0:
167,364,126887,2,0,P|212:374|256:383,1,90.7500027694703,10|0,0:0|3:2,0:0:0:0:
406,299,127230,6,0,B|312:272|357:216|251:192,1,181.500005538941,6|10,3:2|0:0,0:0:0:0:
205,258,127744,1,0,0:0:0:0:
109,282,127916,1,2,3:2:0:0:
0,78,128087,1,8,0:0:0:0:
96,102,128258,2,0,P|86:147|77:191,1,90.7500027694703,2|0,0:0|3:2,0:0:0:0:
249,0,128602,6,0,B|206:6|206:6|176:43,1,90.7500027694703,2|0,3:2|3:2,0:0:0:0:
331,142,128944,2,0,B|301:179|301:179|258:185,1,90.7500027694703,10|0,0:0|3:2,0:0:0:0:
245,183,129202,1,8,0:0:0:0:
235,177,129287,1,2,3:2:0:0:
374,18,129459,1,0,3:2:0:0:
440,141,129630,2,0,P|450:97|460:51,1,90.7500027694703,10|0,0:0|3:2,0:0:0:0:
245,183,129973,6,0,B|207:217|171:236|171:236|207:267|239:305,1,181.500005538941,6|10,3:2|0:0,0:0:0:0:
299,357,130487,1,0,0:0:0:0:
374,293,130659,1,2,3:2:0:0:
96,165,130830,1,8,0:0:0:0:
172,237,131002,2,0,P|162:281|152:325,1,90.7500027694703,2|0,0:0|3:2,0:0:0:0:
311,72,131344,6,0,P|307:116|273:144,1,90.7500027694703,2|0,3:2|3:2,0:0:0:0:
186,16,131687,2,0,P|153:44|148:88,1,90.7500027694703,10|0,0:0|3:2,0:0:0:0:
154,102,131944,1,8,0:0:0:0:
163,110,132030,1,2,3:2:0:0:
366,0,132202,1,0,3:2:0:0:
399,92,132373,2,0,P|355:82|311:72,1,90.7500027694703,10|0,0:0|3:2,0:0:0:0:
416,299,132716,6,0,P|446:261|435:203,1,90.7500027694703,4|0,3:2|3:2,0:0:0:0:
246,115,133059,2,0,P|256:159|266:203,1,90.7500027694703,8|0,0:0|0:0,0:0:0:0:
161,367,133401,1,0,3:2:0:0:
327,269,133573,2,0,B|227:298|277:317|164:358,1,181.500005538941,8|0,0:0|3:2,0:0:0:0:
11,243,134087,6,0,P|56:275|96:272,1,90.7500027694703,0|0,3:2|3:2,0:0:0:0:
59,87,134430,2,0,P|103:89|137:118,1,90.7500027694703,8|0,0:0|3:2,0:0:0:0:
145,128,134687,1,8,0:0:0:0:
145,136,134773,1,0,3:2:0:0:
325,13,134944,1,0,3:2:0:0:
256,138,135116,2,0,P|246:94|236:50,1,90.7500027694703,8|0,0:0|3:2,0:0:0:0:
437,229,135459,6,0,P|392:197|352:200,1,90.7500027694703,6|0,3:2|3:2,0:0:0:0:
238,357,135801,2,0,P|288:334|305:297,1,90.7500027694703,10|0,0:0|0:0,0:0:0:0:
145,128,136144,1,2,3:2:0:0:
173,313,136316,2,0,P|155:228|133:133,1,181.500005538941,8|0,0:0|3:2,0:0:0:0:
111,377,136830,6,0,P|79:332|82:292,1,90.7500027694703,2|0,3:2|3:2,0:0:0:0:
267,329,137173,2,0,P|264:284|235:250,1,90.7500027694703,10|0,0:0|3:2,0:0:0:0:
231,243,137430,1,8,0:0:0:0:
235,236,137516,1,2,3:2:0:0:
20,144,137687,1,0,3:2:0:0:
114,47,137859,2,0,P|124:91|133:135,1,90.7500027694703,8|0,0:0|3:2,0:0:0:0:
318,31,138201,6,0,P|273:28|239:0,1,90.7500027694703,4|0,3:2|3:2,0:0:0:0:
396,127,138544,2,0,P|420:89|462:74,1,90.7500027694703,8|0,0:0|0:0,0:0:0:0:
229,149,138887,1,0,3:2:0:0:
384,247,139059,2,0,B|284:225|345:180|226:153,1,181.500005538941,8|0,0:0|3:2,0:0:0:0:
92,347,139573,6,0,P|136:337|180:327,1,90.7500027694703,0|0,3:2|3:2,0:0:0:0:
61,199,139916,2,0,P|105:189|149:179,1,90.7500027694703,8|0,0:0|3:2,0:0:0:0:
157,184,140173,1,8,0:0:0:0:
164,189,140259,1,0,3:2:0:0:
318,317,140430,1,0,3:2:0:0:
198,384,140601,2,0,P|198:339|226:305,1,90.7500027694703,8|0,0:0|3:2,0:0:0:0:
417,199,140944,6,0,P|378:221|334:213,1,90.7500027694703,6|0,3:2|3:2,0:0:0:0:
218,7,141287,2,0,P|261:0|300:21,1,90.7500027694703,10|0,0:0|0:0,0:0:0:0:
164,189,141630,1,2,3:2:0:0:
137,64,141801,2,0,B|108:89|74:117|74:117|118:149|154:189,1,181.500005538941,8|0,0:0|3:2,0:0:0:0:
97,384,142316,6,0,P|65:339|68:299,1,90.7500027694703,2|0,3:2|3:2,0:0:0:0:
253,336,142659,2,0,P|250:291|221:257,1,90.7500027694703,10|0,0:0|3:2,0:0:0:0:
211,248,142916,1,8,0:0:0:0:
211,256,143002,1,2,3:2:0:0:
354,92,143173,1,0,3:2:0:0:
393,214,143344,1,8,3:3:0:0:
393,214,143430,1,8,3:3:0:0:
393,214,143516,2,0,P|366:207|341:200,1,45.3750013847352,4|4,3:3|3:3,0:0:0:0:
269,179,143687,5,2,3:2:0:0:
