osu file format v14

[General]
AudioFilename: audio.mp3
AudioLeadIn: 0
PreviewTime: 88807
Countdown: 0
SampleSet: Soft
StackLeniency: 0.7
Mode: 0
LetterboxInBreaks: 0
WidescreenStoryboard: 1

[Editor]
DistanceSpacing: 0.9
BeatDivisor: 4
GridSize: 32
TimelineZoom: 2.22

[Metadata]
Title:risuyu krov'yu
TitleUnicode:рисую кровью
Artist:bilbordy
ArtistUnicode:билборды
Creator:nemidnight
Version:namki's hard
Source:
Tags:mocaotic namki paradoxa parad0xa i draw with blood russian rock alternative emo punk billboards billboards21 русский рок эмо панк альтернатива
BeatmapID:3765919
BeatmapSetID:1780595

[Difficulty]
HPDrainRate:4
CircleSize:3.8
OverallDifficulty:6.5
ApproachRate:8
SliderMultiplier:1.47
SliderTickRate:1

[Events]
//Background and Video events
0,0,"tears.jpg",0,0
//Break Periods
2,78058,88080
//Storyboard Layer 0 (Background)
//Storyboard Layer 1 (Fail)
//Storyboard Layer 2 (Pass)
//Storyboard Layer 3 (Foreground)
//Storyboard Layer 4 (Overlay)
//Storyboard Sound Samples

[TimingPoints]
1059,342.857142857143,4,2,1,62,1,0
1059,-125,4,2,1,62,0,0
10659,-125,4,2,2,46,0,0
11944,-125,4,2,2,46,0,0
12030,-90.9090909090909,4,2,1,90,0,1
22916,-90.9090909090909,4,2,1,90,0,0
23001,-90.9090909090909,4,2,1,90,0,1
33973,-111.111111111111,4,2,1,62,0,0
44944,-111.111111111111,4,2,1,70,0,0
54544,-111.111111111111,4,2,1,70,0,0
55916,-90.9090909090909,4,2,1,90,0,1
66801,-90.9090909090909,4,2,1,90,0,0
66887,-90.9090909090909,4,2,1,90,0,1
77859,-125,4,2,1,62,0,0
88830,-111.111111111111,4,2,1,62,0,0
99801,-142.857142857143,4,2,1,51,0,0
110773,-90.9090909090909,4,2,1,90,0,1
121659,-90.9090909090909,4,2,1,90,0,0
121744,-90.9090909090909,4,2,1,90,0,1
132716,-90.9090909090909,4,2,1,90,0,0
143687,-142.857142857143,4,2,1,90,0,0

[Colours]
Combo1 : 117,103,81
Combo2 : 177,171,163

[HitObjects]
55,311,1059,5,2,3:2:0:0:
55,311,1230,1,0,3:2:0:0:
64,229,1401,2,0,P|146:212|224:258,1,176.4,10|8,0:0|0:0,0:0:0:0:
222,256,2087,1,0,0:0:0:0:
475,219,2430,6,0,P|441:204|406:205,1,58.8,2|0,3:2|3:2,0:0:0:0:
452,293,2773,2,0,P|422:289|367:258,1,88.2,10|0,0:0|3:2,0:0:0:0:
355,246,3116,2,0,B|334:267|334:267|310:365,1,117.6,2|10,3:2|0:0,0:0:0:0:
78,259,3801,5,2,3:2:0:0:
87,276,3973,1,0,3:2:0:0:
78,176,4144,2,0,P|112:128|68:15,1,176.4,10|8,0:0|0:0,0:0:0:0:
100,25,4830,1,0,0:0:0:0:
264,194,5173,6,0,P|246:159|241:114,1,58.8,2|0,3:2|3:2,0:0:0:0:
342,165,5516,2,0,P|334:136|295:81,1,88.2,10|0,0:0|3:2,0:0:0:0:
299,64,5859,2,0,L|171:50,1,117.6,2|10,3:2|0:0,0:0:0:0:
119,7,6373,1,0,3:2:0:0:
66,71,6544,6,0,P|52:103|57:142,1,58.8,2|0,3:2|0:0,0:0:0:0:
31,212,6887,2,0,P|97:199|194:249,1,176.4,10|8,0:0|0:0,0:0:0:0:
194,146,7573,1,0,0:0:0:0:
328,270,7916,6,0,P|276:251|256:256,1,58.8,2|0,3:2|3:2,0:0:0:0:
301,348,8259,2,0,P|272:344|220:309,1,88.2,10|0,0:0|3:2,0:0:0:0:
211,322,8601,2,0,L|79:340,1,117.6,2|10,3:2|0:0,0:0:0:0:
28,288,9116,1,0,3:2:0:0:
103,240,9287,6,0,P|130:224|157:196,1,58.8,2|0,3:2|3:0,3:0:0:0:
265,154,9630,2,0,P|215:154|270:141,1,176.4,10|8,0:0|0:0,0:0:0:0:
368,180,10316,2,0,L|356:122,1,58.8,2|0,0:0|3:2,0:0:0:0:
327,245,10659,5,0,3:2:0:0:
307,318,10830,1,0,3:2:0:0:
222,358,11001,5,8,0:0:0:0:
192,282,11173,2,0,L|152:277,2,29.4,8|0|0,0:0|3:2|3:2,0:0:0:0:
208,212,11516,2,0,B|216:182|216:182|208:141,1,58.8,0|8,3:2|0:0,0:0:0:0:
210,154,12030,6,0,L|123:170,1,80.8500024673463,6|0,3:2|3:2,0:0:0:0:
300,129,12373,2,0,P|245:84|251:-2,1,161.700004934693,10|2,0:0|3:2,0:0:0:0:
376,93,12887,2,0,L|399:181,1,80.8500024673463,8|2,0:0|0:0,0:0:0:0:
465,208,13230,1,0,3:2:0:0:
399,307,13401,5,2,3:2:0:0:
324,303,13573,1,0,3:2:0:0:
275,241,13744,2,0,L|219:250,2,40.4250012336731,10|0|0,0:0|0:0|3:2,0:0:0:0:
362,166,14087,1,2,3:2:0:0:
362,166,14259,2,0,L|383:64,1,80.8500024673463,0|10,3:2|0:0,0:0:0:0:
458,219,14601,1,0,3:2:0:0:
290,148,14773,6,0,B|316:180|316:180|340:294,1,121.275003701019,6|0,3:2|0:0,0:0:0:0:
331,284,15116,2,0,P|288:272|265:238,1,80.8500024673463,10|0,0:0|0:0,0:0:0:0:
357,196,15459,2,0,P|388:164|429:161,2,80.8500024673463,2|8|2,3:2|0:0|0:0,0:0:0:0:
485,230,15973,1,0,3:2:0:0:
404,311,16144,5,2,3:2:0:0:
332,284,16316,1,0,3:2:0:0:
281,338,16487,2,0,P|217:350|167:329,1,121.275003701019,10|8,0:0|0:0,0:0:0:0:
161,322,16830,2,0,L|140:265,2,40.4250012336731,2|0|0,3:2|0:0|3:2,0:0:0:0:
85,235,17173,2,0,P|99:200|102:133,1,80.8500024673463,10|0,0:0|3:2,0:0:0:0:
233,201,17516,6,0,L|329:216,1,80.8500024673463,6|0,3:2|3:2,0:0:0:0:
381,130,17859,2,0,B|343:132|343:132|258:95,1,121.275003701019,10|0,0:0|0:0,0:0:0:0:
294,90,18201,1,2,3:2:0:0:
395,43,18373,2,0,L|481:22,1,80.8500024673463,8|2,0:0|0:0,0:0:0:0:
460,142,18716,1,0,3:2:0:0:
294,90,18887,6,0,B|226:80|226:80|211:72|211:72|115:66,1,161.700004934693,2|10,3:2|0:0,0:0:0:0:
35,104,19401,1,0,3:2:0:0:
35,104,19487,1,8,0:0:0:0:
35,104,19573,1,2,3:2:0:0:
49,182,19744,1,0,3:2:0:0:
65,260,19916,1,10,0:0:0:0:
83,271,20087,1,0,3:2:0:0:
209,268,20259,6,0,P|238:242|298:242,1,80.8500024673463,6|0,3:2|3:2,0:0:0:0:
354,209,20601,2,0,P|362:247|332:299,1,80.8500024673463,10|0,0:0|0:0,0:0:0:0:
333,372,20944,2,0,P|295:359|265:307,2,80.8500024673463,2|8|2,3:2|0:0|0:0,0:0:0:0:
420,341,21459,1,0,3:2:0:0:
441,228,21630,5,2,3:2:0:0:
381,169,21801,1,0,3:2:0:0:
298,187,21973,1,10,0:0:0:0:
287,192,22144,2,0,L|232:177,2,40.4250012336731,0|8|2,3:2|0:0|3:2,0:0:0:0:
267,288,22487,2,0,L|298:380,2,80.8500024673463,0|8|0,3:2|0:0|3:2,0:0:0:0:
188,239,23001,6,0,L|94:216,1,80.8500024673463,6|0,3:2|3:2,0:0:0:0:
247,181,23344,2,0,L|382:166,1,121.275003701019,10|0,0:0|0:0,0:0:0:0:
378,151,23687,1,2,3:2:0:0:
397,256,23859,2,0,L|367:352,1,80.8500024673463,8|2,0:0|0:0,0:0:0:0:
295,341,24201,1,0,3:2:0:0:
212,248,24373,5,2,3:2:0:0:
209,171,24544,1,0,3:2:0:0:
153,113,24716,2,0,B|129:135|129:135|31:148,1,121.275003701019,10|8,0:0|0:0,0:0:0:0:
31,154,25059,2,0,L|112:183,1,80.8500024673463,2|0,3:2|3:2,0:0:0:0:
183,227,25401,1,10,0:0:0:0:
183,227,25573,1,0,3:2:0:0:
94,276,25744,6,0,L|111:355,1,80.8500024673463,6|0,3:2|3:2,0:0:0:0:
185,254,26087,2,0,L|225:89,1,161.700004934693,10|2,0:0|3:2,0:0:0:0:
316,240,26601,2,0,L|402:226,1,80.8500024673463,8|2,0:0|0:0,0:0:0:0:
474,218,26944,1,0,3:2:0:0:
384,128,27116,6,0,L|401:32,1,80.8500024673463,2|0,3:2|3:2,0:0:0:0:
400,239,27459,2,0,L|385:318,1,80.8500024673463,10|0,0:0|3:2,0:0:0:0:
379,314,27716,1,8,0:0:0:0:
372,309,27801,1,2,3:2:0:0:
301,299,27973,1,0,3:2:0:0:
227,285,28144,1,10,0:0:0:0:
73,294,28487,6,0,L|95:186,1,80.8500024673463,6|0,3:2|3:2,0:0:0:0:
116,125,28830,2,0,B|144:146|144:146|237:161,1,121.275003701019,10|0,0:0|0:0,0:0:0:0:
230,178,29173,1,2,3:2:0:0:
304,230,29344,2,0,L|397:216,1,80.8500024673463,8|2,0:0|0:0,0:0:0:0:
458,197,29687,1,0,3:2:0:0:
423,112,29859,5,2,3:2:0:0:
348,106,30030,1,0,3:2:0:0:
282,63,30201,2,0,P|242:58|200:55,1,80.8500024673463,10|0,0:0|3:2,0:0:0:0:
175,73,30459,1,8,0:0:0:0:
175,73,30544,1,2,3:2:0:0:
224,137,30716,1,0,3:2:0:0:
274,200,30887,2,0,P|265:239|253:290,1,80.8500024673463,8|0,0:0|3:2,0:0:0:0:
237,370,31230,6,0,P|179:345|187:319,1,80.8500024673463,6|0,3:2|3:2,0:0:0:0:
331,305,31573,2,0,P|381:267|400:287,1,80.8500024673463,10|0,0:0|0:0,0:0:0:0:
383,364,31916,1,2,3:2:0:0:
219,262,32259,2,0,L|132:273,1,80.8500024673463,2|0,0:0|3:2,0:0:0:0:
216,172,32601,6,0,B|250:185|250:185|368:165,1,121.275003701019,2|0,3:2|0:0,0:0:0:0:
344,188,32944,1,10,0:0:0:0:
435,258,33116,2,0,L|481:267,2,40.4250012336731,0|8|2,3:2|0:0|3:2,0:0:0:0:
417,157,33459,1,0,3:2:0:0:
417,157,33630,2,0,L|442:69,1,80.8500024673463,10|0,0:0|3:2,0:0:0:0:
331,92,33973,6,0,P|271:81|253:97,2,66.1499979812623,2|0|10,3:2|3:2|0:0,0:0:0:0:
234,153,34487,2,0,P|186:186|98:185,1,132.299995962525,2|10,0:0|0:0,0:0:0:0:
33,71,35173,5,2,3:2:0:0:
33,71,35344,1,2,3:2:0:0:
16,145,35516,2,0,P|33:187|24:237,1,66.1499979812623,2|10,3:2|0:0,0:0:0:0:
88,265,35859,1,2,3:2:0:0:
88,265,36030,1,2,3:2:0:0:
26,336,36201,6,0,P|72:354|111:355,1,66.1499979812623,2|10,3:2|0:0,0:0:0:0:
175,289,36544,2,0,P|221:271|260:270,1,66.1499979812623,2|2,3:2|3:2,0:0:0:0:
302,183,36887,2,0,P|360:210|429:212,1,132.299995962525,2|2,3:2|0:0,0:0:0:0:
336,289,37573,6,0,L|355:382,1,66.1499979812623,10|2,0:0|0:0,0:0:0:0:
243,300,37916,1,2,3:2:0:0:
226,274,38087,2,0,L|212:209,1,66.1499979812623,2|2,3:2|3:2,0:0:0:0:
230,128,38430,1,10,0:0:0:0:
320,147,38601,2,0,L|366:150,2,33.0749989906311,2|8|2,3:2|0:0|3:2,0:0:0:0:
230,128,38944,2,0,L|137:117,2,66.1499979812623,2|10|2,3:2|0:0|3:2,0:0:0:0:
286,71,39459,5,2,3:2:0:0:
344,21,39630,1,2,3:2:0:0:
435,165,39973,2,0,L|470:313,1,132.299995962525,2|10,0:0|0:0,0:0:0:0:
311,342,40659,1,2,3:2:0:0:
233,283,40830,5,2,3:2:0:0:
233,283,41001,2,0,P|191:277|156:292,1,66.1499979812623,2|10,3:2|0:0,0:0:0:0:
101,330,41344,1,2,3:2:0:0:
101,330,41516,2,0,L|78:243,1,66.1499979812623,2|2,3:2|3:2,0:0:0:0:
116,196,41859,2,0,L|93:109,1,66.1499979812623,10|2,0:0|3:2,0:0:0:0:
203,163,42201,5,2,3:2:0:0:
258,107,42373,2,0,P|194:110|144:44,2,132.299995962525,2|2|10,3:2|0:0|0:0,0:0:0:0:
428,277,43573,6,0,L|437:195,1,66.1499979812623,2|2,3:2|3:2,0:0:0:0:
348,163,43916,2,0,L|355:228,1,66.1499979812623,10|2,0:0|3:2,0:0:0:0:
296,331,44259,2,0,P|251:305|154:338,1,132.299995962525,2|10,3:2|3:3,0:0:0:0:
168,334,44687,2,0,L|120:343,3,33.0749989906311,8|4|4|2,3:3|3:3|3:3|3:2,0:0:0:0:
236,268,45116,6,0,L|265:119,2,132.299995962525,2|2|10,3:2|0:0|0:0,0:0:0:0:
321,239,45973,2,0,L|399:220,1,66.1499979812623,2|2,0:0|3:2,0:0:0:0:
463,204,46316,1,2,3:2:0:0:
378,124,46487,6,0,P|362:81|364:49,1,66.1499979812623,2|10,3:2|0:0,0:0:0:0:
429,17,46830,1,2,3:2:0:0:
429,17,47001,2,0,P|445:60|443:92,1,66.1499979812623,2|2,3:2|3:2,0:0:0:0:
286,111,47344,2,0,L|196:98,1,66.1499979812623,10|2,0:0|3:2,0:0:0:0:
163,159,47687,5,2,3:2:0:0:
161,35,47859,2,0,P|121:59|35:31,1,132.299995962525,2|2,3:2|0:0,0:0:0:0:
11,165,48544,5,10,0:0:0:0:
11,165,48716,2,0,L|34:231,1,66.1499979812623,2|2,0:0|3:2,0:0:0:0:
95,274,49059,2,0,P|150:257|171:229,1,66.1499979812623,2|2,3:2|3:2,0:0:0:0:
203,186,49401,1,10,0:0:0:0:
268,240,49573,2,0,P|323:257|344:285,2,66.1499979812623,2|2|2,3:2|3:2|3:2,0:0:0:0:
203,186,50087,2,0,L|189:111,1,66.1499979812623,10|2,0:0|3:2,0:0:0:0:
175,35,50430,5,2,3:2:0:0:
276,26,50601,2,0,P|264:73|311:150,2,132.299995962525,2|2|10,3:2|0:0|0:0,0:0:0:0:
367,66,51459,2,0,L|436:76,1,66.1499979812623,2|2,0:0|3:2,0:0:0:0:
488,148,51801,5,2,3:2:0:0:
374,276,52144,2,0,L|356:350,1,66.1499979812623,10|2,0:0|3:2,0:0:0:0:
282,273,52487,2,0,P|218:253|138:279,1,132.299995962525,2|10,3:2|0:0,0:0:0:0:
91,310,53001,1,2,3:2:0:0:
37,234,53173,6,0,P|24:199|34:161,2,66.1499979812623,2|2|8,3:2|3:2|0:0,0:0:0:0:
101,152,53687,2,0,P|136:88|126:23,1,132.299995962525,2|10,0:0|0:0,0:0:0:0:
185,84,54201,6,0,L|262:102,1,66.1499979812623,2|2,0:0|3:2,0:0:0:0:
357,57,54544,5,2,3:2:0:0:
375,127,54716,1,2,3:2:0:0:
397,195,54887,1,10,0:0:0:0:
324,290,55059,6,0,L|282:305,2,33.0749989906311,2|8|2,3:2|0:0|3:2,0:0:0:0:
310,210,55401,1,0,3:2:0:0:
234,193,55573,2,0,L|150:173,1,66.1499979812623,10|4,3:3|3:3,0:0:0:0:
74,118,55916,6,0,L|85:212,1,80.8500024673463,6|0,3:2|3:2,0:0:0:0:
203,309,56259,2,0,B|164:282|164:282|46:274,1,161.700004934693,10|2,0:0|3:2,0:0:0:0:
237,225,56773,2,0,L|341:235,1,80.8500024673463,8|2,0:0|0:0,0:0:0:0:
375,282,57116,1,0,3:2:0:0:
429,186,57287,5,2,3:2:0:0:
404,113,57459,1,0,3:2:0:0:
330,84,57630,2,0,L|321:44,2,40.4250012336731,10|0|0,0:0|0:0|3:2,0:0:0:0:
257,163,57973,1,2,3:2:0:0:
257,163,58144,2,0,L|171:174,1,80.8500024673463,0|10,3:2|0:0,0:0:0:0:
242,85,58487,1,0,3:2:0:0:
340,178,58659,6,0,L|323:273,1,80.8500024673463,6|0,3:2|3:2,0:0:0:0:
434,338,59001,2,0,L|419:258,1,80.8500024673463,10|0,0:0|0:0,0:0:0:0:
294,327,59344,2,0,L|214:342,1,80.8500024673463,2|8,3:2|0:0,0:0:0:0:
143,268,59687,2,0,L|222:252,1,80.8500024673463,2|0,0:0|3:2,0:0:0:0:
253,158,60030,5,2,3:2:0:0:
324,171,60201,1,0,3:2:0:0:
396,180,60373,2,0,L|420:84,1,80.8500024673463,10|0,0:0|3:2,0:0:0:0:
423,99,60630,1,8,0:0:0:0:
430,96,60716,1,2,3:2:0:0:
489,181,60887,1,0,3:2:0:0:
331,90,61059,2,0,L|254:53,1,80.8500024673463,10|0,0:0|3:2,0:0:0:0:
286,189,61401,6,0,L|307:284,1,80.8500024673463,6|0,3:2|3:2,0:0:0:0:
172,238,61744,2,0,B|198:186|198:186|185:110,1,121.275003701019,10|0,0:0|0:0,0:0:0:0:
173,118,62087,1,2,3:2:0:0:
226,292,62259,2,0,L|60:313,1,161.700004934693,8|0,0:0|3:2,0:0:0:0:
26,230,62773,6,0,P|73:212|90:238,1,80.8500024673463,2|0,3:2|3:2,0:0:0:0:
65,312,63116,2,0,P|57:361|26:363,1,80.8500024673463,10|0,0:0|3:2,0:0:0:0:
26,363,63373,1,8,0:0:0:0:
18,360,63459,1,2,3:2:0:0:
149,348,63630,1,0,3:2:0:0:
226,343,63801,2,0,L|323:356,1,80.8500024673463,10|0,0:0|3:2,0:0:0:0:
274,264,64144,6,0,L|246:181,1,80.8500024673463,6|0,3:2|3:2,0:0:0:0:
275,60,64487,2,0,B|153:40|153:40|94:8,1,161.700004934693,10|2,0:0|3:2,0:0:0:0:
47,66,65001,1,8,0:0:0:0:
26,179,65173,2,0,L|108:162,1,80.8500024673463,2|0,0:0|3:2,0:0:0:0:
218,221,65516,5,2,3:2:0:0:
137,266,65687,1,0,3:2:0:0:
218,221,65859,2,0,B|233:261|233:261|235:319,1,80.8500024673463,10|0,0:0|3:2,0:0:0:0:
245,303,66116,1,8,0:0:0:0:
256,307,66201,1,2,3:2:0:0:
341,251,66373,1,0,3:2:0:0:
415,271,66544,2,0,L|499:294,1,80.8500024673463,10|0,0:0|3:2,0:0:0:0:
319,160,66887,6,0,B|325:126|325:126|298:60,1,80.8500024673463,6|0,3:2|3:2,0:0:0:0:
229,151,67230,2,0,L|205:294,1,121.275003701019,10|0,0:0|0:0,0:0:0:0:
196,259,67573,1,2,3:2:0:0:
291,266,67744,2,0,L|383:304,1,80.8500024673463,8|2,0:0|0:0,0:0:0:0:
248,338,68087,1,0,3:2:0:0:
146,369,68259,5,2,3:2:0:0:
81,335,68430,1,0,3:2:0:0:
6,338,68601,2,0,L|34:213,1,121.275003701019,8|8,0:0|0:0,0:0:0:0:
32,194,68944,1,2,3:2:0:0:
88,115,69116,2,0,L|-6:93,1,80.8500024673463,0|10,3:2|0:0,0:0:0:0:
78,29,69459,1,0,3:2:0:0:
192,90,69630,6,0,L|214:177,1,80.8500024673463,6|0,3:2|3:2,0:0:0:0:
346,244,69973,2,0,L|259:219,1,80.8500024673463,10|0,0:0|0:0,0:0:0:0:
177,241,70316,2,0,L|100:220,1,80.8500024673463,2|8,3:2|0:0,0:0:0:0:
243,338,70659,2,0,B|260:311|260:311|269:208,1,121.275003701019,2|0,0:0|0:0,0:0:0:0:
254,202,71001,5,2,3:2:0:0:
306,144,71173,1,0,3:2:0:0:
378,137,71344,2,0,L|462:158,1,80.8500024673463,10|0,0:0|3:2,0:0:0:0:
462,150,71601,1,8,0:0:0:0:
467,144,71687,1,2,3:2:0:0:
423,67,71859,1,0,3:2:0:0:
297,55,72030,2,0,L|211:78,1,80.8500024673463,10|0,0:0|3:2,0:0:0:0:
380,170,72373,6,0,L|397:261,1,80.8500024673463,6|0,3:2|3:2,0:0:0:0:
475,316,72716,2,0,B|438:299|438:299|315:294,1,161.700004934693,10|2,0:0|3:2,0:0:0:0:
233,224,73230,2,0,L|330:215,1,80.8500024673463,8|2,0:0|0:0,0:0:0:0:
248,321,73573,1,0,3:2:0:0:
151,282,73744,6,0,B|133:249|133:249|131:181,1,80.8500024673463,2|0,3:2|3:2,0:0:0:0:
76,137,74087,2,0,B|109:119|109:119|177:117,1,80.8500024673463,10|0,0:0|3:2,0:0:0:0:
160,119,74344,1,8,0:0:0:0:
167,120,74430,1,2,3:2:0:0:
276,102,74601,1,0,3:2:0:0:
329,35,74773,2,0,L|217:18,1,80.8500024673463,10|0,0:0|3:2,0:0:0:0:
352,170,75116,6,0,B|346:208|346:208|362:273,1,80.8500024673463,6|0,3:2|3:2,0:0:0:0:
364,338,75459,2,0,B|399:324|399:324|448:277,1,80.8500024673463,10|0,0:0|0:0,0:0:0:0:
441,206,75801,1,2,3:2:0:0:
258,271,76144,2,0,L|161:274,1,80.8500024673463,2|0,0:0|3:2,0:0:0:0:
223,166,76487,5,2,3:2:0:0:
223,166,76659,2,0,B|207:128|207:128|211:68,1,80.8500024673463,0|10,3:2|0:0,0:0:0:0:
230,17,77001,2,0,L|294:0,2,40.4250012336731,0|8|2,3:2|0:0|3:2,0:0:0:0:
132,47,77344,1,0,3:2:0:0:
106,122,77516,2,0,L|18:105,1,80.8500024673463,10|0,0:0|3:2,0:0:0:0:
0,34,77858,5,2,3:2:0:0:
195,223,88830,5,2,3:2:0:0:
228,146,89001,2,0,L|379:115,2,132.299995962525,0|2|10,3:2|0:0|0:0,0:0:0:0:
148,113,89859,2,0,P|117:101|77:104,1,66.1499979812623,2|2,0:0|3:2,0:0:0:0:
48,175,90201,6,0,P|48:207|36:238,1,66.1499979812623,2|2,3:2|3:2,0:0:0:0:
92,298,90544,1,10,0:0:0:0:
170,324,90716,2,0,L|177:368,2,33.0749989906311,2|8|2,3:2|0:0|3:2,0:0:0:0:
253,352,91059,1,2,3:2:0:0:
253,352,91230,2,0,L|319:329,1,66.1499979812623,10|2,0:0|3:2,0:0:0:0:
397,300,91573,5,2,3:2:0:0:
335,253,91744,1,2,3:2:0:0:
426,172,92087,1,2,0:0:0:0:
242,126,92430,2,0,P|216:81|221:43,1,66.1499979812623,10|2,0:0|0:0,0:0:0:0:
292,35,92773,1,2,3:2:0:0:
324,118,92944,6,0,L|314:207,1,66.1499979812623,2|2,3:2|3:2,0:0:0:0:
331,258,93287,2,0,L|321:347,1,66.1499979812623,10|2,0:0|3:2,0:0:0:0:
258,367,93630,1,2,3:2:0:0:
403,295,93973,2,0,P|434:288|477:311,1,66.1499979812623,10|2,0:0|3:2,0:0:0:0:
374,364,94316,5,2,3:2:0:0:
310,293,94487,2,0,L|285:138,2,132.299995962525,2|2|10,3:2|0:0|0:0,0:0:0:0:
232,348,95344,2,0,P|194:328|160:323,1,66.1499979812623,2|2,0:0|3:2,0:0:0:0:
85,262,95687,6,0,L|67:179,1,66.1499979812623,2|2,3:2|3:2,0:0:0:0:
136,134,96030,2,0,L|150:198,1,66.1499979812623,10|2,0:0|3:2,0:0:0:0:
223,251,96373,1,2,3:2:0:0:
223,251,96544,2,0,L|315:262,2,66.1499979812623,2|10|2,3:2|0:0|3:2,0:0:0:0:
277,172,97059,5,2,3:2:0:0:
357,208,97230,2,0,P|416:224|491:182,1,132.299995962525,2|2,3:2|0:0,0:0:0:0:
352,320,97916,1,8,0:0:0:0:
352,320,98087,2,0,L|270:332,1,66.1499979812623,2|2,0:0|3:2,0:0:0:0:
204,254,98430,6,0,P|236:238|282:252,1,66.1499979812623,2|2,3:2|3:2,0:0:0:0:
307,173,98773,2,0,P|336:192|347:239,1,66.1499979812623,10|2,0:0|3:2,0:0:0:0:
347,220,99030,1,8,0:0:0:0:
347,220,99116,1,2,3:2:0:0:
441,235,99287,1,0,3:2:0:0:
445,145,99459,2,0,L|511:110,1,66.1499979812623,10|0,0:0|3:2,0:0:0:0:
362,84,99801,6,0,P|296:97|250:72,1,102.899996859741,2|10,3:2|0:0,0:0:0:0:
208,37,100316,1,2,0:0:0:0:
181,103,100487,2,0,L|201:216,1,102.899996859741,2|0,3:2|0:0,0:0:0:0:
344,326,101173,5,0,3:2:0:0:
344,326,101344,1,0,3:2:0:0:
369,251,101516,1,8,0:0:0:0:
369,251,101687,2,0,L|376:221,4,25.7249992149353,0|8|0|0|0,3:2|0:0|3:2|3:2|3:2,0:0:0:0:
297,216,102201,2,0,L|283:146,2,51.4499984298707,8|0|0,0:0|3:2|3:2,0:0:0:0:
135,191,102887,6,0,P|107:180|63:181,1,51.4499984298707,10|2,0:0|0:0,0:0:0:0:
135,267,103230,2,0,P|111:276|85:280,1,51.4499984298707,2|10,3:2|0:0,0:0:0:0:
70,269,103573,1,0,3:2:0:0:
188,334,103744,2,0,L|313:356,3,102.899996859741,2|2|2|2,3:2|3:2|3:2|3:2,0:0:0:0:
400,86,105287,6,0,P|414:114|401:187,1,102.899996859741,2|10,3:2|0:0,0:0:0:0:
346,226,105801,1,2,0:0:0:0:
307,164,105973,2,0,L|207:139,1,102.899996859741,2|0,3:2|0:0,0:0:0:0:
29,107,106659,5,0,3:2:0:0:
29,107,106830,1,0,3:2:0:0:
114,216,107173,2,0,L|133:338,1,102.899996859741,0|0,3:2|3:2,0:0:0:0:
202,283,107687,1,8,0:0:0:0:
283,338,107859,6,0,P|334:340|375:307,1,102.899996859741,2|2,3:2|0:0,0:0:0:0:
408,239,108373,2,0,L|421:130,1,102.899996859741,8|0,0:0|3:2,0:0:0:0:
422,54,108887,2,0,B|396:43|396:43|365:44,1,51.4499984298707,10|0,0:0|0:0,0:0:0:0:
86,294,110087,6,0,L|139:283,1,51.4499984298707,2|2,0:0|0:0,0:0:0:0:
205,216,110430,6,0,B|185:212|185:212|178:203|178:203|152:202,1,51.4499984298707,2|2,0:0|0:0,0:0:0:0:
58,126,110773,6,0,L|39:37,1,80.8500024673463,6|0,3:2|3:2,0:0:0:0:
146,100,111116,2,0,B|178:131|178:131|303:148,1,161.700004934693,10|2,0:0|2:3,0:0:0:0:
384,84,111630,2,0,L|473:74,1,80.8500024673463,8|2,0:0|0:0,0:0:0:0:
371,163,111973,1,0,3:2:0:0:
388,279,112144,5,2,3:2:0:0:
320,329,112316,1,0,3:2:0:0:
260,271,112487,2,0,L|167:247,1,80.8500024673463,10|0,0:0|3:2,0:0:0:0:
77,153,112830,2,0,P|136:173|224:120,1,161.700004934693,2|10,3:2|0:0,0:0:0:0:
323,72,113344,1,0,3:2:0:0:
337,205,113516,6,0,L|359:311,1,80.8500024673463,6|0,3:2|3:2,0:0:0:0:
434,374,113859,2,0,L|456:268,1,80.8500024673463,10|0,0:0|0:0,0:0:0:0:
444,184,114201,1,2,3:2:0:0:
345,297,114373,2,0,L|183:325,1,161.700004934693,8|0,0:0|3:2,0:0:0:0:
78,236,114887,6,0,B|86:194|86:194|138:160,1,80.8500024673463,2|0,3:2|3:2,0:0:0:0:
151,258,115230,2,0,B|183:285|183:285|186:347,1,80.8500024673463,10|0,0:0|3:2,0:0:0:0:
174,348,115487,1,8,0:0:0:0:
168,354,115573,1,2,3:2:0:0:
88,315,115744,2,0,L|-8:303,1,80.8500024673463,0|10,3:2|0:0,0:0:0:0:
60,231,116087,1,0,3:2:0:0:
194,195,116259,6,0,L|221:109,1,80.8500024673463,6|0,3:2|3:2,0:0:0:0:
295,36,116601,2,0,B|315:60|315:60|332:167,1,121.275003701019,10|0,0:0|0:0,0:0:0:0:
325,166,116944,1,2,3:2:0:0:
392,226,117116,2,0,L|486:212,1,80.8500024673463,8|2,0:0|0:0,0:0:0:0:
359,299,117459,1,0,3:2:0:0:
278,311,117630,6,0,L|184:297,1,80.8500024673463,2|0,3:2|3:2,0:0:0:0:
160,236,117973,1,10,0:0:0:0:
123,173,118144,2,0,L|128:117,2,40.4250012336731,0|8|2,3:2|0:0|3:2,0:0:0:0:
62,224,118487,1,0,3:2:0:0:
207,169,118659,2,0,L|299:186,1,80.8500024673463,10|0,0:0|3:2,0:0:0:0:
377,131,119001,5,6,3:2:0:0:
336,268,119173,2,0,B|313:230|313:230|296:109,1,161.700004934693,0|0,3:2|0:0,0:0:0:0:
349,35,119687,2,0,B|389:29|389:29|431:43,1,80.8500024673463,2|8,3:2|0:0,0:0:0:0:
303,103,120030,2,0,B|263:109|263:109|224:96,1,80.8500024673463,2|0,0:0|3:2,0:0:0:0:
151,60,120373,6,0,L|23:77,1,121.275003701019,2|0,3:2|0:0,0:0:0:0:
44,94,120716,2,0,B|60:112|60:112|78:172,1,80.8500024673463,10|0,0:0|3:2,0:0:0:0:
74,174,120973,1,8,0:0:0:0:
71,181,121059,1,2,3:2:0:0:
97,256,121230,1,0,3:2:0:0:
51,329,121401,2,0,L|142:360,1,80.8500024673463,10|0,0:0|3:2,0:0:0:0:
290,330,121744,6,0,L|315:243,1,80.8500024673463,6|0,3:2|3:2,0:0:0:0:
373,179,122087,2,0,B|342:135|342:135|347:23,1,161.700004934693,10|2,0:0|3:2,0:0:0:0:
236,71,122601,2,0,L|150:89,1,80.8500024673463,8|2,0:0|0:0,0:0:0:0:
78,82,122944,1,0,3:2:0:0:
44,191,123116,5,2,3:2:0:0:
41,269,123287,1,0,3:2:0:0:
115,300,123459,2,0,L|252:335,1,121.275003701019,10|8,0:0|0:0,0:0:0:0:
260,338,123801,2,0,B|286:307|286:307|291:238,1,80.8500024673463,2|0,3:2|3:2,0:0:0:0:
272,186,124144,1,10,0:0:0:0:
272,186,124316,1,0,3:2:0:0:
418,235,124487,6,0,L|509:220,1,80.8500024673463,6|0,3:2|3:2,0:0:0:0:
401,134,124830,2,0,B|377:75|377:75|377:-2|379:22,1,121.275003701019,10|0,0:0|0:0,0:0:0:0:
362,34,125173,1,2,3:2:0:0:
300,111,125344,2,0,L|211:94,1,80.8500024673463,8|2,0:0|0:0,0:0:0:0:
258,187,125687,1,0,3:2:0:0:
290,274,125859,6,0,L|379:257,1,80.8500024673463,2|0,3:2|3:2,0:0:0:0:
178,216,126201,2,0,L|98:231,1,80.8500024673463,10|0,0:0|3:2,0:0:0:0:
96,227,126459,1,8,0:0:0:0:
93,223,126544,1,2,3:2:0:0:
43,157,126716,1,0,3:2:0:0:
71,81,126887,2,0,B|81:42|81:42|118:-9,1,80.8500024673463,10|0,0:0|3:2,0:0:0:0:
246,107,127230,6,0,L|359:124,1,80.8500024673463,6|0,3:2|3:2,0:0:0:0:
423,87,127573,2,0,B|416:113|416:113|436:231,1,121.275003701019,10|0,0:0|0:0,0:0:0:0:
452,217,127916,1,2,3:2:0:0:
355,267,128087,2,0,L|329:364,1,80.8500024673463,8|2,0:0|0:0,0:0:0:0:
254,346,128430,1,0,3:2:0:0:
148,285,128601,5,2,3:2:0:0:
66,301,128773,1,0,3:2:0:0:
30,225,128944,2,0,B|63:201|63:201|112:203,1,80.8500024673463,10|0,0:0|3:2,0:0:0:0:
105,199,129201,1,8,0:0:0:0:
107,196,129287,1,2,3:2:0:0:
155,132,129459,1,0,3:2:0:0:
169,110,129630,2,0,B|136:86|136:86|87:88,1,80.8500024673463,10|0,0:0|3:2,0:0:0:0:
252,226,129973,6,0,L|402:254,1,121.275003701019,6|0,3:2|0:0,0:0:0:0:
382,258,130316,2,0,B|363:297|363:297|368:344,1,80.8500024673463,10|0,0:0|0:0,0:0:0:0:
474,274,130659,2,0,L|446:137,1,121.275003701019,2|0,3:2|0:0,0:0:0:0:
436,132,131001,2,0,B|400:118|400:118|337:130,1,80.8500024673463,2|0,0:0|3:2,0:0:0:0:
281,159,131344,5,2,3:2:0:0:
281,159,131516,1,0,3:2:0:0:
212,108,131687,1,10,0:0:0:0:
150,174,131859,2,0,L|104:190,2,40.4250012336731,0|8|2,3:2|0:0|3:2,0:0:0:0:
212,108,132201,1,0,3:2:0:0:
128,79,132373,2,0,L|34:56,1,80.8500024673463,10|0,0:0|3:2,0:0:0:0:
22,161,132716,5,4,3:2:0:0:
22,161,132887,2,0,B|19:201|19:201|37:257,1,80.8500024673463,0|8,3:2|0:0,0:0:0:0:
258,231,133401,5,0,3:2:0:0:
258,231,133572,2,0,B|294:213|294:213|333:170,1,80.8500024673463,8|0,0:0|0:0,0:0:0:0:
247,124,133916,1,0,3:2:0:0:
247,124,134087,6,0,B|213:101|213:101|156:88,1,80.8500024673463,0|0,3:2|3:2,0:0:0:0:
154,189,134430,2,0,B|151:229|151:229|169:285,1,80.8500024673463,8|0,0:0|3:2,0:0:0:0:
170,272,134687,1,8,0:0:0:0:
176,276,134773,1,0,3:2:0:0:
257,328,134944,1,0,3:2:0:0:
330,306,135116,2,0,L|413:281,1,80.8500024673463,8|0,0:0|3:2,0:0:0:0:
303,202,135459,6,0,L|232:112,1,80.8500024673463,6|0,3:2|3:2,0:0:0:0:
150,73,135801,2,0,B|187:92|187:92|332:89,1,161.700004934693,10|2,0:0|3:2,0:0:0:0:
386,92,136316,2,0,B|408:58|408:58|401:8,1,80.8500024673463,8|2,0:0|0:0,0:0:0:0:
465,160,136659,1,0,3:2:0:0:
465,160,136830,6,0,L|486:255,1,80.8500024673463,2|0,3:2|3:2,0:0:0:0:
478,343,137173,1,10,0:0:0:0:
391,340,137344,2,0,L|348:364,2,40.4250012336731,0|8|2,3:2|0:0|3:2,0:0:0:0:
383,255,137687,1,0,3:2:0:0:
303,294,137859,2,0,L|207:277,1,80.8500024673463,8|0,0:0|3:2,0:0:0:0:
147,165,138201,5,4,3:2:0:0:
147,165,138373,2,0,B|107:152|107:152|59:173,1,80.8500024673463,0|8,3:2|0:0,0:0:0:0:
316,198,138887,5,0,3:2:0:0:
316,198,139059,2,0,B|347:169|347:169|353:117,1,80.8500024673463,8|0,0:0|0:0,0:0:0:0:
235,213,139401,1,0,3:2:0:0:
235,213,139573,6,0,B|243:254|243:254|285:285,1,80.8500024673463,0|0,3:2|3:2,0:0:0:0:
262,133,139916,2,0,B|221:119|221:119|173:141,1,80.8500024673463,8|0,0:0|3:2,0:0:0:0:
179,131,140173,1,8,0:0:0:0:
172,126,140259,1,0,3:2:0:0:
97,165,140430,1,0,3:2:0:0:
33,113,140601,2,0,L|18:21,1,80.8500024673463,8|0,0:0|3:2,0:0:0:0:
106,178,140944,6,0,B|86:213|86:213|93:278,1,80.8500024673463,6|0,3:2|3:2,0:0:0:0:
164,315,141287,2,0,L|339:341,1,161.700004934693,10|2,0:0|3:2,0:0:0:0:
364,268,141801,2,0,B|378:233|378:233|374:183,1,80.8500024673463,8|2,0:0|0:0,0:0:0:0:
334,120,142144,1,0,3:2:0:0:
411,83,142316,6,0,L|504:102,1,80.8500024673463,2|0,3:2|3:2,0:0:0:0:
334,120,142659,2,0,L|254:103,1,80.8500024673463,10|0,0:0|3:2,0:0:0:0:
246,102,142916,1,8,0:0:0:0:
238,101,143001,1,2,3:2:0:0:
159,86,143173,1,0,3:2:0:0:
92,159,143344,2,0,L|69:192,2,40.4250012336731,8|8|4,3:3|3:3|3:3,0:0:0:0:
96,36,143687,5,2,3:2:0:0:
