osu file format v14

[General]
AudioFilename: audio.mp3
AudioLeadIn: 0
PreviewTime: 88807
Countdown: 0
SampleSet: Soft
StackLeniency: 0.7
Mode: 0
LetterboxInBreaks: 0
WidescreenStoryboard: 1

[Editor]
DistanceSpacing: 1
BeatDivisor: 4
GridSize: 32
TimelineZoom: 1.4

[Metadata]
Title:risuyu krov'yu
TitleUnicode:рисую кровью
Artist:bilbordy
ArtistUnicode:билборды
Creator:nemidnight
Version:mocaotic's normal
Source:
Tags:mocaotic namki paradoxa parad0xa i draw with blood russian rock alternative emo punk billboards billboards21 русский рок эмо панк альтернатива
BeatmapID:3667644
BeatmapSetID:1780595

[Difficulty]
HPDrainRate:3
CircleSize:3.4
OverallDifficulty:4
ApproachRate:5.5
SliderMultiplier:1.05
SliderTickRate:0.5

[Events]
//Background and Video events
0,0,"tears.jpg",0,0
//Break Periods
2,78059,87705
2,100001,106905
//Storyboard Layer 0 (Background)
//Storyboard Layer 1 (Fail)
//Storyboard Layer 2 (Pass)
//Storyboard Layer 3 (Foreground)
//Storyboard Layer 4 (Overlay)
//Storyboard Sound Samples

[TimingPoints]
1059,342.857142857143,4,2,1,62,1,0
1059,-100,4,2,1,62,0,0
10659,-100,4,2,2,46,0,0
12030,-95.2380952380952,4,2,1,90,0,1
33973,-100,4,2,1,62,0,0
44944,-100,4,2,1,70,0,0
54544,-100,4,2,1,70,0,0
55916,-95.2380952380952,4,2,1,90,0,1
77859,-100,4,2,1,62,0,0
88830,-100,4,2,1,62,0,0
110773,-95.2380952380952,4,2,1,90,0,1
132716,-100,4,2,1,90,0,0

[Colours]
Combo1 : 117,103,81
Combo2 : 177,171,163

[HitObjects]
12,343,1059,5,2,3:2:0:0:
68,255,1401,2,0,P|126:265|148:314,1,105,10|2,0:0|3:2,0:0:0:0:
162,352,1916,2,0,P|225:330|316:322,1,157.5,8|2,0:0|3:2,0:0:0:0:
406,374,2773,1,10,0:0:0:0:
472,331,3030,2,0,P|458:244|456:179,1,131.25,8|10,0:0|0:0,0:0:0:0:
511,111,3801,5,2,3:2:0:0:
433,39,4144,2,0,P|376:44|350:84,1,105,10|2,0:0|3:2,0:0:0:0:
306,109,4659,2,0,P|243:73|150:56,1,157.5,8|2,0:0|3:2,0:0:0:0:
64,12,5516,1,10,0:0:0:0:
1,59,5773,2,0,P|17:101|23:144,1,78.7499999999999,8|0,0:0|3:2,0:0:0:0:
0,181,6201,2,0,P|30:214|93:202,1,105,10|2,0:0|3:2,0:0:0:0:
150,125,6887,6,0,P|210:134|233:179,1,105,10|2,0:0|3:2,0:0:0:0:
272,201,7401,2,0,P|332:181|445:161,1,157.5,8|2,0:0|3:2,0:0:0:0:
507,227,8259,1,10,0:0:0:0:
470,296,8516,2,0,P|414:283|339:276,1,131.25,8|10,0:0|0:0,0:0:0:0:
270,354,9287,5,2,3:2:0:0:
169,322,9630,2,0,P|143:279|164:215,1,105,10|2,0:0|3:2,0:0:0:0:
187,187,10144,2,0,P|273:179|349:157,1,157.5,8|0,0:0|3:2,0:0:0:0:
406,77,11001,2,0,P|455:91|466:127,2,78.7499999999999,8|8|0,0:0|0:0|3:2,0:0:0:0:
360,50,11687,1,8,0:0:0:0:
260,1,12031,6,0,P|233:12|190:20,1,55.1249983177185,6|0,3:2|3:2,0:0:0:0:
154,3,12373,2,0,P|98:15|81:71,1,110.249996635437,10|2,0:0|3:2,0:0:0:0:
33,90,12887,2,0,P|48:144|57:203,1,110.249996635437,8|0,0:0|3:2,0:0:0:0:
16,235,13401,2,0,P|18:280|16:300,1,55.1249983177185,2|0,3:2|3:2,0:0:0:0:
4,343,13744,1,10,0:0:0:0:
76,384,14001,2,0,P|138:365|181:367,1,82.6874974765777,8|0,0:0|3:2,0:0:0:0:
208,379,14430,1,10,0:0:0:0:
285,300,14773,6,0,P|274:267|269:235,1,55.1249983177185,6|0,3:2|3:2,0:0:0:0:
230,209,15116,2,0,P|246:124|258:94,1,110.249996635437,10|2,0:0|3:2,0:0:0:0:
237,49,15630,1,8,0:0:0:0:
339,3,15973,1,0,3:2:0:0:
339,3,16144,2,0,P|387:12|406:22,1,55.1249983177185,2|0,3:2|3:2,0:0:0:0:
435,49,16487,2,0,P|417:101|412:146,1,82.6874974765777,10|8,0:0|0:0,0:0:0:0:
455,205,17001,1,0,3:2:0:0:
455,205,17173,2,0,P|445:251|444:277,1,55.1249983177185,10|0,0:0|3:2,0:0:0:0:
464,310,17516,6,0,P|488:328|517:331,2,55.1249983177185,6|0|10,3:2|3:2|0:0,0:0:0:0:
379,380,18201,1,2,3:2:0:0:
379,380,18373,2,0,P|330:354|273:344,1,110.249996635437,8|0,0:0|3:2,0:0:0:0:
232,310,18887,2,0,P|227:269|237:244,1,55.1249983177185,2|0,3:2|3:2,0:0:0:0:
262,210,19230,1,10,0:0:0:0:
332,167,19487,2,0,P|322:106|303:67,1,82.6874974765777,8|0,0:0|3:2,0:0:0:0:
264,63,19916,2,0,P|230:75|203:75,1,55.1249983177185,10|0,0:0|3:2,0:0:0:0:
160,53,20259,6,0,P|163:13|176:-15,2,55.1249983177185,6|0|10,3:2|3:2|0:0,0:0:0:0:
68,114,20944,1,2,3:2:0:0:
68,114,21116,2,0,P|82:140|99:232,1,110.249996635437,8|0,0:0|3:2,0:0:0:0:
149,241,21630,2,0,P|182:228|227:221,1,55.1249983177185,2|0,3:2|3:2,0:0:0:0:
252,243,21973,2,0,P|238:292|234:347,1,82.6874974765777,10|8,0:0|0:0,0:0:0:0:
294,384,22487,1,0,3:2:0:0:
294,384,22659,1,10,0:0:0:0:
400,355,23001,6,0,P|432:345|477:345,1,55.1249983177186,6|0,3:2|3:2,0:0:0:0:
496,308,23344,2,0,P|503:244|454:210,1,110.249996635437,10|2,0:0|3:2,0:0:0:0:
438,172,23858,2,0,P|383:180|332:197,1,110.249996635437,8|0,0:0|3:2,0:0:0:0:
287,231,24372,2,0,P|259:219|224:214,1,55.1249983177186,2|0,3:2|3:2,0:0:0:0:
186,187,24715,1,10,0:0:0:0:
124,242,24972,2,0,P|143:304|146:347,1,82.6874974765778,8|0,0:0|3:2,0:0:0:0:
123,372,25401,1,10,0:0:0:0:
16,344,25744,6,0,P|5:311|0:279,1,55.1249983177186,6|0,3:2|3:2,0:0:0:0:
28,242,26087,2,0,P|10:169|-3:131,1,110.249996635437,10|2,0:0|3:2,0:0:0:0:
30,90,26601,1,8,0:0:0:0:
142,112,26944,1,0,3:2:0:0:
142,112,27115,2,0,P|168:103|195:100,1,55.1249983177185,2|0,3:2|3:2,0:0:0:0:
243,73,27458,2,0,P|296:81|338:99,1,82.6874974765778,10|8,0:0|0:0,0:0:0:0:
370,165,27972,1,0,3:2:0:0:
370,165,28144,2,0,P|416:155|442:154,1,55.1249983177185,10|0,0:0|3:2,0:0:0:0:
464,117,28487,6,0,P|491:124|520:152,2,55.1249983177186,6|0|10,3:2|3:2|0:0,0:0:0:0:
421,20,29172,1,2,3:2:0:0:
421,20,29344,2,0,P|372:46|315:56,1,110.249996635437,8|0,0:0|3:2,0:0:0:0:
265,71,29858,2,0,P|275:111|277:136,1,55.1249983177186,2|0,3:2|3:2,0:0:0:0:
254,175,30201,1,10,0:0:0:0:
187,224,30458,2,0,P|197:285|216:324,1,82.6874974765777,8|0,0:0|3:2,0:0:0:0:
256,323,30887,2,0,P|290:311|317:311,1,55.1249983177185,10|0,0:0|3:2,0:0:0:0:
360,330,31230,6,0,P|357:370|344:398,2,55.1249983177185,6|0|10,3:2|3:2|0:0,0:0:0:0:
452,268,31915,1,2,3:2:0:0:
452,268,32087,2,0,P|444:212|421:150,1,110.249996635437,8|0,0:0|3:2,0:0:0:0:
373,145,32601,2,0,P|346:151|320:162,1,55.1249983177185,2|0,3:2|3:2,0:0:0:0:
279,198,32944,2,0,P|230:184|175:180,1,82.6874974765777,10|8,0:0|0:0,0:0:0:0:
132,140,33458,1,0,3:2:0:0:
132,140,33630,1,10,0:0:0:0:
178,45,33973,6,0,P|249:24|298:27,1,105,2|10,3:2|0:0,0:0:0:0:
328,4,34487,1,2,0:0:0:0:
422,49,34830,2,0,P|441:86|408:144,1,105,10|2,0:0|3:2,0:0:0:0:
375,174,35344,2,0,P|337:164|314:164,1,52.5,2|2,3:2|3:2,0:0:0:0:
275,142,35687,2,0,P|221:159|187:160,1,78.75,10|8,0:0|0:0,0:0:0:0:
75,115,36373,1,10,0:0:0:0:
0,187,36716,6,0,P|24:266|27:304,1,105,2|8,3:2|0:0,0:0:0:0:
2,334,37230,2,0,P|32:367|98:368,1,105,2|10,0:0|0:0,0:0:0:0:
194,381,37916,1,2,3:2:0:0:
194,381,38087,2,0,P|244:364|314:360,1,105,2|10,3:2|0:0,0:0:0:0:
355,307,38687,2,0,P|422:325|443:338,1,78.75,8|2,0:0|3:2,0:0:0:0:
470,362,39116,1,10,0:0:0:0:
512,266,39459,6,0,P|505:185|506:152,1,105,2|8,3:2|0:0,0:0:0:0:
512,109,39973,1,2,0:0:0:0:
433,39,40316,2,0,P|379:28|337:70,1,105,10|2,0:0|3:2,0:0:0:0:
316,102,40830,1,2,3:2:0:0:
255,187,41173,2,0,P|208:183|179:150,1,78.75,10|8,0:0|0:0,0:0:0:0:
126,45,41859,1,10,0:0:0:0:
34,95,42201,6,0,P|45:147|51:207,1,105,2|8,3:2|0:0,0:0:0:0:
29,247,42716,1,2,0:0:0:0:
85,335,43059,2,0,P|133:351|184:313,1,105,10|2,0:0|3:2,0:0:0:0:
216,293,43573,2,0,P|211:256|199:231,1,52.5,2|2,3:2|3:0,0:0:0:0:
161,213,43916,2,0,P|163:166|179:120,1,78.75,10|8,0:0|0:0,0:0:0:0:
225,9,44601,2,0,P|259:5|283:16,1,52.5,10|4,3:3|3:3,0:0:0:0:
299,58,44944,6,0,P|348:70|398:39,1,105,2|10,3:2|0:0,0:0:0:0:
436,14,45459,1,2,0:0:0:0:
511,87,45801,2,0,P|502:129|495:192,1,105,10|2,0:0|3:2,0:0:0:0:
459,230,46316,2,0,P|477:274|481:300,1,52.5,2|2,3:2|3:2,0:0:0:0:
510,320,46659,1,10,0:0:0:0:
448,368,46916,2,0,P|404:371|354:385,1,78.75,8|2,0:0|3:2,0:0:0:0:
319,367,47344,1,10,0:0:0:0:
219,332,47687,6,0,P|187:338|163:346,1,52.5,2|2,3:2|3:2,0:0:0:0:
123,372,48030,2,0,P|65:358|54:303,1,105,8|0,0:0|3:2,0:0:0:0:
19,277,48544,1,10,0:0:0:0:
94,204,48887,1,2,3:2:0:0:
94,204,49059,2,0,P|129:211|158:227,1,52.5,2|2,3:2|3:2,0:0:0:0:
186,248,49401,2,0,P|240:232|278:231,1,78.75,10|8,0:0|0:0,0:0:0:0:
336,270,49916,2,0,P|362:262|394:260,1,52.5,2|10,3:2|0:0,0:0:0:0:
476,204,50430,6,0,P|474:172|458:93,1,105,2|8,3:2|0:0,0:0:0:0:
488,56,50944,1,2,0:0:0:0:
394,8,51287,2,0,P|341:21|278:19,1,105,10|2,0:0|3:2,0:0:0:0:
247,51,51801,2,0,P|208:43|181:40,1,52.5,2|2,3:2|3:2,0:0:0:0:
151,12,52144,1,10,0:0:0:0:
75,35,52401,2,0,P|59:79|76:121,1,78.75,8|2,0:0|3:2,0:0:0:0:
91,155,52830,1,10,0:0:0:0:
183,205,53173,6,0,P|248:185|296:183,1,105,2|8,3:2|0:0,0:0:0:0:
374,125,53859,1,0,3:2:0:0:
374,125,54030,2,0,P|422:134|480:153,1,105,10|2,0:0|3:2,0:0:0:0:
508,192,54544,1,2,3:2:0:0:
508,192,55916,6,0,P|475:198|443:219,1,55.1249983177186,6|0,3:2|3:2,0:0:0:0:
410,238,56259,2,0,P|427:301|436:364,1,110.249996635437,10|2,0:0|3:2,0:0:0:0:
394,383,56773,2,0,P|340:368|281:359,1,110.249996635437,8|0,0:0|3:2,0:0:0:0:
248,319,57287,2,0,P|217:330|182:336,1,55.1249983177186,2|0,3:2|3:2,0:0:0:0:
157,374,57630,1,10,0:0:0:0:
75,358,57887,2,0,P|55:309|71:268,1,82.6874974765778,8|0,0:0|3:2,0:0:0:0:
88,233,58316,1,10,0:0:0:0:
191,193,58659,6,0,P|224:204|256:209,1,55.1249983177185,6|0,3:2|3:2,0:0:0:0:
275,252,59002,2,0,P|336:240|395:239,1,110.249996635437,10|2,0:0|3:2,0:0:0:0:
434,260,59516,1,8,0:0:0:0:
512,183,59859,1,0,3:2:0:0:
512,183,60030,2,0,P|503:135|501:107,1,55.1249983177186,2|0,3:2|3:2,0:0:0:0:
463,89,60373,2,0,P|411:71|366:66,1,82.6874974765777,10|8,0:0|0:0,0:0:0:0:
323,18,60887,1,0,3:2:0:0:
323,18,61059,2,0,P|284:30|264:32,1,55.1249983177186,10|0,0:0|3:2,0:0:0:0:
227,66,61402,6,0,P|237:93|245:129,2,55.1249983177186,6|0|10,3:2|3:2|0:0,0:0:0:0:
137,12,62087,1,2,3:2:0:0:
137,12,62259,2,0,P|80:21|27:44,1,110.249996635437,8|0,0:0|3:2,0:0:0:0:
1,85,62773,2,0,P|10:123|26:151,1,55.1249983177186,2|0,3:2|3:2,0:0:0:0:
50,181,63116,1,10,0:0:0:0:
132,188,63373,2,0,P|178:166|214:162,1,82.6874974765778,8|0,0:0|3:2,0:0:0:0:
255,132,63802,2,0,P|289:144|316:147,1,55.1249983177186,10|0,0:0|3:2,0:0:0:0:
357,123,64145,6,0,P|368:91|367:53,2,55.1249983177186,6|0|10,3:2|3:2|0:0,0:0:0:0:
444,198,64830,1,2,3:2:0:0:
444,198,65002,2,0,P|430:224|409:315,1,110.249996635437,8|0,0:0|3:2,0:0:0:0:
366,335,65516,2,0,P|333:322|288:315,1,55.1249983177185,2|0,3:2|3:2,0:0:0:0:
273,279,65859,2,0,P|224:293|169:297,1,82.6874974765777,10|8,0:0|0:0,0:0:0:0:
129,348,66373,1,0,3:2:0:0:
129,348,66545,1,10,0:0:0:0:
26,307,66887,6,0,P|16:275|16:230,1,55.1249983177186,6|0,3:2|3:2,0:0:0:0:
38,203,67230,2,0,P|95:185|158:186,1,110.249996635437,10|2,0:0|3:2,0:0:0:0:
193,210,67744,2,0,P|247:208|300:191,1,110.249996635437,8|0,0:0|3:2,0:0:0:0:
342,155,68258,2,0,P|332:126|325:92,1,55.1249983177186,2|0,3:2|3:2,0:0:0:0:
331,47,68601,1,10,0:0:0:0:
259,4,68858,2,0,P|218:7|175:17,1,82.6874974765778,8|0,0:0|3:2,0:0:0:0:
122,11,69287,1,10,0:0:0:0:
21,56,69630,6,0,P|35:90|37:121,1,55.1249983177186,6|0,3:2|3:2,0:0:0:0:
75,148,69973,2,0,P|59:213|54:255,1,110.249996635437,10|2,0:0|3:2,0:0:0:0:
16,296,70487,1,8,0:0:0:0:
89,384,70830,1,0,3:2:0:0:
89,384,71001,2,0,P|115:375|142:372,1,55.1249983177185,2|0,3:2|3:2,0:0:0:0:
187,340,71344,2,0,P|240:348|282:366,1,82.6874974765778,10|8,0:0|0:0,0:0:0:0:
350,384,71858,1,0,3:2:0:0:
350,384,72030,2,0,P|392:371|421:367,1,55.1249983177186,10|0,0:0|3:2,0:0:0:0:
448,337,72373,6,0,P|474:342|500:351,2,55.1249983177186,6|0|10,3:2|3:2|0:0,0:0:0:0:
395,245,73058,1,2,3:2:0:0:
395,245,73230,2,0,P|409:184|426:135,1,110.249996635437,8|0,0:0|3:2,0:0:0:0:
388,96,73744,2,0,P|348:86|323:84,1,55.1249983177186,2|0,3:2|3:2,0:0:0:0:
283,62,74087,1,10,0:0:0:0:
219,115,74344,2,0,P|238:162|248:215,1,82.6874974765778,8|0,0:0|3:2,0:0:0:0:
287,228,74773,2,0,P|275:264|273:294,1,55.1249983177186,10|0,0:0|3:2,0:0:0:0:
298,330,75116,6,0,P|333:322|368:333,2,55.1249983177186,6|0|10,3:2|3:2|0:0,0:0:0:0:
204,384,75801,1,2,3:2:0:0:
204,384,75973,2,0,P|146:359|94:361,1,110.249996635437,8|0,0:0|3:2,0:0:0:0:
54,327,76487,2,0,P|55:298|66:267,1,55.1249983177186,2|0,3:2|3:2,0:0:0:0:
105,237,76830,2,0,P|111:187|100:134,1,82.6874974765778,10|8,0:0|0:0,0:0:0:0:
44,109,77344,1,0,3:2:0:0:
44,109,77516,2,0,P|51:78|67:42,1,55.1249983177186,10|0,0:0|3:2,0:0:0:0:
102,25,77859,1,6,3:2:0:0:
50,14,88830,6,0,P|32:81|28:135,1,105,2|10,3:2|0:0,0:0:0:0:
5,163,89344,1,2,0:0:0:0:
102,202,89687,2,0,P|156:207|203:162,1,105,10|2,0:0|3:2,0:0:0:0:
236,146,90201,2,0,P|226:108|226:85,1,52.5,2|2,3:2|3:2,0:0:0:0:
256,52,90544,2,0,P|300:40|346:44,1,78.75,10|8,0:0|0:0,0:0:0:0:
458,0,91230,1,10,0:0:0:0:
508,92,91573,6,0,P|484:171|481:209,1,105,2|8,3:2|0:0,0:0:0:0:
439,224,92087,2,0,P|463:303|466:341,1,105,2|10,0:0|0:0,0:0:0:0:
378,382,92773,1,2,3:2:0:0:
378,382,92944,2,0,P|328:364|276:355,1,105,2|10,3:2|0:0,0:0:0:0:
210,312,93544,2,0,P|143:330|122:343,1,78.75,8|2,0:0|3:2,0:0:0:0:
93,366,93973,1,10,0:0:0:0:
5,307,94316,6,0,P|18:239|20:191,1,105,2|8,3:2|0:0,0:0:0:0:
1,155,94830,1,2,0:0:0:0:
96,110,95173,2,0,P|164:123|212:125,1,105,10|2,0:0|3:2,0:0:0:0:
239,159,95687,1,2,3:2:0:0:
307,238,96030,2,0,P|361:227|399:226,1,78.75,10|8,0:0|0:0,0:0:0:0:
484,140,96716,1,10,0:0:0:0:
434,47,97058,6,0,P|382:36|322:30,1,105,2|8,3:2|0:0,0:0:0:0:
282,7,97573,1,2,0:0:0:0:
198,70,97916,2,0,P|148:58|72:52,1,105,8|2,0:0|3:2,0:0:0:0:
48,78,98430,2,0,P|36:122|33:151,1,52.5,2|2,3:2|3:2,0:0:0:0:
2,170,98773,2,0,P|17:228|21:268,1,78.75,10|8,0:0|0:0,0:0:0:0:
72,366,99458,2,0,P|103:366|130:373,1,52.5,10|0,0:0|3:2,0:0:0:0:
175,381,99801,1,2,3:2:0:0:
256,192,108030,12,0,110087,0:0:0:0:
116,309,110773,6,0,P|149:315|181:336,1,55.1249983177186,6|0,3:2|3:2,0:0:0:0:
207,363,111116,2,0,P|261:341|333:337,1,110.249996635437,10|2,0:0|3:2,0:0:0:0:
356,302,111630,2,0,P|371:248|340:194,1,110.249996635437,8|0,0:0|3:2,0:0:0:0:
296,181,112144,2,0,P|266:192|231:195,1,55.1249983177186,2|0,3:2|3:2,0:0:0:0:
192,216,112487,1,10,0:0:0:0:
134,156,112744,2,0,P|137:101|155:71,1,82.6874974765778,8|0,0:0|3:2,0:0:0:0:
192,43,113173,1,10,0:0:0:0:
299,16,113516,6,0,P|332:27|364:32,1,55.1249983177186,6|0,3:2|3:2,0:0:0:0:
407,27,113859,2,0,P|434:82|420:147,1,110.249996635437,10|2,0:0|3:2,0:0:0:0:
453,178,114373,1,8,0:0:0:0:
385,266,114716,1,0,3:2:0:0:
385,266,114887,2,0,P|343:251|308:245,1,55.1249983177186,2|0,3:2|3:2,0:0:0:0:
293,209,115230,2,0,P|251:225|196:232,1,82.6874974765778,10|8,0:0|0:0,0:0:0:0:
151,284,115744,1,0,3:2:0:0:
151,284,115916,2,0,P|112:272|92:270,1,55.1249983177186,10|0,0:0|3:2,0:0:0:0:
51,241,116259,6,0,P|26:253|-12:259,2,55.1249983177186,6|0|10,3:2|3:2|0:0,0:0:0:0:
117,154,116944,1,2,3:2:0:0:
117,154,117116,2,0,P|105:89|101:29,1,110.249996635437,8|0,0:0|3:2,0:0:0:0:
145,11,117630,2,0,P|181:4|211:3,1,55.1249983177186,2|0,3:2|3:2,0:0:0:0:
250,24,117973,1,10,0:0:0:0:
318,69,118230,2,0,P|318:113|307:166,1,82.6874974765778,8|0,0:0|3:2,0:0:0:0:
284,199,118659,2,0,P|250:187|223:184,1,55.1249983177186,10|0,0:0|3:2,0:0:0:0:
189,220,119002,6,0,P|157:209|119:210,2,55.1249983177186,6|0|10,3:2|3:2|0:0,0:0:0:0:
239,323,119687,1,2,3:2:0:0:
239,323,119859,2,0,P|284:312|357:302,1,110.249996635437,8|0,0:0|3:2,0:0:0:0:
391,336,120373,2,0,P|427:328|464:328,1,55.1249983177186,2|0,3:2|3:2,0:0:0:0:
484,287,120716,2,0,P|471:247|466:206,1,82.6874974765777,10|8,0:0|0:0,0:0:0:0:
510,138,121230,1,0,3:2:0:0:
510,138,121402,1,10,0:0:0:0:
440,52,121744,6,0,P|412:55|386:63,1,55.1249983177186,6|0,3:2|3:2,0:0:0:0:
343,97,122087,2,0,P|346:152|358:214,1,110.249996635437,10|2,0:0|3:2,0:0:0:0:
322,250,122601,2,0,P|268:248|215:231,1,110.249996635437,8|0,0:0|3:2,0:0:0:0:
172,267,123115,2,0,P|178:297|184:332,1,55.1249983177186,2|0,3:2|3:2,0:0:0:0:
151,366,123458,1,10,0:0:0:0:
68,360,123715,2,0,P|58:319|55:278,1,82.6874974765778,8|0,0:0|3:2,0:0:0:0:
16,239,124144,1,10,0:0:0:0:
75,148,124487,6,0,P|113:150|141:162,1,55.1249983177186,6|0,3:2|3:2,0:0:0:0:
157,202,124830,2,0,P|218:206|269:180,1,110.249996635437,10|2,0:0|3:2,0:0:0:0:
316,194,125344,1,8,0:0:0:0:
379,105,125687,1,0,3:2:0:0:
379,105,125858,2,0,P|370:79|367:52,1,55.1249983177186,2|0,3:2|3:2,0:0:0:0:
323,18,126201,2,0,P|270:18|225:38,1,82.6874974765778,10|8,0:0|0:0,0:0:0:0:
185,88,126715,1,0,3:2:0:0:
185,88,126887,2,0,P|143:75|114:71,1,55.1249983177186,10|0,0:0|3:2,0:0:0:0:
79,56,127230,6,0,P|83:29|93:4,2,55.1249983177186,6|0|10,3:2|3:2|0:0,0:0:0:0:
0,133,127915,1,2,3:2:0:0:
0,133,128087,2,0,P|14:189|21:244,1,110.249996635437,8|0,0:0|3:2,0:0:0:0:
62,277,128601,2,0,P|102:267|127:265,1,55.1249983177186,2|0,3:2|3:2,0:0:0:0:
167,285,128944,1,10,0:0:0:0:
226,342,129201,2,0,P|277:335|326:313,1,82.6874974765778,8|0,0:0|3:2,0:0:0:0:
343,283,129630,2,0,P|370:287|395:296,1,55.1249983177186,10|0,0:0|3:2,0:0:0:0:
440,330,129973,6,0,P|438:368|429:393,2,55.1249983177186,6|0|10,3:2|3:2|0:0,0:0:0:0:
512,249,130658,1,2,3:2:0:0:
512,249,130830,2,0,P|502:182|503:135,1,110.249996635437,8|0,0:0|3:2,0:0:0:0:
465,98,131344,2,0,P|436:99|405:110,1,55.1249983177186,2|0,3:2|3:2,0:0:0:0:
369,142,131687,2,0,P|319:148|266:137,1,82.6874974765778,10|8,0:0|0:0,0:0:0:0:
235,86,132201,1,0,3:2:0:0:
235,86,132373,2,0,P|204:93|168:109,1,55.1249983177186,10|0,0:0|3:2,0:0:0:0:
139,131,132716,6,0,P|98:143|71:156,1,52.5,4|0,3:2|0:0,0:0:0:0:
36,141,133059,2,0,P|12:98|37:32,1,105,8|0,0:0|3:2,0:0:0:0:
63,11,133573,1,8,0:0:0:0:
169,33,133916,1,0,3:2:0:0:
169,33,134087,2,0,P|205:43|243:49,1,52.5,0|0,3:2|3:2,0:0:0:0:
255,85,134430,2,0,P|240:136|235:176,1,78.75,8|8,0:0|0:0,0:0:0:0:
183,219,134944,1,0,3:2:0:0:
183,219,135116,2,0,P|194:262|196:282,1,52.5,8|0,0:0|3:2,0:0:0:0:
168,315,135459,6,0,P|144:326|107:330,2,52.5,6|0|10,3:2|3:2|0:0,0:0:0:0:
255,382,136144,1,2,3:2:0:0:
255,382,136316,2,0,P|314:365|377:365,1,105,8|0,0:0|3:2,0:0:0:0:
408,376,136830,1,2,3:2:0:0:
495,317,137173,2,0,P|500:278|480:239,1,78.75,10|8,0:0|0:0,0:0:0:0:
416,206,137687,1,0,3:2:0:0:
416,206,137859,2,0,P|376:217|350:224,1,52.5,8|0,0:0|3:2,0:0:0:0:
321,192,138201,6,0,P|313:169|307:141,2,52.5,4|0|8,3:2|3:2|0:0,0:0:0:0:
273,288,138887,1,0,3:2:0:0:
273,288,139059,1,8,0:0:0:0:
173,253,139401,1,0,3:2:0:0:
173,253,139573,2,0,P|141:258|117:269,1,52.5,0|0,3:2|3:2,0:0:0:0:
79,296,139916,1,8,0:0:0:0:
16,248,140173,2,0,P|25:192|26:166,1,78.75,8|0,0:0|3:2,0:0:0:0:
4,122,140601,1,8,0:0:0:0:
79,48,140944,6,0,P|117:57|133:68,1,52.5,6|0,3:2|3:2,0:0:0:0:
167,98,141287,2,0,P|231:72|279:66,1,105,10|2,0:0|3:2,0:0:0:0:
315,48,141801,1,8,0:0:0:0:
413,6,142144,1,0,3:2:0:0:
413,6,142316,2,0,P|459:22|480:26,1,52.5,2|0,3:2|3:2,0:0:0:0:
511,42,142659,1,10,0:0:0:0:
507,120,142916,2,0,P|491:162|480:216,1,78.75,8|0,0:0|3:2,0:0:0:0:
441,226,143344,2,0,P|395:210|374:206,1,52.5,8|4,3:3|3:3,0:0:0:0:
341,225,143687,1,2,3:2:0:0:
