osu file format v14

[General]
AudioFilename: audio.mp3
AudioLeadIn: 0
PreviewTime: 48591
Countdown: 0
SampleSet: Soft
StackLeniency: 0.7
Mode: 3
LetterboxInBreaks: 0
SpecialStyle: 0
WidescreenStoryboard: 1

[Editor]
DistanceSpacing: 0.8
BeatDivisor: 2
GridSize: 32
TimelineZoom: 1

[Metadata]
Title:ischezayu (Lieless FRENCHCORE BOOTLEG)
TitleUnicode:исчезаю (Lieless FRENCHCORE BOOTLEG)
Artist:bilbordy
ArtistUnicode:билборды
Creator:N4iveDx
Version:Hard
Source:
Tags:russian русский electronic remix hardstyle female vocals stamina chordjacks chord jacks CJ billboards billboards21 sillot
BeatmapID:4296437
BeatmapSetID:2056100

[Difficulty]
HPDrainRate:8
CircleSize:4
OverallDifficulty:8
ApproachRate:5
SliderMultiplier:1.4
SliderTickRate:1

[Events]
//Background and Video events
0,0,"BG.jpg",0,0
//Break Periods
//Storyboard Layer 0 (Background)
//Storyboard Layer 1 (Fail)
//Storyboard Layer 2 (Pass)
//Storyboard Layer 3 (Foreground)
//Storyboard Layer 4 (Overlay)
//Storyboard Sound Samples

[TimingPoints]
1191,300,4,2,1,50,1,0
10791,-100,4,2,1,35,0,1
29991,-100,4,2,1,50,0,0
49191,-100,4,2,1,35,0,1
68391,-100,4,2,1,50,0,0
87591,-100,4,2,1,35,0,1
116391,-100,4,2,1,50,0,0

[HitObjects]
64,192,1191,5,0,0:0:0:0:
448,192,1191,1,0,0:0:0:0:
320,192,1341,1,0,0:0:0:0:
192,192,1341,1,0,0:0:0:0:
448,192,1491,1,0,0:0:0:0:
64,192,1641,1,0,0:0:0:0:
192,192,1791,1,0,0:0:0:0:
320,192,1941,1,0,0:0:0:0:
448,192,1941,1,0,0:0:0:0:
64,192,2091,1,0,0:0:0:0:
320,192,2241,1,0,0:0:0:0:
192,192,2391,1,0,0:0:0:0:
64,192,2391,1,0,0:0:0:0:
320,192,2541,1,0,0:0:0:0:
448,192,2541,1,0,0:0:0:0:
64,192,2691,1,0,0:0:0:0:
192,192,2841,1,0,0:0:0:0:
320,192,2991,1,0,0:0:0:0:
448,192,3141,1,0,0:0:0:0:
64,192,3141,1,0,0:0:0:0:
192,192,3291,1,0,0:0:0:0:
320,192,3441,1,0,0:0:0:0:
448,192,3591,1,0,0:0:0:0:
64,192,3591,1,0,0:0:0:0:
192,192,3741,1,0,0:0:0:0:
320,192,3741,1,0,0:0:0:0:
448,192,3891,1,0,0:0:0:0:
64,192,4041,1,0,0:0:0:0:
192,192,4191,1,0,0:0:0:0:
320,192,4341,1,0,0:0:0:0:
448,192,4341,1,0,0:0:0:0:
192,192,4491,1,0,0:0:0:0:
64,192,4641,1,0,0:0:0:0:
448,192,4791,1,0,0:0:0:0:
320,192,4791,1,0,0:0:0:0:
192,192,4941,1,0,0:0:0:0:
64,192,4941,1,0,0:0:0:0:
448,192,5091,1,0,0:0:0:0:
192,192,5241,1,0,0:0:0:0:
320,192,5391,1,0,0:0:0:0:
64,192,5541,1,0,0:0:0:0:
448,192,5541,1,0,0:0:0:0:
192,192,5691,1,0,0:0:0:0:
320,192,5841,1,0,0:0:0:0:
448,192,5991,1,0,0:0:0:0:
64,192,5991,1,0,0:0:0:0:
192,192,6141,1,0,0:0:0:0:
320,192,6141,1,0,0:0:0:0:
448,192,6291,1,0,0:0:0:0:
64,192,6441,1,0,0:0:0:0:
192,192,6591,1,0,0:0:0:0:
320,192,6741,1,0,0:0:0:0:
448,192,6741,1,0,0:0:0:0:
64,192,6891,1,0,0:0:0:0:
320,192,7041,1,0,0:0:0:0:
192,192,7191,1,0,0:0:0:0:
64,192,7191,1,0,0:0:0:0:
448,192,7341,1,0,0:0:0:0:
320,192,7341,1,0,0:0:0:0:
64,192,7491,1,0,0:0:0:0:
192,192,7641,1,0,0:0:0:0:
448,192,7791,1,0,0:0:0:0:
192,192,7941,1,0,0:0:0:0:
64,192,7941,1,0,0:0:0:0:
320,192,8091,1,0,0:0:0:0:
192,192,8241,1,0,0:0:0:0:
64,192,8391,1,0,0:0:0:0:
448,192,8391,1,0,0:0:0:0:
320,192,8541,1,0,0:0:0:0:
192,192,8541,1,0,0:0:0:0:
64,192,8691,1,0,0:0:0:0:
448,192,8841,1,0,0:0:0:0:
320,192,8991,1,0,0:0:0:0:
192,192,9141,1,0,0:0:0:0:
64,192,9141,1,0,0:0:0:0:
448,192,9291,1,0,0:0:0:0:
192,192,9441,1,0,0:0:0:0:
320,192,9591,1,0,0:0:0:0:
448,192,9591,1,0,0:0:0:0:
64,192,9741,1,0,0:0:0:0:
192,192,9891,1,0,0:0:0:0:
320,192,9891,1,0,0:0:0:0:
448,192,10041,1,0,0:0:0:0:
64,192,10191,1,0,0:0:0:0:
320,192,10341,1,0,0:0:0:0:
192,192,10491,1,0,0:0:0:0:
448,192,10641,1,0,0:0:0:0:
320,192,10791,1,0,0:0:0:0:
192,192,10791,1,0,0:0:0:0:
64,192,10791,1,0,0:0:0:0:
64,192,10941,1,0,0:0:0:0:
192,192,11091,1,0,0:0:0:0:
320,192,11091,1,0,0:0:0:0:
448,192,11091,1,0,0:0:0:0:
320,192,11241,1,0,0:0:0:0:
448,192,11391,1,0,0:0:0:0:
192,192,11391,1,0,0:0:0:0:
64,192,11391,1,0,0:0:0:0:
64,192,11541,1,0,0:0:0:0:
192,192,11691,1,0,0:0:0:0:
320,192,11691,1,0,0:0:0:0:
448,192,11691,1,0,0:0:0:0:
320,192,11841,1,0,0:0:0:0:
192,192,11991,1,0,0:0:0:0:
64,192,11991,1,0,0:0:0:0:
64,192,12141,1,0,0:0:0:0:
448,192,12141,1,0,0:0:0:0:
192,192,12291,1,0,0:0:0:0:
320,192,12291,1,0,0:0:0:0:
192,192,12441,1,0,0:0:0:0:
448,192,12441,1,0,0:0:0:0:
448,192,12591,1,0,0:0:0:0:
320,192,12591,1,0,0:0:0:0:
64,192,12741,1,0,0:0:0:0:
192,192,12741,1,0,0:0:0:0:
320,192,12891,1,0,0:0:0:0:
448,192,12891,1,0,0:0:0:0:
192,192,12966,1,0,0:0:0:0:
320,192,13041,1,0,0:0:0:0:
448,192,13041,1,0,0:0:0:0:
192,192,13191,1,0,0:0:0:0:
64,192,13191,1,0,0:0:0:0:
192,192,13341,1,0,0:0:0:0:
320,192,13341,1,0,0:0:0:0:
64,192,13491,1,0,0:0:0:0:
320,192,13491,1,0,0:0:0:0:
448,192,13491,1,0,0:0:0:0:
448,192,13641,1,0,0:0:0:0:
320,192,13791,1,0,0:0:0:0:
192,192,13791,1,0,0:0:0:0:
64,192,13791,1,0,0:0:0:0:
192,192,13941,1,0,0:0:0:0:
64,192,14091,1,0,0:0:0:0:
320,192,14091,1,0,0:0:0:0:
448,192,14091,1,0,0:0:0:0:
320,192,14241,1,0,0:0:0:0:
448,192,14391,1,0,0:0:0:0:
64,192,14391,1,0,0:0:0:0:
64,192,14541,1,0,0:0:0:0:
192,192,14541,1,0,0:0:0:0:
320,192,14691,1,0,0:0:0:0:
448,192,14691,1,0,0:0:0:0:
320,192,14841,1,0,0:0:0:0:
192,192,14841,1,0,0:0:0:0:
448,192,14991,1,0,0:0:0:0:
192,192,14991,1,0,0:0:0:0:
320,192,15141,1,0,0:0:0:0:
448,192,15141,1,0,0:0:0:0:
192,192,15291,1,0,0:0:0:0:
64,192,15291,1,0,0:0:0:0:
192,192,15441,1,0,0:0:0:0:
320,192,15441,1,0,0:0:0:0:
64,192,15591,1,0,0:0:0:0:
320,192,15591,1,0,0:0:0:0:
64,192,15741,1,0,0:0:0:0:
192,192,15741,1,0,0:0:0:0:
192,192,15891,1,0,0:0:0:0:
320,192,15891,1,0,0:0:0:0:
448,192,15891,1,0,0:0:0:0:
320,192,16041,1,0,0:0:0:0:
448,192,16191,1,0,0:0:0:0:
192,192,16191,1,0,0:0:0:0:
64,192,16191,1,0,0:0:0:0:
64,192,16341,1,0,0:0:0:0:
192,192,16491,1,0,0:0:0:0:
320,192,16491,1,0,0:0:0:0:
448,192,16491,1,0,0:0:0:0:
448,192,16641,1,0,0:0:0:0:
192,192,16791,1,0,0:0:0:0:
64,192,16791,1,0,0:0:0:0:
64,192,16941,1,0,0:0:0:0:
320,192,16941,1,0,0:0:0:0:
448,192,17091,1,0,0:0:0:0:
320,192,17091,1,0,0:0:0:0:
448,192,17241,1,0,0:0:0:0:
192,192,17241,1,0,0:0:0:0:
192,192,17391,1,0,0:0:0:0:
64,192,17391,1,0,0:0:0:0:
64,192,17541,1,0,0:0:0:0:
320,192,17541,1,0,0:0:0:0:
320,192,17691,1,0,0:0:0:0:
448,192,17691,1,0,0:0:0:0:
192,192,17841,1,0,0:0:0:0:
64,192,17841,1,0,0:0:0:0:
448,192,17991,1,0,0:0:0:0:
192,192,17991,1,0,0:0:0:0:
448,192,18141,1,0,0:0:0:0:
320,192,18141,1,0,0:0:0:0:
320,192,18291,1,0,0:0:0:0:
64,192,18291,1,0,0:0:0:0:
192,192,18291,1,0,0:0:0:0:
64,192,18441,1,0,0:0:0:0:
320,192,18591,1,0,0:0:0:0:
192,192,18591,1,0,0:0:0:0:
448,192,18591,1,0,0:0:0:0:
192,192,18741,1,0,0:0:0:0:
64,192,18891,1,0,0:0:0:0:
448,192,18891,1,0,0:0:0:0:
320,192,18891,1,0,0:0:0:0:
320,192,19041,1,0,0:0:0:0:
448,192,19191,1,0,0:0:0:0:
64,192,19191,1,0,0:0:0:0:
64,192,19341,1,0,0:0:0:0:
320,192,19341,1,0,0:0:0:0:
320,192,19491,1,0,0:0:0:0:
448,192,19491,1,0,0:0:0:0:
448,192,19641,1,0,0:0:0:0:
192,192,19641,1,0,0:0:0:0:
192,192,19791,1,0,0:0:0:0:
64,192,19791,1,0,0:0:0:0:
448,192,19941,1,0,0:0:0:0:
320,192,19941,1,0,0:0:0:0:
192,192,20091,1,0,0:0:0:0:
64,192,20091,1,0,0:0:0:0:
320,192,20166,1,0,0:0:0:0:
192,192,20241,1,0,0:0:0:0:
64,192,20241,1,0,0:0:0:0:
448,192,20391,1,0,0:0:0:0:
320,192,20391,1,0,0:0:0:0:
448,192,20541,1,0,0:0:0:0:
320,192,20541,1,0,0:0:0:0:
192,192,20691,1,0,0:0:0:0:
64,192,20691,1,0,0:0:0:0:
64,192,20841,1,0,0:0:0:0:
192,192,20991,1,0,0:0:0:0:
320,192,20991,1,0,0:0:0:0:
448,192,20991,1,0,0:0:0:0:
448,192,21141,1,0,0:0:0:0:
320,192,21291,1,0,0:0:0:0:
64,192,21291,1,0,0:0:0:0:
192,192,21291,1,0,0:0:0:0:
192,192,21441,1,0,0:0:0:0:
448,192,21591,1,0,0:0:0:0:
64,192,21591,1,0,0:0:0:0:
192,192,21741,1,0,0:0:0:0:
448,192,21741,1,0,0:0:0:0:
320,192,21891,1,0,0:0:0:0:
192,192,21891,1,0,0:0:0:0:
320,192,22041,1,0,0:0:0:0:
64,192,22041,1,0,0:0:0:0:
64,192,22191,1,0,0:0:0:0:
448,192,22191,1,0,0:0:0:0:
448,192,22341,1,0,0:0:0:0:
192,192,22341,1,0,0:0:0:0:
192,192,22491,1,0,0:0:0:0:
320,192,22491,1,0,0:0:0:0:
320,192,22641,1,0,0:0:0:0:
64,192,22641,1,0,0:0:0:0:
64,192,22791,1,0,0:0:0:0:
192,192,22791,1,0,0:0:0:0:
192,192,22941,1,0,0:0:0:0:
320,192,22941,1,0,0:0:0:0:
64,192,23091,1,0,0:0:0:0:
448,192,23091,1,0,0:0:0:0:
320,192,23091,1,0,0:0:0:0:
448,192,23241,1,0,0:0:0:0:
64,192,23391,1,0,0:0:0:0:
320,192,23391,1,0,0:0:0:0:
192,192,23391,1,0,0:0:0:0:
192,192,23541,1,0,0:0:0:0:
320,192,23691,1,0,0:0:0:0:
448,192,23691,1,0,0:0:0:0:
64,192,23691,1,0,0:0:0:0:
64,192,23841,1,0,0:0:0:0:
320,192,23991,1,0,0:0:0:0:
448,192,23991,1,0,0:0:0:0:
320,192,24141,1,0,0:0:0:0:
192,192,24141,1,0,0:0:0:0:
192,192,24291,1,0,0:0:0:0:
64,192,24291,1,0,0:0:0:0:
64,192,24441,1,0,0:0:0:0:
448,192,24441,1,0,0:0:0:0:
320,192,24591,1,0,0:0:0:0:
448,192,24591,1,0,0:0:0:0:
320,192,24741,1,0,0:0:0:0:
192,192,24741,1,0,0:0:0:0:
192,192,24891,1,0,0:0:0:0:
64,192,24891,1,0,0:0:0:0:
64,192,25041,1,0,0:0:0:0:
448,192,25041,1,0,0:0:0:0:
192,192,25191,1,0,0:0:0:0:
448,192,25191,1,0,0:0:0:0:
320,192,25341,1,0,0:0:0:0:
192,192,25341,1,0,0:0:0:0:
64,192,25491,1,0,0:0:0:0:
448,192,25491,1,0,0:0:0:0:
320,192,25491,1,0,0:0:0:0:
64,192,25641,1,0,0:0:0:0:
192,192,25791,1,0,0:0:0:0:
320,192,25791,1,0,0:0:0:0:
448,192,25791,1,0,0:0:0:0:
320,192,25941,1,0,0:0:0:0:
448,192,26091,1,0,0:0:0:0:
192,192,26091,1,0,0:0:0:0:
64,192,26091,1,0,0:0:0:0:
192,192,26241,1,0,0:0:0:0:
320,192,26391,1,0,0:0:0:0:
448,192,26391,1,0,0:0:0:0:
448,192,26541,1,0,0:0:0:0:
64,192,26541,1,0,0:0:0:0:
320,192,26691,1,0,0:0:0:0:
192,192,26691,1,0,0:0:0:0:
192,192,26841,1,0,0:0:0:0:
448,192,26841,1,0,0:0:0:0:
64,192,26991,1,0,0:0:0:0:
448,192,26991,1,0,0:0:0:0:
64,192,27141,1,0,0:0:0:0:
320,192,27141,1,0,0:0:0:0:
320,192,27291,1,0,0:0:0:0:
192,192,27291,1,0,0:0:0:0:
448,192,27441,1,0,0:0:0:0:
192,192,27441,1,0,0:0:0:0:
64,192,27591,1,0,0:0:0:0:
448,192,27591,1,0,0:0:0:0:
64,192,27741,1,0,0:0:0:0:
192,192,27741,1,0,0:0:0:0:
448,192,27891,1,0,0:0:0:0:
192,192,27891,1,0,0:0:0:0:
320,192,27891,1,0,0:0:0:0:
448,192,28041,1,0,0:0:0:0:
320,192,28191,1,0,0:0:0:0:
64,192,28191,1,0,0:0:0:0:
192,192,28191,1,0,0:0:0:0:
192,192,28341,1,0,0:0:0:0:
64,192,28491,1,0,0:0:0:0:
448,192,28491,1,0,0:0:0:0:
64,192,28641,1,0,0:0:0:0:
192,192,28641,1,0,0:0:0:0:
320,192,28791,1,0,0:0:0:0:
448,192,28791,1,0,0:0:0:0:
320,192,28941,1,0,0:0:0:0:
192,192,28941,1,0,0:0:0:0:
192,192,29091,1,0,0:0:0:0:
64,192,29091,1,0,0:0:0:0:
448,192,29091,1,0,0:0:0:0:
64,192,29241,1,0,0:0:0:0:
320,192,29391,1,0,0:0:0:0:
192,192,29391,1,0,0:0:0:0:
320,192,29541,1,0,0:0:0:0:
192,192,29541,1,0,0:0:0:0:
64,192,29691,1,0,0:0:0:0:
448,192,29691,1,0,0:0:0:0:
64,192,29841,1,0,0:0:0:0:
448,192,29841,1,0,0:0:0:0:
320,192,29991,1,0,0:0:0:0:
192,192,29991,1,0,0:0:0:0:
64,192,30141,1,0,0:0:0:0:
448,192,30291,1,0,0:0:0:0:
320,192,30291,1,0,0:0:0:0:
192,192,30441,1,0,0:0:0:0:
64,192,30591,1,0,0:0:0:0:
320,192,30741,1,0,0:0:0:0:
448,192,30891,1,0,0:0:0:0:
64,192,30891,1,0,0:0:0:0:
320,192,31191,1,0,0:0:0:0:
448,192,31341,1,0,0:0:0:0:
192,192,31491,1,0,0:0:0:0:
64,192,31491,1,0,0:0:0:0:
448,192,31641,1,0,0:0:0:0:
192,192,31791,1,0,0:0:0:0:
64,192,31941,1,0,0:0:0:0:
320,192,32091,1,0,0:0:0:0:
448,192,32091,1,0,0:0:0:0:
64,192,32391,1,0,0:0:0:0:
320,192,32541,1,0,0:0:0:0:
192,192,32691,1,0,0:0:0:0:
448,192,32691,1,0,0:0:0:0:
64,192,32841,1,0,0:0:0:0:
192,192,32991,1,0,0:0:0:0:
448,192,33141,1,0,0:0:0:0:
320,192,33291,1,0,0:0:0:0:
192,192,33291,1,0,0:0:0:0:
448,192,33591,1,0,0:0:0:0:
192,192,33741,1,0,0:0:0:0:
64,192,33891,1,0,0:0:0:0:
448,192,33891,1,0,0:0:0:0:
320,192,34041,1,0,0:0:0:0:
192,192,34191,1,0,0:0:0:0:
448,192,34341,1,0,0:0:0:0:
320,192,34491,1,0,0:0:0:0:
64,192,34491,1,0,0:0:0:0:
192,192,34791,1,0,0:0:0:0:
320,192,34941,1,0,0:0:0:0:
448,192,35091,1,0,0:0:0:0:
64,192,35091,1,0,0:0:0:0:
192,192,35241,1,0,0:0:0:0:
320,192,35391,1,0,0:0:0:0:
448,192,35541,1,0,0:0:0:0:
192,192,35691,1,0,0:0:0:0:
64,192,35691,1,0,0:0:0:0:
192,192,35991,1,0,0:0:0:0:
64,192,36141,1,0,0:0:0:0:
320,192,36291,1,0,0:0:0:0:
448,192,36291,1,0,0:0:0:0:
192,192,36441,1,0,0:0:0:0:
448,192,36591,1,0,0:0:0:0:
320,192,36741,1,0,0:0:0:0:
192,192,36891,1,0,0:0:0:0:
64,192,36891,1,0,0:0:0:0:
320,192,37191,1,0,0:0:0:0:
64,192,37341,1,0,0:0:0:0:
320,192,37491,1,0,0:0:0:0:
448,192,37491,1,0,0:0:0:0:
192,192,37641,1,0,0:0:0:0:
64,192,37791,1,0,0:0:0:0:
448,192,37941,1,0,0:0:0:0:
192,192,38091,1,0,0:0:0:0:
64,192,38091,1,0,0:0:0:0:
448,192,38391,1,0,0:0:0:0:
64,192,38541,1,0,0:0:0:0:
192,192,38691,1,0,0:0:0:0:
320,192,38691,1,0,0:0:0:0:
448,192,38841,1,0,0:0:0:0:
64,192,38991,1,0,0:0:0:0:
192,192,39141,1,0,0:0:0:0:
320,192,39291,1,0,0:0:0:0:
448,192,39291,1,0,0:0:0:0:
448,192,39591,1,0,0:0:0:0:
192,192,39591,1,0,0:0:0:0:
64,192,39591,1,0,0:0:0:0:
64,192,39741,1,0,0:0:0:0:
320,192,39891,1,0,0:0:0:0:
448,192,39891,1,0,0:0:0:0:
448,192,40041,1,0,0:0:0:0:
192,192,40191,1,0,0:0:0:0:
64,192,40191,1,0,0:0:0:0:
192,192,40341,1,0,0:0:0:0:
320,192,40491,1,0,0:0:0:0:
448,192,40491,1,0,0:0:0:0:
320,192,40641,1,0,0:0:0:0:
448,192,40791,1,0,0:0:0:0:
192,192,40791,1,0,0:0:0:0:
64,192,40791,1,0,0:0:0:0:
448,192,40941,1,0,0:0:0:0:
192,192,41091,1,0,0:0:0:0:
64,192,41091,1,0,0:0:0:0:
192,192,41241,1,0,0:0:0:0:
320,192,41391,1,0,0:0:0:0:
448,192,41391,1,0,0:0:0:0:
320,192,41541,1,0,0:0:0:0:
192,192,41691,1,0,0:0:0:0:
64,192,41691,1,0,0:0:0:0:
64,192,41841,1,0,0:0:0:0:
320,192,41991,1,0,0:0:0:0:
448,192,41991,1,0,0:0:0:0:
192,192,41991,1,0,0:0:0:0:
320,192,42141,1,0,0:0:0:0:
448,192,42291,1,0,0:0:0:0:
64,192,42291,1,0,0:0:0:0:
64,192,42441,1,0,0:0:0:0:
320,192,42591,1,0,0:0:0:0:
448,192,42591,1,0,0:0:0:0:
320,192,42741,1,0,0:0:0:0:
64,192,42891,1,0,0:0:0:0:
448,192,42891,1,0,0:0:0:0:
448,192,43041,1,0,0:0:0:0:
320,192,43191,1,0,0:0:0:0:
192,192,43191,1,0,0:0:0:0:
64,192,43191,1,0,0:0:0:0:
320,192,43341,1,0,0:0:0:0:
192,192,43491,1,0,0:0:0:0:
64,192,43491,1,0,0:0:0:0:
64,192,43641,1,0,0:0:0:0:
320,192,43791,1,0,0:0:0:0:
448,192,43791,1,0,0:0:0:0:
448,192,43941,1,0,0:0:0:0:
64,192,44091,1,0,0:0:0:0:
192,192,44091,1,0,0:0:0:0:
192,192,44241,1,0,0:0:0:0:
320,192,44391,1,0,0:0:0:0:
448,192,44391,1,0,0:0:0:0:
64,192,44391,1,0,0:0:0:0:
320,192,44541,1,0,0:0:0:0:
448,192,44691,1,0,0:0:0:0:
64,192,44691,1,0,0:0:0:0:
64,192,44841,1,0,0:0:0:0:
192,192,44991,1,0,0:0:0:0:
320,192,44991,1,0,0:0:0:0:
320,192,45141,1,0,0:0:0:0:
448,192,45291,1,0,0:0:0:0:
64,192,45291,1,0,0:0:0:0:
448,192,45441,1,0,0:0:0:0:
320,192,45591,1,0,0:0:0:0:
192,192,45591,1,0,0:0:0:0:
64,192,45591,1,0,0:0:0:0:
320,192,45741,1,0,0:0:0:0:
448,192,45891,1,0,0:0:0:0:
64,192,45891,1,0,0:0:0:0:
448,192,46041,1,0,0:0:0:0:
192,192,46191,1,0,0:0:0:0:
64,192,46191,1,0,0:0:0:0:
64,192,46341,1,0,0:0:0:0:
448,192,46491,1,0,0:0:0:0:
320,192,46491,1,0,0:0:0:0:
192,192,46641,1,0,0:0:0:0:
64,192,46641,1,0,0:0:0:0:
448,192,46791,1,0,0:0:0:0:
320,192,46791,1,0,0:0:0:0:
64,192,46791,1,0,0:0:0:0:
320,192,46941,1,0,0:0:0:0:
448,192,47091,1,0,0:0:0:0:
64,192,47091,1,0,0:0:0:0:
64,192,47241,1,0,0:0:0:0:
320,192,47391,1,0,0:0:0:0:
448,192,47391,1,0,0:0:0:0:
192,192,47541,1,0,0:0:0:0:
64,192,47541,1,0,0:0:0:0:
320,192,47691,1,0,0:0:0:0:
448,192,47691,1,0,0:0:0:0:
192,192,47841,1,0,0:0:0:0:
64,192,47841,1,0,0:0:0:0:
448,192,47991,1,0,0:0:0:0:
320,192,47991,1,0,0:0:0:0:
64,192,48066,1,0,0:0:0:0:
192,192,48141,1,0,0:0:0:0:
448,192,48216,1,0,0:0:0:0:
64,192,48291,1,0,0:0:0:0:
320,192,48291,1,0,0:0:0:0:
192,192,48366,1,0,0:0:0:0:
448,192,48441,1,0,0:0:0:0:
320,192,48516,1,0,0:0:0:0:
192,192,48591,1,0,0:0:0:0:
64,192,48591,1,0,0:0:0:0:
320,192,48891,1,0,0:0:0:0:
64,192,48891,1,0,0:0:0:0:
192,192,49041,1,0,0:0:0:0:
64,192,49191,1,0,0:0:0:0:
320,192,49191,1,0,0:0:0:0:
448,192,49191,1,0,0:0:0:0:
448,192,49341,1,0,0:0:0:0:
320,192,49491,1,0,0:0:0:0:
192,192,49491,1,0,0:0:0:0:
64,192,49491,1,0,0:0:0:0:
192,192,49641,1,0,0:0:0:0:
64,192,49791,1,0,0:0:0:0:
320,192,49791,1,0,0:0:0:0:
448,192,49791,1,0,0:0:0:0:
448,192,49941,1,0,0:0:0:0:
320,192,50091,1,0,0:0:0:0:
192,192,50091,1,0,0:0:0:0:
64,192,50091,1,0,0:0:0:0:
192,192,50241,1,0,0:0:0:0:
320,192,50391,1,0,0:0:0:0:
448,192,50391,1,0,0:0:0:0:
448,192,50541,1,0,0:0:0:0:
64,192,50541,1,0,0:0:0:0:
320,192,50691,1,0,0:0:0:0:
64,192,50691,1,0,0:0:0:0:
192,192,50841,1,0,0:0:0:0:
320,192,50841,1,0,0:0:0:0:
448,192,50991,1,0,0:0:0:0:
192,192,50991,1,0,0:0:0:0:
320,192,51141,1,0,0:0:0:0:
448,192,51141,1,0,0:0:0:0:
64,192,51291,1,0,0:0:0:0:
320,192,51291,1,0,0:0:0:0:
64,192,51441,1,0,0:0:0:0:
192,192,51441,1,0,0:0:0:0:
448,192,51591,1,0,0:0:0:0:
320,192,51591,1,0,0:0:0:0:
448,192,51741,1,0,0:0:0:0:
64,192,51741,1,0,0:0:0:0:
192,192,51891,1,0,0:0:0:0:
64,192,51891,1,0,0:0:0:0:
320,192,51891,1,0,0:0:0:0:
192,192,52041,1,0,0:0:0:0:
320,192,52191,1,0,0:0:0:0:
448,192,52191,1,0,0:0:0:0:
64,192,52191,1,0,0:0:0:0:
320,192,52341,1,0,0:0:0:0:
448,192,52491,1,0,0:0:0:0:
192,192,52491,1,0,0:0:0:0:
64,192,52491,1,0,0:0:0:0:
192,192,52641,1,0,0:0:0:0:
320,192,52791,1,0,0:0:0:0:
448,192,52791,1,0,0:0:0:0:
448,192,52941,1,0,0:0:0:0:
64,192,52941,1,0,0:0:0:0:
64,192,53091,1,0,0:0:0:0:
320,192,53091,1,0,0:0:0:0:
192,192,53241,1,0,0:0:0:0:
320,192,53241,1,0,0:0:0:0:
64,192,53391,1,0,0:0:0:0:
192,192,53391,1,0,0:0:0:0:
320,192,53541,1,0,0:0:0:0:
448,192,53541,1,0,0:0:0:0:
192,192,53691,1,0,0:0:0:0:
64,192,53691,1,0,0:0:0:0:
448,192,53766,1,0,0:0:0:0:
192,192,53841,1,0,0:0:0:0:
64,192,53841,1,0,0:0:0:0:
320,192,53991,1,0,0:0:0:0:
448,192,53991,1,0,0:0:0:0:
448,192,54141,1,0,0:0:0:0:
320,192,54141,1,0,0:0:0:0:
192,192,54291,1,0,0:0:0:0:
64,192,54291,1,0,0:0:0:0:
192,192,54441,1,0,0:0:0:0:
64,192,54591,1,0,0:0:0:0:
320,192,54591,1,0,0:0:0:0:
448,192,54591,1,0,0:0:0:0:
448,192,54741,1,0,0:0:0:0:
320,192,54891,1,0,0:0:0:0:
192,192,54891,1,0,0:0:0:0:
64,192,54891,1,0,0:0:0:0:
64,192,55041,1,0,0:0:0:0:
320,192,55191,1,0,0:0:0:0:
448,192,55191,1,0,0:0:0:0:
448,192,55341,1,0,0:0:0:0:
192,192,55341,1,0,0:0:0:0:
192,192,55491,1,0,0:0:0:0:
64,192,55491,1,0,0:0:0:0:
64,192,55641,1,0,0:0:0:0:
448,192,55641,1,0,0:0:0:0:
448,192,55791,1,0,0:0:0:0:
320,192,55791,1,0,0:0:0:0:
320,192,55941,1,0,0:0:0:0:
64,192,55941,1,0,0:0:0:0:
192,192,56091,1,0,0:0:0:0:
64,192,56091,1,0,0:0:0:0:
320,192,56241,1,0,0:0:0:0:
192,192,56241,1,0,0:0:0:0:
320,192,56391,1,0,0:0:0:0:
448,192,56391,1,0,0:0:0:0:
64,192,56541,1,0,0:0:0:0:
448,192,56541,1,0,0:0:0:0:
192,192,56691,1,0,0:0:0:0:
320,192,56691,1,0,0:0:0:0:
64,192,56691,1,0,0:0:0:0:
192,192,56841,1,0,0:0:0:0:
320,192,56991,1,0,0:0:0:0:
64,192,56991,1,0,0:0:0:0:
448,192,56991,1,0,0:0:0:0:
320,192,57141,1,0,0:0:0:0:
64,192,57291,1,0,0:0:0:0:
192,192,57291,1,0,0:0:0:0:
448,192,57291,1,0,0:0:0:0:
192,192,57441,1,0,0:0:0:0:
320,192,57591,1,0,0:0:0:0:
448,192,57591,1,0,0:0:0:0:
448,192,57741,1,0,0:0:0:0:
64,192,57741,1,0,0:0:0:0:
64,192,57891,1,0,0:0:0:0:
192,192,57891,1,0,0:0:0:0:
192,192,58041,1,0,0:0:0:0:
448,192,58041,1,0,0:0:0:0:
320,192,58191,1,0,0:0:0:0:
448,192,58191,1,0,0:0:0:0:
192,192,58341,1,0,0:0:0:0:
64,192,58341,1,0,0:0:0:0:
320,192,58491,1,0,0:0:0:0:
448,192,58491,1,0,0:0:0:0:
64,192,58566,1,0,0:0:0:0:
320,192,58641,1,0,0:0:0:0:
448,192,58641,1,0,0:0:0:0:
192,192,58791,1,0,0:0:0:0:
64,192,58791,1,0,0:0:0:0:
64,192,58941,1,0,0:0:0:0:
192,192,58941,1,0,0:0:0:0:
320,192,59091,1,0,0:0:0:0:
448,192,59091,1,0,0:0:0:0:
320,192,59241,1,0,0:0:0:0:
64,192,59391,1,0,0:0:0:0:
192,192,59391,1,0,0:0:0:0:
448,192,59391,1,0,0:0:0:0:
448,192,59541,1,0,0:0:0:0:
192,192,59691,1,0,0:0:0:0:
64,192,59691,1,0,0:0:0:0:
320,192,59691,1,0,0:0:0:0:
192,192,59841,1,0,0:0:0:0:
320,192,59991,1,0,0:0:0:0:
448,192,59991,1,0,0:0:0:0:
448,192,60141,1,0,0:0:0:0:
64,192,60141,1,0,0:0:0:0:
320,192,60291,1,0,0:0:0:0:
64,192,60291,1,0,0:0:0:0:
192,192,60441,1,0,0:0:0:0:
320,192,60441,1,0,0:0:0:0:
192,192,60591,1,0,0:0:0:0:
448,192,60591,1,0,0:0:0:0:
448,192,60741,1,0,0:0:0:0:
64,192,60741,1,0,0:0:0:0:
192,192,60891,1,0,0:0:0:0:
64,192,60891,1,0,0:0:0:0:
448,192,61041,1,0,0:0:0:0:
192,192,61041,1,0,0:0:0:0:
448,192,61191,1,0,0:0:0:0:
320,192,61191,1,0,0:0:0:0:
64,192,61341,1,0,0:0:0:0:
320,192,61341,1,0,0:0:0:0:
448,192,61491,1,0,0:0:0:0:
192,192,61491,1,0,0:0:0:0:
64,192,61491,1,0,0:0:0:0:
448,192,61641,1,0,0:0:0:0:
64,192,61791,1,0,0:0:0:0:
320,192,61791,1,0,0:0:0:0:
192,192,61791,1,0,0:0:0:0:
64,192,61941,1,0,0:0:0:0:
192,192,62091,1,0,0:0:0:0:
320,192,62091,1,0,0:0:0:0:
448,192,62091,1,0,0:0:0:0:
448,192,62241,1,0,0:0:0:0:
192,192,62391,1,0,0:0:0:0:
64,192,62391,1,0,0:0:0:0:
192,192,62541,1,0,0:0:0:0:
448,192,62541,1,0,0:0:0:0:
320,192,62691,1,0,0:0:0:0:
448,192,62691,1,0,0:0:0:0:
320,192,62841,1,0,0:0:0:0:
64,192,62841,1,0,0:0:0:0:
192,192,62991,1,0,0:0:0:0:
64,192,62991,1,0,0:0:0:0:
320,192,63141,1,0,0:0:0:0:
448,192,63141,1,0,0:0:0:0:
192,192,63291,1,0,0:0:0:0:
64,192,63291,1,0,0:0:0:0:
448,192,63366,1,0,0:0:0:0:
64,192,63441,1,0,0:0:0:0:
192,192,63441,1,0,0:0:0:0:
320,192,63591,1,0,0:0:0:0:
448,192,63591,1,0,0:0:0:0:
448,192,63741,1,0,0:0:0:0:
320,192,63741,1,0,0:0:0:0:
192,192,63891,1,0,0:0:0:0:
64,192,63891,1,0,0:0:0:0:
320,192,64041,1,0,0:0:0:0:
192,192,64191,1,0,0:0:0:0:
64,192,64191,1,0,0:0:0:0:
448,192,64191,1,0,0:0:0:0:
448,192,64341,1,0,0:0:0:0:
64,192,64491,1,0,0:0:0:0:
320,192,64491,1,0,0:0:0:0:
192,192,64491,1,0,0:0:0:0:
192,192,64641,1,0,0:0:0:0:
64,192,64791,1,0,0:0:0:0:
448,192,64791,1,0,0:0:0:0:
320,192,64941,1,0,0:0:0:0:
64,192,64941,1,0,0:0:0:0:
448,192,65091,1,0,0:0:0:0:
320,192,65091,1,0,0:0:0:0:
448,192,65241,1,0,0:0:0:0:
192,192,65241,1,0,0:0:0:0:
192,192,65391,1,0,0:0:0:0:
64,192,65391,1,0,0:0:0:0:
64,192,65541,1,0,0:0:0:0:
448,192,65541,1,0,0:0:0:0:
320,192,65691,1,0,0:0:0:0:
448,192,65691,1,0,0:0:0:0:
320,192,65841,1,0,0:0:0:0:
64,192,65841,1,0,0:0:0:0:
448,192,65991,1,0,0:0:0:0:
64,192,65991,1,0,0:0:0:0:
448,192,66141,1,0,0:0:0:0:
192,192,66141,1,0,0:0:0:0:
192,192,66291,1,0,0:0:0:0:
320,192,66291,1,0,0:0:0:0:
64,192,66291,1,0,0:0:0:0:
320,192,66441,1,0,0:0:0:0:
192,192,66591,1,0,0:0:0:0:
448,192,66591,1,0,0:0:0:0:
64,192,66591,1,0,0:0:0:0:
64,192,66741,1,0,0:0:0:0:
320,192,66891,1,0,0:0:0:0:
448,192,66891,1,0,0:0:0:0:
448,192,67041,1,0,0:0:0:0:
192,192,67041,1,0,0:0:0:0:
192,192,67191,1,0,0:0:0:0:
64,192,67191,1,0,0:0:0:0:
320,192,67341,1,0,0:0:0:0:
448,192,67341,1,0,0:0:0:0:
64,192,67491,1,0,0:0:0:0:
192,192,67491,1,0,0:0:0:0:
448,192,67491,1,0,0:0:0:0:
64,192,67641,1,0,0:0:0:0:
320,192,67791,1,0,0:0:0:0:
192,192,67791,1,0,0:0:0:0:
448,192,67791,1,0,0:0:0:0:
192,192,67941,1,0,0:0:0:0:
320,192,68091,1,0,0:0:0:0:
448,192,68091,1,0,0:0:0:0:
64,192,68166,1,0,0:0:0:0:
320,192,68241,1,0,0:0:0:0:
448,192,68241,1,0,0:0:0:0:
64,192,68391,1,0,0:0:0:0:
192,192,68391,1,0,0:0:0:0:
192,192,68541,1,0,0:0:0:0:
64,192,68541,1,0,0:0:0:0:
320,192,68691,1,0,0:0:0:0:
448,192,68691,1,0,0:0:0:0:
320,192,68841,1,0,0:0:0:0:
448,192,68991,1,0,0:0:0:0:
192,192,68991,1,0,0:0:0:0:
64,192,68991,1,0,0:0:0:0:
64,192,69141,1,0,0:0:0:0:
192,192,69291,1,0,0:0:0:0:
320,192,69291,1,0,0:0:0:0:
448,192,69291,1,0,0:0:0:0:
320,192,69441,1,0,0:0:0:0:
448,192,69591,1,0,0:0:0:0:
192,192,69591,1,0,0:0:0:0:
64,192,69591,1,0,0:0:0:0:
448,192,69741,1,0,0:0:0:0:
192,192,69891,1,0,0:0:0:0:
320,192,69891,1,0,0:0:0:0:
64,192,69891,1,0,0:0:0:0:
192,192,70041,1,0,0:0:0:0:
448,192,70191,1,0,0:0:0:0:
320,192,70191,1,0,0:0:0:0:
64,192,70191,1,0,0:0:0:0:
320,192,70341,1,0,0:0:0:0:
64,192,70491,1,0,0:0:0:0:
192,192,70491,1,0,0:0:0:0:
448,192,70491,1,0,0:0:0:0:
64,192,70641,1,0,0:0:0:0:
192,192,70791,1,0,0:0:0:0:
448,192,70791,1,0,0:0:0:0:
320,192,70791,1,0,0:0:0:0:
192,192,70941,1,0,0:0:0:0:
320,192,71091,1,0,0:0:0:0:
448,192,71091,1,0,0:0:0:0:
64,192,71091,1,0,0:0:0:0:
320,192,71241,1,0,0:0:0:0:
192,192,71391,1,0,0:0:0:0:
64,192,71391,1,0,0:0:0:0:
448,192,71391,1,0,0:0:0:0:
192,192,71541,1,0,0:0:0:0:
320,192,71691,1,0,0:0:0:0:
448,192,71691,1,0,0:0:0:0:
64,192,71691,1,0,0:0:0:0:
320,192,71841,1,0,0:0:0:0:
448,192,71991,1,0,0:0:0:0:
192,192,71991,1,0,0:0:0:0:
64,192,71991,1,0,0:0:0:0:
64,192,72141,1,0,0:0:0:0:
192,192,72291,1,0,0:0:0:0:
320,192,72291,1,0,0:0:0:0:
448,192,72291,1,0,0:0:0:0:
448,192,72441,1,0,0:0:0:0:
192,192,72591,1,0,0:0:0:0:
64,192,72591,1,0,0:0:0:0:
320,192,72591,1,0,0:0:0:0:
192,192,72741,1,0,0:0:0:0:
448,192,72891,1,0,0:0:0:0:
64,192,72891,1,0,0:0:0:0:
320,192,72966,1,0,0:0:0:0:
448,192,73041,1,0,0:0:0:0:
64,192,73041,1,0,0:0:0:0:
192,192,73191,1,0,0:0:0:0:
320,192,73191,1,0,0:0:0:0:
448,192,73341,1,0,0:0:0:0:
64,192,73341,1,0,0:0:0:0:
320,192,73491,1,0,0:0:0:0:
192,192,73491,1,0,0:0:0:0:
448,192,73491,1,0,0:0:0:0:
320,192,73641,1,0,0:0:0:0:
192,192,73791,1,0,0:0:0:0:
64,192,73791,1,0,0:0:0:0:
448,192,73791,1,0,0:0:0:0:
64,192,73941,1,0,0:0:0:0:
192,192,74091,1,0,0:0:0:0:
320,192,74091,1,0,0:0:0:0:
448,192,74091,1,0,0:0:0:0:
448,192,74241,1,0,0:0:0:0:
320,192,74391,1,0,0:0:0:0:
192,192,74391,1,0,0:0:0:0:
64,192,74391,1,0,0:0:0:0:
64,192,74541,1,0,0:0:0:0:
192,192,74691,1,0,0:0:0:0:
320,192,74691,1,0,0:0:0:0:
448,192,74691,1,0,0:0:0:0:
320,192,74841,1,0,0:0:0:0:
448,192,74991,1,0,0:0:0:0:
192,192,74991,1,0,0:0:0:0:
64,192,74991,1,0,0:0:0:0:
64,192,75141,1,0,0:0:0:0:
192,192,75291,1,0,0:0:0:0:
320,192,75291,1,0,0:0:0:0:
448,192,75291,1,0,0:0:0:0:
320,192,75441,1,0,0:0:0:0:
192,192,75591,1,0,0:0:0:0:
64,192,75591,1,0,0:0:0:0:
64,192,75741,1,0,0:0:0:0:
320,192,75891,1,0,0:0:0:0:
448,192,75891,1,0,0:0:0:0:
448,192,76041,1,0,0:0:0:0:
64,192,76191,1,0,0:0:0:0:
192,192,76191,1,0,0:0:0:0:
192,192,76341,1,0,0:0:0:0:
320,192,76491,1,0,0:0:0:0:
448,192,76491,1,0,0:0:0:0:
320,192,76641,1,0,0:0:0:0:
192,192,76791,1,0,0:0:0:0:
64,192,76791,1,0,0:0:0:0:
64,192,76941,1,0,0:0:0:0:
192,192,77091,1,0,0:0:0:0:
320,192,77091,1,0,0:0:0:0:
192,192,77241,1,0,0:0:0:0:
320,192,77391,1,0,0:0:0:0:
320,192,77541,1,0,0:0:0:0:
448,192,77691,1,0,0:0:0:0:
64,192,77691,1,0,0:0:0:0:
192,192,77766,1,0,0:0:0:0:
64,192,77841,1,0,0:0:0:0:
448,192,77841,1,0,0:0:0:0:
320,192,77991,1,0,0:0:0:0:
192,192,77991,1,0,0:0:0:0:
320,192,78141,1,0,0:0:0:0:
448,192,78141,1,0,0:0:0:0:
64,192,78291,1,0,0:0:0:0:
448,192,78441,1,0,0:0:0:0:
320,192,78591,1,0,0:0:0:0:
64,192,78741,1,0,0:0:0:0:
192,192,78741,1,0,0:0:0:0:
448,192,78891,1,0,0:0:0:0:
64,192,79041,1,0,0:0:0:0:
320,192,79191,1,0,0:0:0:0:
448,192,79191,1,0,0:0:0:0:
192,192,79341,1,0,0:0:0:0:
64,192,79341,1,0,0:0:0:0:
448,192,79491,1,0,0:0:0:0:
192,192,79641,1,0,0:0:0:0:
64,192,79791,1,0,0:0:0:0:
448,192,79941,1,0,0:0:0:0:
320,192,79941,1,0,0:0:0:0:
64,192,80091,1,0,0:0:0:0:
320,192,80241,1,0,0:0:0:0:
448,192,80391,1,0,0:0:0:0:
64,192,80391,1,0,0:0:0:0:
192,192,80541,1,0,0:0:0:0:
320,192,80541,1,0,0:0:0:0:
448,192,80691,1,0,0:0:0:0:
64,192,80841,1,0,0:0:0:0:
192,192,80991,1,0,0:0:0:0:
448,192,81141,1,0,0:0:0:0:
320,192,81141,1,0,0:0:0:0:
64,192,81291,1,0,0:0:0:0:
192,192,81441,1,0,0:0:0:0:
448,192,81591,1,0,0:0:0:0:
320,192,81591,1,0,0:0:0:0:
192,192,81741,1,0,0:0:0:0:
64,192,81741,1,0,0:0:0:0:
448,192,81891,1,0,0:0:0:0:
320,192,82041,1,0,0:0:0:0:
192,192,82191,1,0,0:0:0:0:
64,192,82341,1,0,0:0:0:0:
448,192,82341,1,0,0:0:0:0:
320,192,82491,1,0,0:0:0:0:
192,192,82641,1,0,0:0:0:0:
64,192,82791,1,0,0:0:0:0:
448,192,82791,1,0,0:0:0:0:
320,192,82941,1,0,0:0:0:0:
192,192,82941,1,0,0:0:0:0:
448,192,83091,1,0,0:0:0:0:
64,192,83241,1,0,0:0:0:0:
192,192,83391,1,0,0:0:0:0:
448,192,83541,1,0,0:0:0:0:
64,192,83541,1,0,0:0:0:0:
320,192,83691,1,0,0:0:0:0:
192,192,83841,1,0,0:0:0:0:
64,192,83991,1,0,0:0:0:0:
448,192,83991,1,0,0:0:0:0:
320,192,84141,1,0,0:0:0:0:
192,192,84141,1,0,0:0:0:0:
64,192,84291,1,0,0:0:0:0:
448,192,84441,1,0,0:0:0:0:
320,192,84591,1,0,0:0:0:0:
64,192,84741,1,0,0:0:0:0:
192,192,84741,1,0,0:0:0:0:
448,192,84891,1,0,0:0:0:0:
320,192,85041,1,0,0:0:0:0:
192,192,85191,1,0,0:0:0:0:
64,192,85191,1,0,0:0:0:0:
448,192,85341,1,0,0:0:0:0:
320,192,85341,1,0,0:0:0:0:
192,192,85491,1,0,0:0:0:0:
64,192,85641,1,0,0:0:0:0:
448,192,85791,1,0,0:0:0:0:
192,192,85941,1,0,0:0:0:0:
64,192,85941,1,0,0:0:0:0:
320,192,86091,1,0,0:0:0:0:
448,192,86241,1,0,0:0:0:0:
192,192,86391,1,0,0:0:0:0:
64,192,86391,1,0,0:0:0:0:
320,192,86541,1,0,0:0:0:0:
448,192,86691,1,0,0:0:0:0:
64,192,86841,1,0,0:0:0:0:
192,192,86991,1,0,0:0:0:0:
448,192,87141,1,0,0:0:0:0:
64,192,87291,1,0,0:0:0:0:
320,192,87441,1,0,0:0:0:0:
448,192,87591,1,0,0:0:0:0:
192,192,87591,1,0,0:0:0:0:
64,192,87591,1,0,0:0:0:0:
64,192,87741,1,0,0:0:0:0:
192,192,87891,1,0,0:0:0:0:
320,192,87891,1,0,0:0:0:0:
448,192,87891,1,0,0:0:0:0:
320,192,88041,1,0,0:0:0:0:
448,192,88191,1,0,0:0:0:0:
192,192,88191,1,0,0:0:0:0:
64,192,88191,1,0,0:0:0:0:
64,192,88341,1,0,0:0:0:0:
192,192,88491,1,0,0:0:0:0:
320,192,88491,1,0,0:0:0:0:
448,192,88491,1,0,0:0:0:0:
320,192,88641,1,0,0:0:0:0:
192,192,88791,1,0,0:0:0:0:
64,192,88791,1,0,0:0:0:0:
64,192,88941,1,0,0:0:0:0:
448,192,88941,1,0,0:0:0:0:
192,192,89091,1,0,0:0:0:0:
448,192,89091,1,0,0:0:0:0:
320,192,89241,1,0,0:0:0:0:
192,192,89241,1,0,0:0:0:0:
64,192,89391,1,0,0:0:0:0:
320,192,89391,1,0,0:0:0:0:
64,192,89541,1,0,0:0:0:0:
448,192,89541,1,0,0:0:0:0:
320,192,89691,1,0,0:0:0:0:
448,192,89691,1,0,0:0:0:0:
64,192,89841,1,0,0:0:0:0:
320,192,89841,1,0,0:0:0:0:
64,192,89991,1,0,0:0:0:0:
448,192,89991,1,0,0:0:0:0:
448,192,90141,1,0,0:0:0:0:
192,192,90141,1,0,0:0:0:0:
64,192,90291,1,0,0:0:0:0:
320,192,90291,1,0,0:0:0:0:
192,192,90291,1,0,0:0:0:0:
320,192,90441,1,0,0:0:0:0:
192,192,90591,1,0,0:0:0:0:
64,192,90591,1,0,0:0:0:0:
448,192,90591,1,0,0:0:0:0:
192,192,90741,1,0,0:0:0:0:
64,192,90891,1,0,0:0:0:0:
320,192,90891,1,0,0:0:0:0:
448,192,90891,1,0,0:0:0:0:
320,192,91041,1,0,0:0:0:0:
448,192,91191,1,0,0:0:0:0:
64,192,91191,1,0,0:0:0:0:
320,192,91341,1,0,0:0:0:0:
64,192,91341,1,0,0:0:0:0:
192,192,91491,1,0,0:0:0:0:
320,192,91491,1,0,0:0:0:0:
448,192,91641,1,0,0:0:0:0:
192,192,91641,1,0,0:0:0:0:
448,192,91791,1,0,0:0:0:0:
64,192,91791,1,0,0:0:0:0:
192,192,91941,1,0,0:0:0:0:
64,192,91941,1,0,0:0:0:0:
320,192,92091,1,0,0:0:0:0:
448,192,92091,1,0,0:0:0:0:
64,192,92166,1,0,0:0:0:0:
320,192,92241,1,0,0:0:0:0:
448,192,92241,1,0,0:0:0:0:
192,192,92391,1,0,0:0:0:0:
64,192,92391,1,0,0:0:0:0:
64,192,92541,1,0,0:0:0:0:
192,192,92541,1,0,0:0:0:0:
320,192,92691,1,0,0:0:0:0:
448,192,92691,1,0,0:0:0:0:
320,192,92841,1,0,0:0:0:0:
448,192,92991,1,0,0:0:0:0:
192,192,92991,1,0,0:0:0:0:
64,192,92991,1,0,0:0:0:0:
64,192,93141,1,0,0:0:0:0:
192,192,93291,1,0,0:0:0:0:
320,192,93291,1,0,0:0:0:0:
448,192,93291,1,0,0:0:0:0:
448,192,93441,1,0,0:0:0:0:
192,192,93591,1,0,0:0:0:0:
64,192,93591,1,0,0:0:0:0:
64,192,93741,1,0,0:0:0:0:
320,192,93741,1,0,0:0:0:0:
320,192,93891,1,0,0:0:0:0:
448,192,93891,1,0,0:0:0:0:
448,192,94041,1,0,0:0:0:0:
192,192,94041,1,0,0:0:0:0:
64,192,94191,1,0,0:0:0:0:
192,192,94191,1,0,0:0:0:0:
64,192,94341,1,0,0:0:0:0:
320,192,94341,1,0,0:0:0:0:
448,192,94491,1,0,0:0:0:0:
320,192,94491,1,0,0:0:0:0:
448,192,94641,1,0,0:0:0:0:
192,192,94641,1,0,0:0:0:0:
64,192,94791,1,0,0:0:0:0:
192,192,94791,1,0,0:0:0:0:
64,192,94941,1,0,0:0:0:0:
320,192,94941,1,0,0:0:0:0:
320,192,95091,1,0,0:0:0:0:
448,192,95091,1,0,0:0:0:0:
192,192,95091,1,0,0:0:0:0:
448,192,95241,1,0,0:0:0:0:
320,192,95391,1,0,0:0:0:0:
192,192,95391,1,0,0:0:0:0:
64,192,95391,1,0,0:0:0:0:
192,192,95541,1,0,0:0:0:0:
448,192,95691,1,0,0:0:0:0:
320,192,95691,1,0,0:0:0:0:
64,192,95691,1,0,0:0:0:0:
320,192,95841,1,0,0:0:0:0:
64,192,95991,1,0,0:0:0:0:
448,192,95991,1,0,0:0:0:0:
64,192,96141,1,0,0:0:0:0:
320,192,96141,1,0,0:0:0:0:
448,192,96291,1,0,0:0:0:0:
192,192,96291,1,0,0:0:0:0:
320,192,96441,1,0,0:0:0:0:
448,192,96441,1,0,0:0:0:0:
192,192,96591,1,0,0:0:0:0:
64,192,96591,1,0,0:0:0:0:
320,192,96741,1,0,0:0:0:0:
448,192,96741,1,0,0:0:0:0:
192,192,96891,1,0,0:0:0:0:
64,192,96891,1,0,0:0:0:0:
448,192,96966,1,0,0:0:0:0:
64,192,97041,1,0,0:0:0:0:
192,192,97041,1,0,0:0:0:0:
320,192,97191,1,0,0:0:0:0:
448,192,97191,1,0,0:0:0:0:
320,192,97341,1,0,0:0:0:0:
448,192,97341,1,0,0:0:0:0:
64,192,97491,1,0,0:0:0:0:
192,192,97491,1,0,0:0:0:0:
64,192,97641,1,0,0:0:0:0:
192,192,97791,1,0,0:0:0:0:
320,192,97791,1,0,0:0:0:0:
448,192,97791,1,0,0:0:0:0:
320,192,97941,1,0,0:0:0:0:
64,192,98091,1,0,0:0:0:0:
448,192,98091,1,0,0:0:0:0:
192,192,98091,1,0,0:0:0:0:
192,192,98241,1,0,0:0:0:0:
320,192,98391,1,0,0:0:0:0:
64,192,98391,1,0,0:0:0:0:
64,192,98541,1,0,0:0:0:0:
448,192,98541,1,0,0:0:0:0:
320,192,98691,1,0,0:0:0:0:
448,192,98691,1,0,0:0:0:0:
320,192,98841,1,0,0:0:0:0:
64,192,98841,1,0,0:0:0:0:
448,192,98991,1,0,0:0:0:0:
64,192,98991,1,0,0:0:0:0:
192,192,99141,1,0,0:0:0:0:
448,192,99141,1,0,0:0:0:0:
320,192,99291,1,0,0:0:0:0:
64,192,99291,1,0,0:0:0:0:
320,192,99441,1,0,0:0:0:0:
448,192,99441,1,0,0:0:0:0:
64,192,99591,1,0,0:0:0:0:
192,192,99591,1,0,0:0:0:0:
448,192,99741,1,0,0:0:0:0:
320,192,99741,1,0,0:0:0:0:
320,192,99891,1,0,0:0:0:0:
64,192,99891,1,0,0:0:0:0:
192,192,99891,1,0,0:0:0:0:
192,192,100041,1,0,0:0:0:0:
64,192,100191,1,0,0:0:0:0:
448,192,100191,1,0,0:0:0:0:
320,192,100191,1,0,0:0:0:0:
448,192,100341,1,0,0:0:0:0:
320,192,100491,1,0,0:0:0:0:
192,192,100491,1,0,0:0:0:0:
64,192,100491,1,0,0:0:0:0:
64,192,100641,1,0,0:0:0:0:
320,192,100791,1,0,0:0:0:0:
448,192,100791,1,0,0:0:0:0:
448,192,100941,1,0,0:0:0:0:
192,192,100941,1,0,0:0:0:0:
192,192,101091,1,0,0:0:0:0:
64,192,101091,1,0,0:0:0:0:
64,192,101241,1,0,0:0:0:0:
448,192,101241,1,0,0:0:0:0:
320,192,101391,1,0,0:0:0:0:
448,192,101391,1,0,0:0:0:0:
192,192,101541,1,0,0:0:0:0:
64,192,101541,1,0,0:0:0:0:
320,192,101691,1,0,0:0:0:0:
448,192,101691,1,0,0:0:0:0:
64,192,101766,1,0,0:0:0:0:
448,192,101841,1,0,0:0:0:0:
320,192,101841,1,0,0:0:0:0:
192,192,101991,1,0,0:0:0:0:
64,192,101991,1,0,0:0:0:0:
192,192,102141,1,0,0:0:0:0:
64,192,102141,1,0,0:0:0:0:
320,192,102291,1,0,0:0:0:0:
448,192,102291,1,0,0:0:0:0:
320,192,102441,1,0,0:0:0:0:
192,192,102591,1,0,0:0:0:0:
448,192,102591,1,0,0:0:0:0:
64,192,102591,1,0,0:0:0:0:
192,192,102741,1,0,0:0:0:0:
448,192,102891,1,0,0:0:0:0:
64,192,102891,1,0,0:0:0:0:
320,192,102891,1,0,0:0:0:0:
448,192,103041,1,0,0:0:0:0:
192,192,103191,1,0,0:0:0:0:
64,192,103191,1,0,0:0:0:0:
448,192,103341,1,0,0:0:0:0:
192,192,103341,1,0,0:0:0:0:
448,192,103491,1,0,0:0:0:0:
320,192,103491,1,0,0:0:0:0:
320,192,103641,1,0,0:0:0:0:
64,192,103641,1,0,0:0:0:0:
448,192,103791,1,0,0:0:0:0:
64,192,103791,1,0,0:0:0:0:
448,192,103941,1,0,0:0:0:0:
192,192,103941,1,0,0:0:0:0:
192,192,104091,1,0,0:0:0:0:
64,192,104091,1,0,0:0:0:0:
64,192,104241,1,0,0:0:0:0:
448,192,104241,1,0,0:0:0:0:
320,192,104391,1,0,0:0:0:0:
448,192,104391,1,0,0:0:0:0:
192,192,104541,1,0,0:0:0:0:
320,192,104541,1,0,0:0:0:0:
448,192,104691,1,0,0:0:0:0:
64,192,104691,1,0,0:0:0:0:
192,192,104691,1,0,0:0:0:0:
64,192,104841,1,0,0:0:0:0:
448,192,104991,1,0,0:0:0:0:
192,192,104991,1,0,0:0:0:0:
320,192,104991,1,0,0:0:0:0:
448,192,105141,1,0,0:0:0:0:
192,192,105291,1,0,0:0:0:0:
64,192,105291,1,0,0:0:0:0:
64,192,105441,1,0,0:0:0:0:
320,192,105441,1,0,0:0:0:0:
320,192,105591,1,0,0:0:0:0:
448,192,105591,1,0,0:0:0:0:
448,192,105741,1,0,0:0:0:0:
192,192,105741,1,0,0:0:0:0:
192,192,105891,1,0,0:0:0:0:
64,192,105891,1,0,0:0:0:0:
320,192,105891,1,0,0:0:0:0:
64,192,106041,1,0,0:0:0:0:
192,192,106191,1,0,0:0:0:0:
320,192,106191,1,0,0:0:0:0:
448,192,106191,1,0,0:0:0:0:
192,192,106341,1,0,0:0:0:0:
320,192,106491,1,0,0:0:0:0:
448,192,106491,1,0,0:0:0:0:
64,192,106566,1,0,0:0:0:0:
320,192,106641,1,0,0:0:0:0:
448,192,106641,1,0,0:0:0:0:
64,192,106791,1,0,0:0:0:0:
192,192,106791,1,0,0:0:0:0:
192,192,106941,1,0,0:0:0:0:
64,192,106941,1,0,0:0:0:0:
320,192,107091,1,0,0:0:0:0:
448,192,107091,1,0,0:0:0:0:
320,192,107241,1,0,0:0:0:0:
64,192,107391,1,0,0:0:0:0:
192,192,107391,1,0,0:0:0:0:
448,192,107391,1,0,0:0:0:0:
448,192,107541,1,0,0:0:0:0:
320,192,107691,1,0,0:0:0:0:
192,192,107691,1,0,0:0:0:0:
64,192,107691,1,0,0:0:0:0:
192,192,107841,1,0,0:0:0:0:
64,192,107991,1,0,0:0:0:0:
320,192,107991,1,0,0:0:0:0:
448,192,107991,1,0,0:0:0:0:
448,192,108141,1,0,0:0:0:0:
320,192,108291,1,0,0:0:0:0:
192,192,108291,1,0,0:0:0:0:
64,192,108291,1,0,0:0:0:0:
192,192,108441,1,0,0:0:0:0:
64,192,108591,1,0,0:0:0:0:
320,192,108591,1,0,0:0:0:0:
448,192,108591,1,0,0:0:0:0:
448,192,108741,1,0,0:0:0:0:
192,192,108891,1,0,0:0:0:0:
320,192,108891,1,0,0:0:0:0:
64,192,108891,1,0,0:0:0:0:
64,192,109041,1,0,0:0:0:0:
320,192,109191,1,0,0:0:0:0:
448,192,109191,1,0,0:0:0:0:
192,192,109191,1,0,0:0:0:0:
448,192,109341,1,0,0:0:0:0:
192,192,109491,1,0,0:0:0:0:
64,192,109491,1,0,0:0:0:0:
320,192,109491,1,0,0:0:0:0:
192,192,109641,1,0,0:0:0:0:
320,192,109791,1,0,0:0:0:0:
448,192,109791,1,0,0:0:0:0:
64,192,109791,1,0,0:0:0:0:
320,192,109941,1,0,0:0:0:0:
192,192,110091,1,0,0:0:0:0:
64,192,110091,1,0,0:0:0:0:
448,192,110091,1,0,0:0:0:0:
192,192,110241,1,0,0:0:0:0:
64,192,110391,1,0,0:0:0:0:
320,192,110391,1,0,0:0:0:0:
448,192,110391,1,0,0:0:0:0:
448,192,110541,1,0,0:0:0:0:
320,192,110691,1,0,0:0:0:0:
192,192,110691,1,0,0:0:0:0:
64,192,110691,1,0,0:0:0:0:
64,192,110841,1,0,0:0:0:0:
320,192,110991,1,0,0:0:0:0:
448,192,110991,1,0,0:0:0:0:
192,192,110991,1,0,0:0:0:0:
320,192,111141,1,0,0:0:0:0:
64,192,111291,1,0,0:0:0:0:
448,192,111291,1,0,0:0:0:0:
192,192,111366,1,0,0:0:0:0:
64,192,111441,1,0,0:0:0:0:
448,192,111441,1,0,0:0:0:0:
320,192,111591,1,0,0:0:0:0:
192,192,111591,1,0,0:0:0:0:
192,192,111741,1,0,0:0:0:0:
320,192,111741,1,0,0:0:0:0:
448,192,111891,1,0,0:0:0:0:
64,192,111891,1,0,0:0:0:0:
64,192,112041,1,0,0:0:0:0:
320,192,112191,1,0,0:0:0:0:
448,192,112191,1,0,0:0:0:0:
192,192,112191,1,0,0:0:0:0:
448,192,112341,1,0,0:0:0:0:
320,192,112491,1,0,0:0:0:0:
192,192,112491,1,0,0:0:0:0:
64,192,112491,1,0,0:0:0:0:
64,192,112641,1,0,0:0:0:0:
192,192,112791,1,0,0:0:0:0:
320,192,112791,1,0,0:0:0:0:
448,192,112791,1,0,0:0:0:0:
448,192,112941,1,0,0:0:0:0:
320,192,113091,1,0,0:0:0:0:
192,192,113091,1,0,0:0:0:0:
64,192,113091,1,0,0:0:0:0:
192,192,113241,1,0,0:0:0:0:
64,192,113391,1,0,0:0:0:0:
320,192,113391,1,0,0:0:0:0:
448,192,113391,1,0,0:0:0:0:
448,192,113541,1,0,0:0:0:0:
320,192,113691,1,0,0:0:0:0:
192,192,113691,1,0,0:0:0:0:
64,192,113691,1,0,0:0:0:0:
192,192,113841,1,0,0:0:0:0:
64,192,113991,1,0,0:0:0:0:
320,192,113991,1,0,0:0:0:0:
448,192,113991,1,0,0:0:0:0:
448,192,114141,1,0,0:0:0:0:
320,192,114291,1,0,0:0:0:0:
192,192,114291,1,0,0:0:0:0:
64,192,114291,1,0,0:0:0:0:
64,192,114441,1,0,0:0:0:0:
192,192,114591,1,0,0:0:0:0:
448,192,114591,1,0,0:0:0:0:
320,192,114591,1,0,0:0:0:0:
320,192,114741,1,0,0:0:0:0:
192,192,114891,1,0,0:0:0:0:
64,192,114891,1,0,0:0:0:0:
448,192,114891,1,0,0:0:0:0:
192,192,115041,1,0,0:0:0:0:
64,192,115191,1,0,0:0:0:0:
320,192,115191,1,0,0:0:0:0:
448,192,115191,1,0,0:0:0:0:
448,192,115341,1,0,0:0:0:0:
320,192,115491,1,0,0:0:0:0:
192,192,115491,1,0,0:0:0:0:
64,192,115491,1,0,0:0:0:0:
320,192,115641,1,0,0:0:0:0:
64,192,115791,1,0,0:0:0:0:
192,192,115791,1,0,0:0:0:0:
448,192,115791,1,0,0:0:0:0:
192,192,115941,1,0,0:0:0:0:
64,192,116091,1,0,0:0:0:0:
448,192,116091,1,0,0:0:0:0:
320,192,116166,1,0,0:0:0:0:
448,192,116241,1,0,0:0:0:0:
64,192,116241,1,0,0:0:0:0:
320,192,116391,1,0,0:0:0:0:
192,192,116391,1,0,0:0:0:0:
192,192,116541,1,0,0:0:0:0:
64,192,116691,1,0,0:0:0:0:
448,192,116691,1,0,0:0:0:0:
320,192,116691,1,0,0:0:0:0:
448,192,116841,1,0,0:0:0:0:
192,192,116991,1,0,0:0:0:0:
64,192,116991,1,0,0:0:0:0:
64,192,117141,1,0,0:0:0:0:
448,192,117291,1,0,0:0:0:0:
320,192,117291,1,0,0:0:0:0:
192,192,117291,1,0,0:0:0:0:
320,192,117441,1,0,0:0:0:0:
448,192,117591,1,0,0:0:0:0:
64,192,117591,1,0,0:0:0:0:
448,192,117741,1,0,0:0:0:0:
64,192,117891,1,0,0:0:0:0:
192,192,117891,1,0,0:0:0:0:
320,192,117891,1,0,0:0:0:0:
64,192,118041,1,0,0:0:0:0:
448,192,118191,1,0,0:0:0:0:
320,192,118191,1,0,0:0:0:0:
320,192,118341,1,0,0:0:0:0:
192,192,118491,1,0,0:0:0:0:
64,192,118491,1,0,0:0:0:0:
448,192,118491,1,0,0:0:0:0:
192,192,118641,1,0,0:0:0:0:
320,192,118791,1,0,0:0:0:0:
448,192,118791,1,0,0:0:0:0:
320,192,118941,1,0,0:0:0:0:
64,192,119091,1,0,0:0:0:0:
192,192,119091,1,0,0:0:0:0:
448,192,119091,1,0,0:0:0:0:
64,192,119241,1,0,0:0:0:0:
448,192,119391,1,0,0:0:0:0:
320,192,119391,1,0,0:0:0:0:
320,192,119541,1,0,0:0:0:0:
64,192,119691,1,0,0:0:0:0:
192,192,119691,1,0,0:0:0:0:
448,192,119691,1,0,0:0:0:0:
192,192,119841,1,0,0:0:0:0:
448,192,119991,1,0,0:0:0:0:
320,192,119991,1,0,0:0:0:0:
448,192,120141,1,0,0:0:0:0:
64,192,120291,1,0,0:0:0:0:
192,192,120291,1,0,0:0:0:0:
320,192,120291,1,0,0:0:0:0:
192,192,120441,1,0,0:0:0:0:
448,192,120591,1,0,0:0:0:0:
320,192,120591,1,0,0:0:0:0:
320,192,120741,1,0,0:0:0:0:
64,192,120891,1,0,0:0:0:0:
192,192,120891,1,0,0:0:0:0:
448,192,120966,1,0,0:0:0:0:
64,192,121041,1,0,0:0:0:0:
192,192,121041,1,0,0:0:0:0:
448,192,121191,1,0,0:0:0:0:
320,192,121191,1,0,0:0:0:0:
320,192,121341,1,0,0:0:0:0:
448,192,121491,1,0,0:0:0:0:
64,192,121491,1,0,0:0:0:0:
64,192,121641,1,0,0:0:0:0:
192,192,121791,1,0,0:0:0:0:
320,192,121791,1,0,0:0:0:0:
320,192,121941,1,0,0:0:0:0:
192,192,122091,1,0,0:0:0:0:
448,192,122091,1,0,0:0:0:0:
64,192,122091,1,0,0:0:0:0:
320,192,122241,1,0,0:0:0:0:
448,192,122391,1,0,0:0:0:0:
64,192,122391,1,0,0:0:0:0:
64,192,122541,1,0,0:0:0:0:
320,192,122691,1,0,0:0:0:0:
192,192,122691,1,0,0:0:0:0:
448,192,122691,1,0,0:0:0:0:
320,192,122841,1,0,0:0:0:0:
448,192,122991,1,0,0:0:0:0:
64,192,122991,1,0,0:0:0:0:
448,192,123141,1,0,0:0:0:0:
64,192,123291,1,0,0:0:0:0:
192,192,123291,1,0,0:0:0:0:
320,192,123291,1,0,0:0:0:0:
192,192,123441,1,0,0:0:0:0:
448,192,123591,1,0,0:0:0:0:
320,192,123591,1,0,0:0:0:0:
320,192,123741,1,0,0:0:0:0:
64,192,123891,1,0,0:0:0:0:
192,192,123891,1,0,0:0:0:0:
64,192,124041,1,0,0:0:0:0:
448,192,124191,1,0,0:0:0:0:
320,192,124191,1,0,0:0:0:0:
448,192,124341,1,0,0:0:0:0:
192,192,124491,1,0,0:0:0:0:
64,192,124491,1,0,0:0:0:0:
192,192,124641,1,0,0:0:0:0:
448,192,124791,1,0,0:0:0:0:
320,192,124791,1,0,0:0:0:0:
448,192,124941,1,0,0:0:0:0:
192,192,125091,1,0,0:0:0:0:
192,192,125241,1,0,0:0:0:0:
320,192,125391,1,0,0:0:0:0:
320,192,125541,1,0,0:0:0:0:
448,192,125691,1,0,0:0:0:0:
64,192,125766,1,0,0:0:0:0:
448,192,125841,1,0,0:0:0:0:
