osu file format v14

[General]
AudioFilename: audio.mp3
AudioLeadIn: 0
PreviewTime: 16007
Countdown: 0
SampleSet: Normal
StackLeniency: 0.7
Mode: 1
LetterboxInBreaks: 0
WidescreenStoryboard: 1

[Editor]
Bookmarks: 16007,32007,48007,80007,96007,128007,144007
DistanceSpacing: 0.4
BeatDivisor: 4
GridSize: 32
TimelineZoom: 2.2

[Metadata]
Title:sneg
TitleUnicode:снег
Artist:bilbordy
ArtistUnicode:билборды
Creator:Soraka
Version:Oni
Source:
Tags:русский рок эмо панк альтернатива russian rock alternative emo punk billboards billboards21
BeatmapID:4545098
BeatmapSetID:2155556

[Difficulty]
HPDrainRate:5
CircleSize:2
OverallDifficulty:6
ApproachRate:7
SliderMultiplier:1.2
SliderTickRate:1

[Events]
//Background and Video events
0,0,"sneg.png",0,60
//Break Periods
//Storyboard Layer 0 (Background)
//Storyboard Layer 1 (Fail)
//Storyboard Layer 2 (Pass)
//Storyboard Layer 3 (Foreground)
//Storyboard Layer 4 (Overlay)
//Storyboard Sound Samples

[TimingPoints]
7,500,4,1,0,90,1,0
16007,-62.5,4,1,0,90,0,1
30377,-64.7773279352227,4,1,0,90,0,1
30502,-65.5737704918033,4,1,0,90,0,1
30752,-67.2268907563025,4,1,0,90,0,1
31002,-68.9655172413793,4,1,0,90,0,1
31252,-70.7964601769911,4,1,0,90,0,1
31502,-72.7272727272727,4,1,0,90,0,1
31752,-74.7663551401869,4,1,0,90,0,1
31877,-75.8293838862559,4,1,0,90,0,1
32007,-76.9230769230769,4,1,0,90,0,0
32132,-90.9090909090909,4,1,0,65,0,0
40007,-90.9090909090909,4,1,0,75,0,0
46502,-81.6326530612245,4,1,0,75,0,0
46752,-77.6699029126214,4,1,0,75,0,0
47002,-74.0740740740741,4,1,0,75,0,0
47252,-70.7964601769911,4,1,0,75,0,0
47502,-67.7966101694915,4,1,0,75,0,0
47752,-65.0406504065041,4,1,0,75,0,0
48007,-62.5,4,1,0,90,0,1
78377,-64.7773279352227,4,1,0,90,0,1
78502,-65.5737704918033,4,1,0,90,0,1
78752,-67.2268907563025,4,1,0,90,0,1
79002,-68.9655172413793,4,1,0,90,0,1
79252,-70.7964601769911,4,1,0,90,0,1
79502,-72.7272727272727,4,1,0,90,0,1
79752,-74.7663551401869,4,1,0,90,0,1
79877,-75.8293838862559,4,1,0,90,0,1
80007,-76.9230769230769,4,1,0,80,0,0
94377,-73.7327188940092,4,1,0,80,0,0
94502,-72.7272727272727,4,1,0,80,0,0
94752,-70.7964601769911,4,1,0,80,0,0
95002,-68.9655172413793,4,1,0,80,0,0
95127,-68.0851063829787,4,1,0,80,0,0
95252,-67.2268907563025,4,1,0,80,0,0
95502,-65.5737704918033,4,1,0,80,0,0
95752,-64,4,1,0,80,0,0
96007,-62.5,4,1,0,80,0,1
126377,-64.7773279352227,4,1,0,90,0,1
126502,-65.5737704918033,4,1,0,90,0,1
126752,-67.2268907563025,4,1,0,90,0,1
127002,-68.9655172413793,4,1,0,90,0,1
127252,-70.7964601769911,4,1,0,90,0,1
127502,-72.7272727272727,4,1,0,90,0,1
127752,-74.7663551401869,4,1,0,90,0,1
127877,-75.8293838862559,4,1,0,90,0,1
128007,-76.9230769230769,4,1,0,80,0,0
142377,-79.2079207920792,4,1,0,80,0,0
142502,-80,4,1,0,80,0,0
142752,-81.6326530612245,4,1,0,80,0,0
143002,-83.3333333333333,4,1,0,80,0,0
143252,-85.1063829787234,4,1,0,80,0,0
143502,-86.9565217391304,4,1,0,80,0,0
143752,-88.8888888888889,4,1,0,80,0,0
144002,-90.9090909090909,4,1,0,80,0,0

[Colours]
Combo1 : 168,91,219
Combo2 : 147,200,253
Combo3 : 32,62,204
Combo4 : 214,184,250

[HitObjects]
256,192,12007,8,0,15507,0:0:0:0:
256,192,16007,5,4,0:0:0:0:
256,192,16382,1,0,0:0:0:0:
256,192,16507,1,8,0:0:0:0:
256,192,16757,1,8,0:0:0:0:
256,192,16882,1,8,0:0:0:0:
256,192,17007,1,0,0:0:0:0:
256,192,17257,1,8,0:0:0:0:
256,192,17507,1,8,0:0:0:0:
256,192,17632,1,0,0:0:0:0:
256,192,17757,1,8,0:0:0:0:
256,192,17882,1,8,0:0:0:0:
256,192,18007,1,0,0:0:0:0:
256,192,18257,1,8,0:0:0:0:
256,192,18382,1,0,0:0:0:0:
256,192,18507,1,8,0:0:0:0:
256,192,18757,1,0,0:0:0:0:
256,192,19007,1,8,0:0:0:0:
256,192,19132,1,0,0:0:0:0:
256,192,19257,1,8,0:0:0:0:
256,192,19507,1,8,0:0:0:0:
256,192,19632,1,8,0:0:0:0:
256,192,19757,1,0,0:0:0:0:
256,192,20007,1,12,0:0:0:0:
256,192,20382,1,0,0:0:0:0:
256,192,20507,1,8,0:0:0:0:
256,192,20757,1,8,0:0:0:0:
256,192,20882,1,8,0:0:0:0:
256,192,21007,1,0,0:0:0:0:
256,192,21257,1,0,0:0:0:0:
256,192,21507,1,8,0:0:0:0:
256,192,21632,1,8,0:0:0:0:
256,192,21757,1,0,0:0:0:0:
256,192,21882,1,8,0:0:0:0:
256,192,22007,1,0,0:0:0:0:
256,192,22257,1,8,0:0:0:0:
256,192,22382,1,0,0:0:0:0:
256,192,22507,1,8,0:0:0:0:
256,192,22757,1,0,0:0:0:0:
256,192,23007,1,8,0:0:0:0:
256,192,23132,1,8,0:0:0:0:
256,192,23257,1,0,0:0:0:0:
256,192,23507,1,8,0:0:0:0:
256,192,23632,1,0,0:0:0:0:
256,192,23757,1,8,0:0:0:0:
256,192,24007,1,12,0:0:0:0:
256,192,24382,1,0,0:0:0:0:
256,192,24507,1,8,0:0:0:0:
256,192,24757,1,8,0:0:0:0:
256,192,24882,1,0,0:0:0:0:
256,192,25007,1,8,0:0:0:0:
256,192,25257,1,8,0:0:0:0:
256,192,25382,1,0,0:0:0:0:
256,192,25507,1,8,0:0:0:0:
256,192,25632,1,8,0:0:0:0:
256,192,25757,1,0,0:0:0:0:
256,192,26007,1,0,0:0:0:0:
256,192,26257,1,0,0:0:0:0:
256,192,26382,1,0,0:0:0:0:
256,192,26507,1,8,0:0:0:0:
256,192,26757,1,0,0:0:0:0:
256,192,27007,1,8,0:0:0:0:
256,192,27257,1,0,0:0:0:0:
256,192,27507,1,8,0:0:0:0:
256,192,27632,1,0,0:0:0:0:
256,192,27757,1,8,0:0:0:0:
256,192,27882,1,0,0:0:0:0:
256,192,28007,1,12,0:0:0:0:
256,192,28382,1,0,0:0:0:0:
256,192,28507,1,8,0:0:0:0:
256,192,28757,1,0,0:0:0:0:
256,192,29007,1,8,0:0:0:0:
256,192,29132,1,8,0:0:0:0:
256,192,29257,1,0,0:0:0:0:
256,192,29507,1,8,0:0:0:0:
256,192,29757,1,0,0:0:0:0:
256,192,29882,1,0,0:0:0:0:
256,192,30007,1,8,0:0:0:0:
256,192,30382,1,0,0:0:0:0:
256,192,30507,1,8,0:0:0:0:
256,192,30757,1,0,0:0:0:0:
256,192,31007,1,8,0:0:0:0:
256,192,31257,1,0,0:0:0:0:
256,192,31507,1,8,0:0:0:0:
256,192,31757,1,0,0:0:0:0:
256,192,31882,1,0,0:0:0:0:
256,192,32007,1,8,0:0:0:0:
256,192,32757,1,0,0:0:0:0:
256,192,33007,1,8,0:0:0:0:
256,192,33257,1,0,0:0:0:0:
256,192,33507,1,8,0:0:0:0:
256,192,33757,1,8,0:0:0:0:
256,192,34007,1,0,0:0:0:0:
256,192,34757,1,0,0:0:0:0:
256,192,35007,1,8,0:0:0:0:
256,192,35257,1,8,0:0:0:0:
256,192,35507,1,0,0:0:0:0:
256,192,35757,1,0,0:0:0:0:
256,192,36007,1,8,0:0:0:0:
256,192,36757,1,8,0:0:0:0:
256,192,37007,1,0,0:0:0:0:
256,192,37257,1,8,0:0:0:0:
256,192,37507,1,8,0:0:0:0:
256,192,37757,1,0,0:0:0:0:
256,192,38007,1,8,0:0:0:0:
256,192,38507,1,8,0:0:0:0:
256,192,38757,1,0,0:0:0:0:
256,192,39007,1,8,0:0:0:0:
256,192,39507,1,8,0:0:0:0:
256,192,39757,1,0,0:0:0:0:
256,192,40007,1,0,0:0:0:0:
256,192,40757,1,0,0:0:0:0:
256,192,41007,1,8,0:0:0:0:
256,192,41257,1,0,0:0:0:0:
256,192,41507,1,8,0:0:0:0:
256,192,41632,1,0,0:0:0:0:
256,192,41757,1,8,0:0:0:0:
256,192,42007,1,0,0:0:0:0:
256,192,42757,1,0,0:0:0:0:
256,192,43007,1,8,0:0:0:0:
256,192,43257,1,0,0:0:0:0:
256,192,43507,1,8,0:0:0:0:
256,192,43632,1,0,0:0:0:0:
256,192,43757,1,0,0:0:0:0:
256,192,44007,1,8,0:0:0:0:
256,192,44757,1,0,0:0:0:0:
256,192,45007,1,8,0:0:0:0:
256,192,45257,1,0,0:0:0:0:
256,192,45507,1,8,0:0:0:0:
256,192,45632,1,0,0:0:0:0:
256,192,45757,1,8,0:0:0:0:
256,192,46007,1,0,0:0:0:0:
256,192,46507,1,8,0:0:0:0:
256,192,46757,1,0,0:0:0:0:
256,192,47007,1,8,0:0:0:0:
256,192,47257,1,0,0:0:0:0:
256,192,47507,1,8,0:0:0:0:
256,192,47757,1,8,0:0:0:0:
256,192,48007,1,4,0:0:0:0:
256,192,48382,1,0,0:0:0:0:
256,192,48507,1,8,0:0:0:0:
256,192,48757,1,8,0:0:0:0:
256,192,48882,1,8,0:0:0:0:
256,192,49007,1,0,0:0:0:0:
256,192,49257,1,8,0:0:0:0:
256,192,49507,1,8,0:0:0:0:
256,192,49632,1,8,0:0:0:0:
256,192,49757,1,0,0:0:0:0:
256,192,49882,1,8,0:0:0:0:
256,192,50007,1,0,0:0:0:0:
256,192,50257,1,8,0:0:0:0:
256,192,50382,1,0,0:0:0:0:
256,192,50507,1,8,0:0:0:0:
256,192,50757,1,0,0:0:0:0:
256,192,51007,1,8,0:0:0:0:
256,192,51132,1,0,0:0:0:0:
256,192,51257,1,8,0:0:0:0:
256,192,51507,1,8,0:0:0:0:
256,192,51632,1,8,0:0:0:0:
256,192,51757,1,0,0:0:0:0:
256,192,52007,1,12,0:0:0:0:
256,192,52382,1,0,0:0:0:0:
256,192,52507,1,8,0:0:0:0:
256,192,52757,1,8,0:0:0:0:
256,192,52882,1,8,0:0:0:0:
256,192,53007,1,0,0:0:0:0:
256,192,53257,1,0,0:0:0:0:
256,192,53507,1,8,0:0:0:0:
256,192,53632,1,0,0:0:0:0:
256,192,53757,1,8,0:0:0:0:
256,192,53882,1,8,0:0:0:0:
256,192,54007,1,0,0:0:0:0:
256,192,54257,1,8,0:0:0:0:
256,192,54382,1,0,0:0:0:0:
256,192,54507,1,8,0:0:0:0:
256,192,54757,1,0,0:0:0:0:
256,192,55007,1,8,0:0:0:0:
256,192,55132,1,8,0:0:0:0:
256,192,55257,1,0,0:0:0:0:
256,192,55507,1,8,0:0:0:0:
256,192,55632,1,0,0:0:0:0:
256,192,55757,1,8,0:0:0:0:
256,192,56007,1,12,0:0:0:0:
256,192,56382,1,0,0:0:0:0:
256,192,56507,1,8,0:0:0:0:
256,192,56757,1,8,0:0:0:0:
256,192,56882,1,0,0:0:0:0:
256,192,57007,1,8,0:0:0:0:
256,192,57257,1,8,0:0:0:0:
256,192,57382,1,0,0:0:0:0:
256,192,57507,1,8,0:0:0:0:
256,192,57632,1,8,0:0:0:0:
256,192,57757,1,0,0:0:0:0:
256,192,58007,1,0,0:0:0:0:
256,192,58257,1,0,0:0:0:0:
256,192,58382,1,0,0:0:0:0:
256,192,58507,1,8,0:0:0:0:
256,192,58757,1,0,0:0:0:0:
256,192,59007,1,8,0:0:0:0:
256,192,59257,1,0,0:0:0:0:
256,192,59507,1,8,0:0:0:0:
256,192,59632,1,0,0:0:0:0:
256,192,59757,1,8,0:0:0:0:
256,192,59882,1,0,0:0:0:0:
256,192,60007,1,12,0:0:0:0:
256,192,60382,1,0,0:0:0:0:
256,192,60507,1,8,0:0:0:0:
256,192,60757,1,0,0:0:0:0:
256,192,61007,1,8,0:0:0:0:
256,192,61132,1,8,0:0:0:0:
256,192,61257,1,0,0:0:0:0:
256,192,61507,1,8,0:0:0:0:
256,192,61757,1,0,0:0:0:0:
256,192,61882,1,8,0:0:0:0:
256,192,62007,1,0,0:0:0:0:
256,192,62382,1,0,0:0:0:0:
256,192,62507,1,8,0:0:0:0:
256,192,62757,1,0,0:0:0:0:
256,192,63007,1,8,0:0:0:0:
256,192,63257,1,0,0:0:0:0:
256,192,63507,1,8,0:0:0:0:
256,192,63757,1,0,0:0:0:0:
256,192,63882,1,0,0:0:0:0:
256,192,64007,1,12,0:0:0:0:
256,192,64382,1,0,0:0:0:0:
256,192,64507,1,8,0:0:0:0:
256,192,64757,1,8,0:0:0:0:
256,192,64882,1,0,0:0:0:0:
256,192,65007,1,8,0:0:0:0:
256,192,65257,1,8,0:0:0:0:
256,192,65507,1,8,0:0:0:0:
256,192,65632,1,0,0:0:0:0:
256,192,65757,1,8,0:0:0:0:
256,192,65882,1,8,0:0:0:0:
256,192,66007,1,0,0:0:0:0:
256,192,66257,1,8,0:0:0:0:
256,192,66382,1,8,0:0:0:0:
256,192,66507,1,0,0:0:0:0:
256,192,66757,1,0,0:0:0:0:
256,192,67007,1,8,0:0:0:0:
256,192,67132,1,0,0:0:0:0:
256,192,67257,1,8,0:0:0:0:
256,192,67507,1,8,0:0:0:0:
256,192,67632,1,8,0:0:0:0:
256,192,67757,1,0,0:0:0:0:
256,192,68007,1,12,0:0:0:0:
256,192,68382,1,0,0:0:0:0:
256,192,68507,1,8,0:0:0:0:
256,192,68757,1,8,0:0:0:0:
256,192,68882,1,0,0:0:0:0:
256,192,69007,1,8,0:0:0:0:
256,192,69257,1,0,0:0:0:0:
256,192,69507,1,8,0:0:0:0:
256,192,69632,1,8,0:0:0:0:
256,192,69757,1,0,0:0:0:0:
256,192,69882,1,8,0:0:0:0:
256,192,70007,1,0,0:0:0:0:
256,192,70257,1,8,0:0:0:0:
256,192,70382,1,8,0:0:0:0:
256,192,70507,1,0,0:0:0:0:
256,192,70757,1,0,0:0:0:0:
256,192,71007,1,8,0:0:0:0:
256,192,71132,1,0,0:0:0:0:
256,192,71257,1,8,0:0:0:0:
256,192,71507,1,8,0:0:0:0:
256,192,71632,1,8,0:0:0:0:
256,192,71757,1,0,0:0:0:0:
256,192,72007,1,12,0:0:0:0:
256,192,72382,1,0,0:0:0:0:
256,192,72507,1,8,0:0:0:0:
256,192,72757,1,8,0:0:0:0:
256,192,72882,1,0,0:0:0:0:
256,192,73007,1,8,0:0:0:0:
256,192,73257,1,8,0:0:0:0:
256,192,73382,1,0,0:0:0:0:
256,192,73507,1,8,0:0:0:0:
256,192,73632,1,8,0:0:0:0:
256,192,73757,1,0,0:0:0:0:
256,192,74007,1,0,0:0:0:0:
256,192,74257,1,8,0:0:0:0:
256,192,74382,1,0,0:0:0:0:
256,192,74507,1,8,0:0:0:0:
256,192,74757,1,0,0:0:0:0:
256,192,75007,1,8,0:0:0:0:
256,192,75257,1,0,0:0:0:0:
256,192,75507,1,8,0:0:0:0:
256,192,75632,1,0,0:0:0:0:
256,192,75757,1,8,0:0:0:0:
256,192,75882,1,0,0:0:0:0:
256,192,76007,1,12,0:0:0:0:
256,192,76382,1,0,0:0:0:0:
256,192,76507,1,8,0:0:0:0:
256,192,76757,1,0,0:0:0:0:
256,192,77007,1,8,0:0:0:0:
256,192,77132,1,8,0:0:0:0:
256,192,77257,1,0,0:0:0:0:
256,192,77507,1,8,0:0:0:0:
256,192,77757,1,0,0:0:0:0:
256,192,77882,1,0,0:0:0:0:
256,192,78007,1,8,0:0:0:0:
256,192,78382,1,0,0:0:0:0:
256,192,78507,1,8,0:0:0:0:
256,192,78757,1,0,0:0:0:0:
256,192,79007,1,8,0:0:0:0:
256,192,79257,1,0,0:0:0:0:
256,192,79507,1,8,0:0:0:0:
256,192,79757,1,0,0:0:0:0:
256,192,79882,1,0,0:0:0:0:
256,192,80007,1,12,0:0:0:0:
256,192,80382,1,0,0:0:0:0:
256,192,80507,1,8,0:0:0:0:
256,192,80757,1,0,0:0:0:0:
256,192,81007,1,8,0:0:0:0:
256,192,81132,1,0,0:0:0:0:
256,192,81257,1,0,0:0:0:0:
256,192,81507,1,8,0:0:0:0:
256,192,81757,1,8,0:0:0:0:
256,192,82007,1,0,0:0:0:0:
256,192,82382,1,0,0:0:0:0:
256,192,82507,1,8,0:0:0:0:
256,192,82757,1,0,0:0:0:0:
256,192,83007,1,8,0:0:0:0:
249,193,83132,1,0,0:0:0:0:
256,192,83257,1,8,0:0:0:0:
256,192,83507,1,8,0:0:0:0:
256,192,83757,1,0,0:0:0:0:
256,192,84007,1,8,0:0:0:0:
256,192,84382,1,0,0:0:0:0:
256,192,84507,1,8,0:0:0:0:
256,192,84757,1,0,0:0:0:0:
256,192,85007,1,8,0:0:0:0:
256,192,85257,1,0,0:0:0:0:
256,192,85507,1,8,0:0:0:0:
256,192,85632,1,0,0:0:0:0:
256,192,85757,1,0,0:0:0:0:
256,192,86007,1,8,0:0:0:0:
256,192,86382,1,0,0:0:0:0:
256,192,86507,1,8,0:0:0:0:
256,192,86757,1,0,0:0:0:0:
256,192,87007,1,8,0:0:0:0:
256,192,87132,1,0,0:0:0:0:
256,192,87257,1,0,0:0:0:0:
256,192,87507,1,8,0:0:0:0:
256,192,87757,1,0,0:0:0:0:
256,192,88007,1,0,0:0:0:0:
256,192,88382,1,0,0:0:0:0:
256,192,88507,1,8,0:0:0:0:
256,192,88757,1,0,0:0:0:0:
256,192,89007,1,8,0:0:0:0:
256,192,89257,1,0,0:0:0:0:
256,192,89507,1,8,0:0:0:0:
256,192,89632,1,0,0:0:0:0:
256,192,89757,1,0,0:0:0:0:
256,192,90007,1,8,0:0:0:0:
256,192,90382,1,0,0:0:0:0:
256,192,90507,1,8,0:0:0:0:
256,192,90757,1,8,0:0:0:0:
256,192,90882,1,0,0:0:0:0:
256,192,91007,1,8,0:0:0:0:
256,192,91257,1,0,0:0:0:0:
256,192,91507,1,8,0:0:0:0:
256,192,91757,1,0,0:0:0:0:
256,192,92007,1,8,0:0:0:0:
256,192,92382,1,0,0:0:0:0:
256,192,92507,1,8,0:0:0:0:
256,192,92757,1,0,0:0:0:0:
256,192,93007,1,8,0:0:0:0:
256,192,93257,1,0,0:0:0:0:
256,192,93507,1,8,0:0:0:0:
256,192,93632,1,0,0:0:0:0:
256,192,93757,1,8,0:0:0:0:
256,192,94007,1,0,0:0:0:0:
256,192,94382,1,0,0:0:0:0:
256,192,94507,1,8,0:0:0:0:
256,192,94757,1,0,0:0:0:0:
256,192,95007,1,8,0:0:0:0:
256,192,95132,1,0,0:0:0:0:
256,192,95257,1,0,0:0:0:0:
256,192,95507,1,8,0:0:0:0:
256,192,95757,1,8,0:0:0:0:
256,192,96007,1,4,0:0:0:0:
256,192,96382,1,0,0:0:0:0:
256,192,96507,1,8,0:0:0:0:
256,192,96757,1,8,0:0:0:0:
256,192,96882,1,8,0:0:0:0:
256,192,97007,1,0,0:0:0:0:
256,192,97257,1,8,0:0:0:0:
256,192,97507,1,8,0:0:0:0:
256,192,97632,1,8,0:0:0:0:
256,192,97757,1,0,0:0:0:0:
256,192,97882,1,8,0:0:0:0:
256,192,98007,1,0,0:0:0:0:
256,192,98257,1,8,0:0:0:0:
256,192,98382,1,0,0:0:0:0:
256,192,98507,1,8,0:0:0:0:
256,192,98757,1,0,0:0:0:0:
256,192,99007,1,8,0:0:0:0:
256,192,99132,1,0,0:0:0:0:
256,192,99257,1,8,0:0:0:0:
256,192,99507,1,8,0:0:0:0:
256,192,99632,1,8,0:0:0:0:
256,192,99757,1,0,0:0:0:0:
256,192,100007,1,12,0:0:0:0:
256,192,100382,1,0,0:0:0:0:
256,192,100507,1,8,0:0:0:0:
256,192,100757,1,8,0:0:0:0:
256,192,100882,1,8,0:0:0:0:
256,192,101007,1,0,0:0:0:0:
256,192,101257,1,0,0:0:0:0:
256,192,101507,1,8,0:0:0:0:
256,192,101632,1,0,0:0:0:0:
256,192,101757,1,8,0:0:0:0:
256,192,101882,1,8,0:0:0:0:
256,192,102007,1,0,0:0:0:0:
256,192,102257,1,8,0:0:0:0:
256,192,102382,1,0,0:0:0:0:
256,192,102507,1,8,0:0:0:0:
256,192,102757,1,0,0:0:0:0:
256,192,103007,1,8,0:0:0:0:
256,192,103132,1,8,0:0:0:0:
256,192,103257,1,0,0:0:0:0:
256,192,103507,1,8,0:0:0:0:
256,192,103632,1,0,0:0:0:0:
256,192,103757,1,8,0:0:0:0:
256,192,104007,1,12,0:0:0:0:
256,192,104382,1,0,0:0:0:0:
256,192,104507,1,8,0:0:0:0:
256,192,104757,1,8,0:0:0:0:
256,192,104882,1,0,0:0:0:0:
256,192,105007,1,8,0:0:0:0:
256,192,105257,1,8,0:0:0:0:
256,192,105382,1,0,0:0:0:0:
256,192,105507,1,8,0:0:0:0:
256,192,105632,1,8,0:0:0:0:
256,192,105757,1,0,0:0:0:0:
256,192,106007,1,0,0:0:0:0:
256,192,106257,1,0,0:0:0:0:
256,192,106382,1,0,0:0:0:0:
256,192,106507,1,8,0:0:0:0:
256,192,106757,1,0,0:0:0:0:
256,192,107007,1,8,0:0:0:0:
256,192,107257,1,0,0:0:0:0:
256,192,107507,1,8,0:0:0:0:
256,192,107632,1,0,0:0:0:0:
256,192,107757,1,8,0:0:0:0:
256,192,107882,1,0,0:0:0:0:
256,192,108007,1,12,0:0:0:0:
256,192,108382,1,0,0:0:0:0:
256,192,108507,1,8,0:0:0:0:
256,192,108757,1,0,0:0:0:0:
256,192,109007,1,8,0:0:0:0:
256,192,109132,1,8,0:0:0:0:
256,192,109257,1,0,0:0:0:0:
256,192,109507,1,8,0:0:0:0:
256,192,109757,1,0,0:0:0:0:
256,192,109882,1,8,0:0:0:0:
256,192,110007,1,0,0:0:0:0:
256,192,110382,1,0,0:0:0:0:
256,192,110507,1,8,0:0:0:0:
256,192,110757,1,0,0:0:0:0:
256,192,111007,1,8,0:0:0:0:
256,192,111257,1,0,0:0:0:0:
256,192,111507,1,8,0:0:0:0:
256,192,111757,1,0,0:0:0:0:
256,192,111882,1,0,0:0:0:0:
256,192,112007,1,12,0:0:0:0:
256,192,112382,1,0,0:0:0:0:
256,192,112507,1,8,0:0:0:0:
256,192,112757,1,8,0:0:0:0:
256,192,112882,1,0,0:0:0:0:
256,192,113007,1,8,0:0:0:0:
256,192,113257,1,8,0:0:0:0:
256,192,113507,1,8,0:0:0:0:
256,192,113632,1,0,0:0:0:0:
256,192,113757,1,8,0:0:0:0:
256,192,113882,1,8,0:0:0:0:
256,192,114007,1,0,0:0:0:0:
256,192,114257,1,8,0:0:0:0:
256,192,114382,1,8,0:0:0:0:
256,192,114507,1,0,0:0:0:0:
256,192,114757,1,0,0:0:0:0:
256,192,115007,1,8,0:0:0:0:
256,192,115132,1,0,0:0:0:0:
256,192,115257,1,8,0:0:0:0:
256,192,115507,1,8,0:0:0:0:
256,192,115632,1,8,0:0:0:0:
256,192,115757,1,0,0:0:0:0:
256,192,116007,1,12,0:0:0:0:
256,192,116382,1,0,0:0:0:0:
256,192,116507,1,8,0:0:0:0:
256,192,116757,1,8,0:0:0:0:
256,192,116882,1,0,0:0:0:0:
256,192,117007,1,8,0:0:0:0:
256,192,117257,1,0,0:0:0:0:
256,192,117507,1,8,0:0:0:0:
256,192,117632,1,8,0:0:0:0:
256,192,117757,1,0,0:0:0:0:
256,192,117882,1,8,0:0:0:0:
256,192,118007,1,0,0:0:0:0:
256,192,118257,1,8,0:0:0:0:
256,192,118382,1,8,0:0:0:0:
256,192,118507,1,0,0:0:0:0:
256,192,118757,1,0,0:0:0:0:
256,192,119007,1,8,0:0:0:0:
256,192,119132,1,0,0:0:0:0:
256,192,119257,1,8,0:0:0:0:
256,192,119507,1,8,0:0:0:0:
256,192,119632,1,8,0:0:0:0:
256,192,119757,1,0,0:0:0:0:
256,192,120007,1,12,0:0:0:0:
256,192,120382,1,0,0:0:0:0:
256,192,120507,1,8,0:0:0:0:
256,192,120757,1,8,0:0:0:0:
256,192,120882,1,0,0:0:0:0:
256,192,121007,1,8,0:0:0:0:
256,192,121257,1,8,0:0:0:0:
256,192,121382,1,0,0:0:0:0:
256,192,121507,1,8,0:0:0:0:
256,192,121632,1,8,0:0:0:0:
256,192,121757,1,0,0:0:0:0:
256,192,122007,1,0,0:0:0:0:
256,192,122257,1,8,0:0:0:0:
256,192,122382,1,0,0:0:0:0:
256,192,122507,1,8,0:0:0:0:
256,192,122757,1,0,0:0:0:0:
256,192,123007,1,8,0:0:0:0:
256,192,123257,1,0,0:0:0:0:
256,192,123507,1,8,0:0:0:0:
256,192,123632,1,0,0:0:0:0:
256,192,123757,1,8,0:0:0:0:
256,192,123882,1,0,0:0:0:0:
256,192,124007,1,12,0:0:0:0:
256,192,124382,1,0,0:0:0:0:
256,192,124507,1,8,0:0:0:0:
256,192,124757,1,0,0:0:0:0:
256,192,125007,1,8,0:0:0:0:
256,192,125132,1,8,0:0:0:0:
256,192,125257,1,0,0:0:0:0:
256,192,125507,1,8,0:0:0:0:
256,192,125757,1,0,0:0:0:0:
256,192,125882,1,0,0:0:0:0:
256,192,126007,1,8,0:0:0:0:
256,192,126382,1,0,0:0:0:0:
256,192,126507,1,8,0:0:0:0:
256,192,126757,1,0,0:0:0:0:
256,192,127007,1,8,0:0:0:0:
256,192,127257,1,0,0:0:0:0:
256,192,127507,1,8,0:0:0:0:
256,192,127757,1,0,0:0:0:0:
256,192,127882,1,0,0:0:0:0:
256,192,128007,1,12,0:0:0:0:
256,192,128382,1,0,0:0:0:0:
256,192,128507,1,8,0:0:0:0:
256,192,128757,1,8,0:0:0:0:
256,192,128882,1,0,0:0:0:0:
256,192,129007,1,8,0:0:0:0:
256,192,129257,1,0,0:0:0:0:
256,192,129507,1,8,0:0:0:0:
256,192,129757,1,8,0:0:0:0:
256,192,129882,1,0,0:0:0:0:
256,192,130007,1,0,0:0:0:0:
256,192,130257,1,8,0:0:0:0:
256,192,130382,1,0,0:0:0:0:
256,192,130507,1,8,0:0:0:0:
256,192,130757,1,0,0:0:0:0:
256,192,131007,1,8,0:0:0:0:
256,192,131132,1,0,0:0:0:0:
256,192,131257,1,0,0:0:0:0:
256,192,131507,1,8,0:0:0:0:
256,192,131757,1,0,0:0:0:0:
256,192,132007,1,8,0:0:0:0:
256,192,132382,1,0,0:0:0:0:
256,192,132507,1,8,0:0:0:0:
256,192,132757,1,8,0:0:0:0:
256,192,132882,1,0,0:0:0:0:
256,192,133007,1,8,0:0:0:0:
256,192,133257,1,0,0:0:0:0:
256,192,133507,1,8,0:0:0:0:
256,192,133757,1,8,0:0:0:0:
256,192,133882,1,8,0:0:0:0:
256,192,134007,1,0,0:0:0:0:
256,192,134257,1,8,0:0:0:0:
256,192,134382,1,0,0:0:0:0:
256,192,134507,1,8,0:0:0:0:
256,192,134757,1,0,0:0:0:0:
256,192,135007,1,8,0:0:0:0:
256,192,135132,1,8,0:0:0:0:
256,192,135257,1,0,0:0:0:0:
256,192,135507,1,8,0:0:0:0:
256,192,135757,1,8,0:0:0:0:
256,192,136007,1,0,0:0:0:0:
256,192,136382,1,0,0:0:0:0:
256,192,136507,1,8,0:0:0:0:
256,192,136757,1,0,0:0:0:0:
256,192,137007,1,8,0:0:0:0:
256,192,137132,1,8,0:0:0:0:
256,192,137257,1,0,0:0:0:0:
256,192,137507,1,8,0:0:0:0:
256,192,137757,1,8,0:0:0:0:
256,192,137882,1,8,0:0:0:0:
256,192,138007,1,0,0:0:0:0:
256,192,138257,1,8,0:0:0:0:
256,192,138382,1,0,0:0:0:0:
256,192,138507,1,8,0:0:0:0:
256,192,138757,1,0,0:0:0:0:
256,192,139007,1,8,0:0:0:0:
256,192,139257,1,0,0:0:0:0:
256,192,139507,1,8,0:0:0:0:
256,192,139757,1,8,0:0:0:0:
256,192,139882,1,0,0:0:0:0:
256,192,140007,1,8,0:0:0:0:
256,192,140382,1,0,0:0:0:0:
256,192,140507,1,8,0:0:0:0:
256,192,140757,1,0,0:0:0:0:
256,192,141007,1,0,0:0:0:0:
256,192,141257,1,0,0:0:0:0:
256,192,141507,1,8,0:0:0:0:
256,192,141757,1,0,0:0:0:0:
256,192,141882,1,0,0:0:0:0:
256,192,142007,1,8,0:0:0:0:
256,192,142382,1,0,0:0:0:0:
256,192,142507,1,8,0:0:0:0:
256,192,142757,1,0,0:0:0:0:
256,192,143007,1,0,0:0:0:0:
256,192,143257,1,0,0:0:0:0:
256,192,143507,1,8,0:0:0:0:
256,192,143757,1,8,0:0:0:0:
256,192,144007,1,0,0:0:0:0:
