osu file format v14

[General]
AudioFilename: audio.mp3
AudioLeadIn: 0
PreviewTime: 16007
Countdown: 0
SampleSet: Normal
StackLeniency: 0.7
Mode: 1
LetterboxInBreaks: 0
WidescreenStoryboard: 1

[Editor]
Bookmarks: 16007,32007,48007,80007,96007,128007,144007
DistanceSpacing: 0.4
BeatDivisor: 4
GridSize: 8
TimelineZoom: 1

[Metadata]
Title:sneg
TitleUnicode:снег
Artist:bilbordy
ArtistUnicode:билборды
Creator:Soraka
Version:Muzukashii
Source:
Tags:русский рок эмо панк альтернатива russian rock alternative emo punk billboards billboards21
BeatmapID:4544860
BeatmapSetID:2155556

[Difficulty]
HPDrainRate:6
CircleSize:2
OverallDifficulty:5
ApproachRate:7
SliderMultiplier:1.4
SliderTickRate:1

[Events]
//Background and Video events
0,0,"sneg.png",0,60
//Break Periods
//Storyboard Layer 0 (Background)
//Storyboard Layer 1 (Fail)
//Storyboard Layer 2 (Pass)
//Storyboard Layer 3 (Foreground)
//Storyboard Layer 4 (Overlay)
//Storyboard Sound Samples

[TimingPoints]
7,500,4,1,0,90,1,0
16007,-100,4,1,0,90,0,1
32007,-100,4,1,0,65,0,0
40007,-100,4,1,0,75,0,0
48007,-100,4,1,0,90,0,1
80007,-100,4,1,0,80,0,0
96007,-100,4,1,0,90,0,1
128007,-100,4,1,0,80,0,0

[Colours]
Combo1 : 168,91,219
Combo2 : 147,200,253
Combo3 : 32,62,204
Combo4 : 214,184,250

[HitObjects]
256,192,12007,8,0,15507,0:0:0:0:
256,192,16007,5,4,0:0:0:0:
256,192,16507,1,8,0:0:0:0:
256,192,16757,1,0,0:0:0:0:
256,192,16882,1,0,0:0:0:0:
256,192,17007,1,0,0:0:0:0:
256,192,17257,1,8,0:0:0:0:
256,192,17507,1,0,0:0:0:0:
256,192,17757,1,8,0:0:0:0:
256,192,18257,1,0,0:0:0:0:
256,192,18382,1,0,0:0:0:0:
256,192,18507,1,0,0:0:0:0:
256,192,18757,1,0,0:0:0:0:
256,192,19007,1,8,0:0:0:0:
256,192,19257,1,0,0:0:0:0:
256,192,19507,1,8,0:0:0:0:
256,192,19632,1,8,0:0:0:0:
256,192,19757,1,8,0:0:0:0:
256,192,20007,1,0,0:0:0:0:
256,192,20507,1,8,0:0:0:0:
256,192,20757,1,0,0:0:0:0:
256,192,21007,1,8,0:0:0:0:
256,192,21132,1,8,0:0:0:0:
256,192,21257,1,8,0:0:0:0:
256,192,21507,1,0,0:0:0:0:
256,192,21757,1,8,0:0:0:0:
256,192,22257,1,0,0:0:0:0:
256,192,22382,1,0,0:0:0:0:
256,192,22507,1,0,0:0:0:0:
256,192,22757,1,0,0:0:0:0:
256,192,23007,1,8,0:0:0:0:
256,192,23257,1,0,0:0:0:0:
256,192,23507,1,8,0:0:0:0:
256,192,23632,1,8,0:0:0:0:
256,192,23757,1,8,0:0:0:0:
256,192,24007,1,0,0:0:0:0:
256,192,24507,1,8,0:0:0:0:
256,192,24757,1,8,0:0:0:0:
256,192,24882,1,8,0:0:0:0:
256,192,25007,1,8,0:0:0:0:
256,192,25257,1,0,0:0:0:0:
256,192,25507,1,0,0:0:0:0:
256,192,25757,1,8,0:0:0:0:
256,192,26257,1,0,0:0:0:0:
256,192,26382,1,0,0:0:0:0:
256,192,26507,1,0,0:0:0:0:
256,192,26757,1,8,0:0:0:0:
256,192,27007,1,8,0:0:0:0:
256,192,27257,1,0,0:0:0:0:
256,192,27507,1,8,0:0:0:0:
256,192,27632,1,8,0:0:0:0:
256,192,27757,1,0,0:0:0:0:
256,192,28007,1,8,0:0:0:0:
256,192,28507,1,8,0:0:0:0:
256,192,28757,1,0,0:0:0:0:
256,192,29007,1,0,0:0:0:0:
256,192,29257,1,0,0:0:0:0:
256,192,29507,1,8,0:0:0:0:
256,192,29757,1,0,0:0:0:0:
256,192,30007,1,0,0:0:0:0:
256,192,30507,1,8,0:0:0:0:
256,192,30757,1,0,0:0:0:0:
256,192,31257,1,0,0:0:0:0:
256,192,31507,1,8,0:0:0:0:
256,192,31757,1,0,0:0:0:0:
256,192,32007,1,0,0:0:0:0:
256,192,32757,1,0,0:0:0:0:
256,192,33007,1,8,0:0:0:0:
256,192,33507,1,0,0:0:0:0:
256,192,33757,1,0,0:0:0:0:
256,192,34007,1,8,0:0:0:0:
256,192,34757,1,0,0:0:0:0:
256,192,35007,1,8,0:0:0:0:
256,192,35507,1,8,0:0:0:0:
256,192,35757,1,0,0:0:0:0:
256,192,36007,1,8,0:0:0:0:
256,192,36757,1,8,0:0:0:0:
256,192,37007,1,0,0:0:0:0:
256,192,37507,1,8,0:0:0:0:
256,192,37757,1,8,0:0:0:0:
256,192,38007,1,0,0:0:0:0:
256,192,38757,1,0,0:0:0:0:
256,192,39007,1,8,0:0:0:0:
256,192,39507,1,8,0:0:0:0:
256,192,39757,1,8,0:0:0:0:
256,192,40007,1,0,0:0:0:0:
256,192,40757,1,0,0:0:0:0:
256,192,41007,1,8,0:0:0:0:
256,192,41257,1,0,0:0:0:0:
256,192,41507,1,8,0:0:0:0:
256,192,41757,1,8,0:0:0:0:
256,192,42007,1,0,0:0:0:0:
256,192,42757,1,0,0:0:0:0:
256,192,43007,1,8,0:0:0:0:
256,192,43257,1,0,0:0:0:0:
256,192,43507,1,8,0:0:0:0:
256,192,43757,1,0,0:0:0:0:
256,192,44007,1,8,0:0:0:0:
256,192,44757,1,0,0:0:0:0:
256,192,45007,1,8,0:0:0:0:
256,192,45257,1,0,0:0:0:0:
256,192,45507,1,8,0:0:0:0:
256,192,45757,1,8,0:0:0:0:
256,192,46007,1,0,0:0:0:0:
256,192,46757,1,0,0:0:0:0:
256,192,47007,1,8,0:0:0:0:
256,192,48007,1,4,0:0:0:0:
256,192,48507,1,8,0:0:0:0:
256,192,48757,1,0,0:0:0:0:
256,192,48882,1,0,0:0:0:0:
256,192,49007,1,0,0:0:0:0:
256,192,49257,1,8,0:0:0:0:
256,192,49507,1,0,0:0:0:0:
256,192,49757,1,8,0:0:0:0:
256,192,50257,1,0,0:0:0:0:
256,192,50382,1,0,0:0:0:0:
256,192,50507,1,0,0:0:0:0:
256,192,50757,1,0,0:0:0:0:
256,192,51007,1,8,0:0:0:0:
256,192,51257,1,0,0:0:0:0:
256,192,51507,1,8,0:0:0:0:
256,192,51632,1,8,0:0:0:0:
256,192,51757,1,8,0:0:0:0:
256,192,52007,1,0,0:0:0:0:
256,192,52507,1,8,0:0:0:0:
256,192,52757,1,0,0:0:0:0:
256,192,53007,1,8,0:0:0:0:
256,192,53132,1,8,0:0:0:0:
256,192,53257,1,8,0:0:0:0:
256,192,53507,1,0,0:0:0:0:
256,192,53757,1,8,0:0:0:0:
256,192,54257,1,0,0:0:0:0:
256,192,54382,1,0,0:0:0:0:
256,192,54507,1,0,0:0:0:0:
256,192,54757,1,0,0:0:0:0:
256,192,55007,1,8,0:0:0:0:
256,192,55257,1,0,0:0:0:0:
256,192,55507,1,8,0:0:0:0:
256,192,55632,1,8,0:0:0:0:
256,192,55757,1,8,0:0:0:0:
256,192,56007,1,0,0:0:0:0:
256,192,56507,1,8,0:0:0:0:
256,192,56757,1,8,0:0:0:0:
256,192,56882,1,8,0:0:0:0:
256,192,57007,1,8,0:0:0:0:
256,192,57257,1,0,0:0:0:0:
256,192,57507,1,0,0:0:0:0:
256,192,57757,1,8,0:0:0:0:
256,192,58257,1,0,0:0:0:0:
256,192,58382,1,0,0:0:0:0:
256,192,58507,1,0,0:0:0:0:
256,192,58757,1,8,0:0:0:0:
256,192,59007,1,8,0:0:0:0:
256,192,59257,1,0,0:0:0:0:
256,192,59507,1,8,0:0:0:0:
256,192,59632,1,8,0:0:0:0:
256,192,59757,1,0,0:0:0:0:
256,192,60007,1,8,0:0:0:0:
256,192,60507,1,8,0:0:0:0:
256,192,60757,1,0,0:0:0:0:
256,192,61007,1,8,0:0:0:0:
256,192,61257,1,0,0:0:0:0:
256,192,61507,1,8,0:0:0:0:
256,192,61757,1,0,0:0:0:0:
256,192,62007,1,0,0:0:0:0:
256,192,62507,1,8,0:0:0:0:
256,192,62757,1,0,0:0:0:0:
256,192,63257,1,0,0:0:0:0:
256,192,63507,1,8,0:0:0:0:
256,192,63757,1,0,0:0:0:0:
256,192,64007,1,4,0:0:0:0:
256,192,64507,1,8,0:0:0:0:
256,192,64757,1,0,0:0:0:0:
256,192,64882,1,0,0:0:0:0:
256,192,65007,1,0,0:0:0:0:
256,192,65257,1,8,0:0:0:0:
256,192,65507,1,0,0:0:0:0:
256,192,65757,1,8,0:0:0:0:
256,192,66257,1,0,0:0:0:0:
256,192,66382,1,0,0:0:0:0:
256,192,66507,1,0,0:0:0:0:
256,192,66757,1,0,0:0:0:0:
256,192,67007,1,8,0:0:0:0:
256,192,67257,1,0,0:0:0:0:
256,192,67507,1,8,0:0:0:0:
256,192,67632,1,8,0:0:0:0:
256,192,67757,1,8,0:0:0:0:
256,192,68007,1,0,0:0:0:0:
256,192,68507,1,0,0:0:0:0:
256,192,68757,1,8,0:0:0:0:
256,192,69007,1,0,0:0:0:0:
256,192,69132,1,0,0:0:0:0:
256,192,69257,1,0,0:0:0:0:
256,192,69507,1,8,0:0:0:0:
256,192,69757,1,0,0:0:0:0:
256,192,70257,1,8,0:0:0:0:
256,192,70382,1,8,0:0:0:0:
256,192,70507,1,8,0:0:0:0:
256,192,70757,1,0,0:0:0:0:
256,192,71007,1,8,0:0:0:0:
256,192,71257,1,8,0:0:0:0:
256,192,71507,1,0,0:0:0:0:
256,192,71632,1,0,0:0:0:0:
256,192,71757,1,0,0:0:0:0:
256,192,72007,1,8,0:0:0:0:
256,192,72507,1,0,0:0:0:0:
256,192,72757,1,8,0:0:0:0:
256,192,72882,1,8,0:0:0:0:
256,192,73007,1,8,0:0:0:0:
256,192,73257,1,0,0:0:0:0:
256,192,73507,1,8,0:0:0:0:
256,192,73757,1,0,0:0:0:0:
256,192,74257,1,0,0:0:0:0:
256,192,74382,1,0,0:0:0:0:
256,192,74507,1,0,0:0:0:0:
256,192,74757,1,8,0:0:0:0:
256,192,75007,1,8,0:0:0:0:
256,192,75257,1,0,0:0:0:0:
256,192,75507,1,8,0:0:0:0:
256,192,75632,1,0,0:0:0:0:
256,192,75757,1,8,0:0:0:0:
256,192,76007,1,0,0:0:0:0:
256,192,76507,1,8,0:0:0:0:
256,192,76757,1,0,0:0:0:0:
256,192,77007,1,8,0:0:0:0:
256,192,77257,1,0,0:0:0:0:
256,192,77507,1,8,0:0:0:0:
256,192,77757,1,0,0:0:0:0:
256,192,78007,1,0,0:0:0:0:
256,192,78507,1,8,0:0:0:0:
256,192,78757,1,0,0:0:0:0:
256,192,79257,1,0,0:0:0:0:
256,192,79507,1,8,0:0:0:0:
256,192,79757,1,0,0:0:0:0:
256,192,80007,1,4,0:0:0:0:
256,192,80757,1,0,0:0:0:0:
256,192,81007,1,8,0:0:0:0:
256,192,81132,1,8,0:0:0:0:
256,192,81257,1,8,0:0:0:0:
256,192,81507,1,8,0:0:0:0:
256,192,81757,1,0,0:0:0:0:
256,192,82007,1,8,0:0:0:0:
256,192,82757,1,0,0:0:0:0:
256,192,83007,1,8,0:0:0:0:
256,192,83257,1,0,0:0:0:0:
256,192,83507,1,8,0:0:0:0:
256,192,83757,1,0,0:0:0:0:
256,192,84007,1,8,0:0:0:0:
256,192,84757,1,8,0:0:0:0:
256,192,85007,1,0,0:0:0:0:
256,192,85132,1,0,0:0:0:0:
256,192,85257,1,0,0:0:0:0:
256,192,85507,1,8,0:0:0:0:
256,192,85757,1,0,0:0:0:0:
256,192,86007,1,0,0:0:0:0:
256,192,86757,1,0,0:0:0:0:
256,192,87007,1,8,0:0:0:0:
256,192,87507,1,8,0:0:0:0:
256,192,87757,1,0,0:0:0:0:
256,192,88007,1,0,0:0:0:0:
256,192,88757,1,0,0:0:0:0:
256,192,89007,1,8,0:0:0:0:
256,192,89132,1,8,0:0:0:0:
256,192,89257,1,8,0:0:0:0:
256,192,89507,1,8,0:0:0:0:
256,192,89757,1,0,0:0:0:0:
256,192,90007,1,8,0:0:0:0:
256,192,90757,1,0,0:0:0:0:
256,192,91007,1,8,0:0:0:0:
256,192,91257,1,8,0:0:0:0:
256,192,91507,1,0,0:0:0:0:
256,192,91757,1,0,0:0:0:0:
256,192,92007,1,8,0:0:0:0:
256,192,92757,1,8,0:0:0:0:
256,192,93007,1,0,0:0:0:0:
256,192,93132,1,0,0:0:0:0:
256,192,93257,1,0,0:0:0:0:
256,192,93507,1,8,0:0:0:0:
256,192,93757,1,0,0:0:0:0:
256,192,94007,1,8,0:0:0:0:
256,192,94757,1,8,0:0:0:0:
256,192,95007,1,0,0:0:0:0:
256,192,95507,1,8,0:0:0:0:
256,192,96007,1,4,0:0:0:0:
256,192,96507,1,8,0:0:0:0:
256,192,96757,1,0,0:0:0:0:
256,192,96882,1,0,0:0:0:0:
256,192,97007,1,0,0:0:0:0:
256,192,97257,1,8,0:0:0:0:
256,192,97507,1,0,0:0:0:0:
256,192,97757,1,8,0:0:0:0:
256,192,98257,1,0,0:0:0:0:
256,192,98382,1,0,0:0:0:0:
256,192,98507,1,0,0:0:0:0:
256,192,98757,1,0,0:0:0:0:
256,192,99007,1,8,0:0:0:0:
256,192,99257,1,0,0:0:0:0:
256,192,99507,1,8,0:0:0:0:
256,192,99632,1,8,0:0:0:0:
256,192,99757,1,8,0:0:0:0:
256,192,100007,1,0,0:0:0:0:
256,192,100507,1,8,0:0:0:0:
256,192,100757,1,0,0:0:0:0:
256,192,101007,1,8,0:0:0:0:
256,192,101132,1,8,0:0:0:0:
256,192,101257,1,8,0:0:0:0:
256,192,101507,1,0,0:0:0:0:
256,192,101757,1,8,0:0:0:0:
256,192,102257,1,0,0:0:0:0:
256,192,102382,1,0,0:0:0:0:
256,192,102507,1,0,0:0:0:0:
256,192,102757,1,0,0:0:0:0:
256,192,103007,1,8,0:0:0:0:
256,192,103257,1,0,0:0:0:0:
256,192,103507,1,8,0:0:0:0:
256,192,103632,1,8,0:0:0:0:
256,192,103757,1,8,0:0:0:0:
256,192,104007,1,0,0:0:0:0:
256,192,104507,1,8,0:0:0:0:
256,192,104757,1,8,0:0:0:0:
256,192,104882,1,8,0:0:0:0:
256,192,105007,1,8,0:0:0:0:
256,192,105257,1,0,0:0:0:0:
256,192,105507,1,0,0:0:0:0:
256,192,105757,1,8,0:0:0:0:
256,192,106257,1,0,0:0:0:0:
256,192,106382,1,0,0:0:0:0:
256,192,106507,1,0,0:0:0:0:
256,192,106757,1,8,0:0:0:0:
256,192,107007,1,8,0:0:0:0:
256,192,107257,1,0,0:0:0:0:
256,192,107507,1,8,0:0:0:0:
256,192,107632,1,8,0:0:0:0:
256,192,107757,1,0,0:0:0:0:
256,192,108007,1,8,0:0:0:0:
256,192,108507,1,8,0:0:0:0:
256,192,108757,1,0,0:0:0:0:
256,192,109007,1,8,0:0:0:0:
256,192,109257,1,0,0:0:0:0:
256,192,109507,1,8,0:0:0:0:
256,192,109757,1,0,0:0:0:0:
256,192,110007,1,0,0:0:0:0:
256,192,110507,1,8,0:0:0:0:
256,192,110757,1,0,0:0:0:0:
256,192,111257,1,0,0:0:0:0:
256,192,111507,1,8,0:0:0:0:
256,192,111757,1,0,0:0:0:0:
256,192,112007,1,4,0:0:0:0:
256,192,112507,1,8,0:0:0:0:
256,192,112757,1,0,0:0:0:0:
256,192,112882,1,0,0:0:0:0:
256,192,113007,1,0,0:0:0:0:
256,192,113257,1,8,0:0:0:0:
256,192,113507,1,0,0:0:0:0:
256,192,113757,1,8,0:0:0:0:
256,192,114257,1,0,0:0:0:0:
256,192,114382,1,0,0:0:0:0:
256,192,114507,1,0,0:0:0:0:
256,192,114757,1,0,0:0:0:0:
256,192,115007,1,8,0:0:0:0:
256,192,115257,1,0,0:0:0:0:
256,192,115507,1,8,0:0:0:0:
256,192,115632,1,8,0:0:0:0:
256,192,115757,1,8,0:0:0:0:
256,192,116007,1,0,0:0:0:0:
256,192,116507,1,0,0:0:0:0:
256,192,116757,1,8,0:0:0:0:
256,192,117007,1,0,0:0:0:0:
256,192,117132,1,0,0:0:0:0:
256,192,117257,1,0,0:0:0:0:
256,192,117507,1,8,0:0:0:0:
256,192,117757,1,0,0:0:0:0:
256,192,118257,1,8,0:0:0:0:
256,192,118382,1,8,0:0:0:0:
256,192,118507,1,8,0:0:0:0:
256,192,118757,1,0,0:0:0:0:
256,192,119007,1,8,0:0:0:0:
256,192,119257,1,8,0:0:0:0:
256,192,119507,1,0,0:0:0:0:
256,192,119632,1,0,0:0:0:0:
256,192,119757,1,0,0:0:0:0:
256,192,120007,1,8,0:0:0:0:
256,192,120507,1,0,0:0:0:0:
256,192,120757,1,8,0:0:0:0:
256,192,120882,1,8,0:0:0:0:
256,192,121007,1,8,0:0:0:0:
256,192,121257,1,0,0:0:0:0:
256,192,121507,1,8,0:0:0:0:
256,192,121757,1,0,0:0:0:0:
256,192,122257,1,0,0:0:0:0:
256,192,122382,1,0,0:0:0:0:
256,192,122507,1,0,0:0:0:0:
256,192,122757,1,8,0:0:0:0:
256,192,123007,1,8,0:0:0:0:
256,192,123257,1,0,0:0:0:0:
256,192,123507,1,8,0:0:0:0:
256,192,123632,1,0,0:0:0:0:
256,192,123757,1,8,0:0:0:0:
256,192,124007,1,0,0:0:0:0:
256,192,124507,1,8,0:0:0:0:
256,192,124757,1,0,0:0:0:0:
256,192,125007,1,8,0:0:0:0:
256,192,125257,1,0,0:0:0:0:
256,192,125507,1,8,0:0:0:0:
256,192,125757,1,0,0:0:0:0:
256,192,126007,1,0,0:0:0:0:
256,192,126507,1,8,0:0:0:0:
256,192,126757,1,0,0:0:0:0:
256,192,127257,1,0,0:0:0:0:
256,192,127507,1,8,0:0:0:0:
256,192,127757,1,0,0:0:0:0:
256,192,128007,1,4,0:0:0:0:
256,192,128507,1,8,0:0:0:0:
256,192,128757,1,0,0:0:0:0:
256,192,129007,1,8,0:0:0:0:
256,192,129257,1,0,0:0:0:0:
256,192,129507,1,0,0:0:0:0:
256,192,129757,1,8,0:0:0:0:
256,192,130257,1,8,0:0:0:0:
256,192,130757,1,0,0:0:0:0:
256,192,131007,1,8,0:0:0:0:
256,192,131257,1,0,0:0:0:0:
256,192,131507,1,8,0:0:0:0:
256,192,131757,1,0,0:0:0:0:
256,192,132007,1,8,0:0:0:0:
256,192,132507,1,0,0:0:0:0:
256,192,132757,1,8,0:0:0:0:
256,192,133007,1,0,0:0:0:0:
256,192,133257,1,0,0:0:0:0:
256,192,133507,1,0,0:0:0:0:
256,192,133757,1,8,0:0:0:0:
256,192,134257,1,8,0:0:0:0:
256,192,134757,1,0,0:0:0:0:
256,192,135007,1,8,0:0:0:0:
256,192,135257,1,0,0:0:0:0:
256,192,135507,1,8,0:0:0:0:
256,192,135757,1,8,0:0:0:0:
256,192,136007,1,0,0:0:0:0:
256,192,136507,1,0,0:0:0:0:
256,192,136757,1,8,0:0:0:0:
256,192,137007,1,0,0:0:0:0:
256,192,137257,1,0,0:0:0:0:
256,192,137507,1,0,0:0:0:0:
256,192,137757,1,8,0:0:0:0:
256,192,138257,1,8,0:0:0:0:
256,192,138757,1,0,0:0:0:0:
256,192,139007,1,8,0:0:0:0:
256,192,139257,1,0,0:0:0:0:
256,192,139507,1,8,0:0:0:0:
256,192,139757,1,0,0:0:0:0:
256,192,140007,1,8,0:0:0:0:
256,192,140507,1,8,0:0:0:0:
256,192,140757,1,0,0:0:0:0:
256,192,141257,1,0,0:0:0:0:
256,192,141507,1,8,0:0:0:0:
256,192,141757,1,0,0:0:0:0:
256,192,142007,1,0,0:0:0:0:
256,192,142507,1,8,0:0:0:0:
256,192,142757,1,0,0:0:0:0:
256,192,143257,1,0,0:0:0:0:
256,192,143507,1,8,0:0:0:0:
256,192,143757,1,8,0:0:0:0:
256,192,144007,1,0,0:0:0:0:
