osu file format v14

[General]
AudioFilename: audio.mp3
AudioLeadIn: 0
PreviewTime: 16007
Countdown: 0
SampleSet: Normal
StackLeniency: 0.7
Mode: 1
LetterboxInBreaks: 0
WidescreenStoryboard: 1

[Editor]
Bookmarks: 16007,32007,48007,80007,96007,128007,144007
DistanceSpacing: 0.4
BeatDivisor: 4
GridSize: 32
TimelineZoom: 1.9

[Metadata]
Title:sneg
TitleUnicode:снег
Artist:bilbordy
ArtistUnicode:билборды
Creator:Soraka
Version:Kantan
Source:
Tags:русский рок эмо панк альтернатива russian rock alternative emo punk billboards billboards21
BeatmapID:4545327
BeatmapSetID:2155556

[Difficulty]
HPDrainRate:8
CircleSize:2
OverallDifficulty:3
ApproachRate:7
SliderMultiplier:1.4
SliderTickRate:1

[Events]
//Background and Video events
0,0,"sneg.png",0,60
//Break Periods
//Storyboard Layer 0 (Background)
//Storyboard Layer 1 (Fail)
//Storyboard Layer 2 (Pass)
//Storyboard Layer 3 (Foreground)
//Storyboard Layer 4 (Overlay)
//Storyboard Sound Samples

[TimingPoints]
7,500,4,1,0,90,1,0
16007,-100,4,1,0,90,0,1
32007,-100,4,1,0,65,0,0
40007,-100,4,1,0,75,0,0
48007,-100,4,1,0,90,0,1
80007,-100,4,1,0,80,0,0
96007,-100,4,1,0,90,0,1
128007,-100,4,1,0,80,0,0

[Colours]
Combo1 : 168,91,219
Combo2 : 147,200,253
Combo3 : 32,62,204
Combo4 : 214,184,250

[HitObjects]
256,192,12007,8,0,15507,0:0:0:0:
256,192,16007,5,4,0:0:0:0:
256,192,16507,1,8,0:0:0:0:
256,192,17507,1,8,0:0:0:0:
256,192,17757,1,8,0:0:0:0:
256,192,18257,1,0,0:0:0:0:
256,192,19007,1,8,0:0:0:0:
256,192,19507,1,0,0:0:0:0:
256,192,20007,1,8,0:0:0:0:
256,192,20507,1,0,0:0:0:0:
256,192,21507,1,0,0:0:0:0:
256,192,21757,1,0,0:0:0:0:
256,192,22257,1,8,0:0:0:0:
256,192,23007,1,8,0:0:0:0:
256,192,23507,1,0,0:0:0:0:
256,192,24007,1,8,0:0:0:0:
256,192,24507,1,0,0:0:0:0:
256,192,25507,1,8,0:0:0:0:
256,192,25757,1,8,0:0:0:0:
256,192,26257,1,0,0:0:0:0:
256,192,27007,1,8,0:0:0:0:
256,192,27507,1,0,0:0:0:0:
256,192,28007,1,8,0:0:0:0:
256,192,28507,1,8,0:0:0:0:
256,192,29507,1,8,0:0:0:0:
256,192,30007,1,0,0:0:0:0:
256,192,30507,1,8,0:0:0:0:
256,192,31507,1,8,0:0:0:0:
256,192,32007,1,0,0:0:0:0:
256,192,33007,1,0,0:0:0:0:
256,192,34007,1,8,0:0:0:0:
256,192,35007,1,0,0:0:0:0:
256,192,36007,1,8,0:0:0:0:
256,192,37007,1,0,0:0:0:0:
256,192,38007,1,8,0:0:0:0:
256,192,39507,1,0,0:0:0:0:
256,192,40007,1,8,0:0:0:0:
256,192,41007,1,0,0:0:0:0:
256,192,41507,1,8,0:0:0:0:
256,192,42007,1,8,0:0:0:0:
256,192,43007,1,0,0:0:0:0:
256,192,44007,1,8,0:0:0:0:
256,192,45007,1,0,0:0:0:0:
256,192,45507,1,8,0:0:0:0:
256,192,46007,1,0,0:0:0:0:
256,192,48007,1,4,0:0:0:0:
256,192,48507,1,8,0:0:0:0:
256,192,49507,1,8,0:0:0:0:
256,192,49757,1,8,0:0:0:0:
256,192,50257,1,0,0:0:0:0:
256,192,51007,1,8,0:0:0:0:
256,192,51507,1,0,0:0:0:0:
256,192,52007,1,8,0:0:0:0:
256,192,52507,1,0,0:0:0:0:
256,192,53507,1,0,0:0:0:0:
256,192,53757,1,0,0:0:0:0:
256,192,54257,1,8,0:0:0:0:
256,192,55007,1,8,0:0:0:0:
256,192,55507,1,0,0:0:0:0:
256,192,56007,1,8,0:0:0:0:
256,192,56507,1,0,0:0:0:0:
256,192,57507,1,8,0:0:0:0:
256,192,57757,1,8,0:0:0:0:
256,192,58257,1,0,0:0:0:0:
256,192,59007,1,8,0:0:0:0:
256,192,59507,1,0,0:0:0:0:
256,192,60007,1,8,0:0:0:0:
256,192,60507,1,8,0:0:0:0:
256,192,61507,1,8,0:0:0:0:
256,192,62007,1,0,0:0:0:0:
256,192,62507,1,8,0:0:0:0:
256,192,63507,1,8,0:0:0:0:
256,192,64007,1,4,0:0:0:0:
256,192,64507,1,8,0:0:0:0:
256,192,65507,1,8,0:0:0:0:
256,192,65757,1,8,0:0:0:0:
256,192,66257,1,0,0:0:0:0:
256,192,67007,1,8,0:0:0:0:
256,192,67507,1,8,0:0:0:0:
256,192,68007,1,0,0:0:0:0:
256,192,68507,1,8,0:0:0:0:
256,192,69507,1,0,0:0:0:0:
256,192,69757,1,0,0:0:0:0:
256,192,70257,1,8,0:0:0:0:
256,192,71007,1,8,0:0:0:0:
256,192,71507,1,0,0:0:0:0:
256,192,72007,1,8,0:0:0:0:
256,192,72507,1,0,0:0:0:0:
256,192,73507,1,8,0:0:0:0:
256,192,73757,1,8,0:0:0:0:
256,192,74257,1,0,0:0:0:0:
256,192,75007,1,8,0:0:0:0:
256,192,75507,1,8,0:0:0:0:
256,192,76007,1,0,0:0:0:0:
256,192,76507,1,8,0:0:0:0:
256,192,77507,1,8,0:0:0:0:
256,192,78007,1,0,0:0:0:0:
256,192,78507,1,8,0:0:0:0:
256,192,79507,1,8,0:0:0:0:
256,192,80007,1,4,0:0:0:0:
256,192,81007,1,0,0:0:0:0:
256,192,81507,1,8,0:0:0:0:
256,192,82007,1,8,0:0:0:0:
256,192,83007,1,0,0:0:0:0:
256,192,83507,1,0,0:0:0:0:
256,192,84007,1,8,0:0:0:0:
256,192,85007,1,0,0:0:0:0:
256,192,85507,1,0,0:0:0:0:
256,192,86007,1,8,0:0:0:0:
256,192,87007,1,0,0:0:0:0:
256,192,88007,1,8,0:0:0:0:
256,192,89007,1,0,0:0:0:0:
256,192,89507,1,8,0:0:0:0:
256,192,90007,1,8,0:0:0:0:
256,192,91007,1,0,0:0:0:0:
256,192,91507,1,8,0:0:0:0:
256,192,92007,1,8,0:0:0:0:
256,192,93007,1,0,0:0:0:0:
256,192,93507,1,0,0:0:0:0:
256,192,94007,1,8,0:0:0:0:
256,192,96007,1,4,0:0:0:0:
256,192,96507,1,8,0:0:0:0:
256,192,97507,1,8,0:0:0:0:
256,192,97757,1,8,0:0:0:0:
256,192,98257,1,0,0:0:0:0:
256,192,99007,1,8,0:0:0:0:
256,192,99507,1,0,0:0:0:0:
256,192,100007,1,8,0:0:0:0:
256,192,100507,1,0,0:0:0:0:
256,192,101507,1,0,0:0:0:0:
256,192,101757,1,0,0:0:0:0:
256,192,102257,1,8,0:0:0:0:
256,192,103007,1,8,0:0:0:0:
256,192,103507,1,0,0:0:0:0:
256,192,104007,1,8,0:0:0:0:
256,192,104507,1,0,0:0:0:0:
256,192,105507,1,8,0:0:0:0:
256,192,105757,1,8,0:0:0:0:
256,192,106257,1,0,0:0:0:0:
256,192,107007,1,8,0:0:0:0:
256,192,107507,1,0,0:0:0:0:
256,192,108007,1,8,0:0:0:0:
256,192,108507,1,8,0:0:0:0:
256,192,109507,1,8,0:0:0:0:
256,192,110007,1,0,0:0:0:0:
256,192,110507,1,8,0:0:0:0:
256,192,111507,1,8,0:0:0:0:
256,192,112007,1,4,0:0:0:0:
256,192,112507,1,8,0:0:0:0:
256,192,113507,1,8,0:0:0:0:
256,192,113757,1,8,0:0:0:0:
256,192,114257,1,0,0:0:0:0:
256,192,115007,1,8,0:0:0:0:
256,192,115507,1,8,0:0:0:0:
256,192,116007,1,0,0:0:0:0:
256,192,116507,1,8,0:0:0:0:
256,192,117507,1,0,0:0:0:0:
256,192,117757,1,0,0:0:0:0:
256,192,118257,1,8,0:0:0:0:
256,192,119007,1,8,0:0:0:0:
256,192,119507,1,0,0:0:0:0:
256,192,120007,1,8,0:0:0:0:
256,192,120507,1,0,0:0:0:0:
256,192,121507,1,8,0:0:0:0:
256,192,121757,1,8,0:0:0:0:
256,192,122257,1,0,0:0:0:0:
256,192,123007,1,8,0:0:0:0:
256,192,123507,1,8,0:0:0:0:
256,192,124007,1,0,0:0:0:0:
256,192,124507,1,8,0:0:0:0:
256,192,125507,1,8,0:0:0:0:
256,192,126007,1,0,0:0:0:0:
256,192,126507,1,8,0:0:0:0:
256,192,127507,1,8,0:0:0:0:
256,192,128007,5,4,0:0:0:0:
256,192,128507,1,8,0:0:0:0:
256,192,129507,1,8,0:0:0:0:
256,192,130257,1,0,0:0:0:0:
256,192,131007,1,0,0:0:0:0:
256,192,132007,1,0,0:0:0:0:
256,192,132507,1,8,0:0:0:0:
256,192,133507,1,8,0:0:0:0:
256,192,134257,1,0,0:0:0:0:
256,192,135007,1,0,0:0:0:0:
256,192,136007,1,0,0:0:0:0:
256,192,136507,1,8,0:0:0:0:
256,192,137507,1,0,0:0:0:0:
256,192,138257,1,8,0:0:0:0:
256,192,139007,1,0,0:0:0:0:
256,192,139507,1,8,0:0:0:0:
256,192,140007,1,0,0:0:0:0:
256,192,141007,1,8,0:0:0:0:
256,192,142007,1,0,0:0:0:0:
256,192,143007,1,0,0:0:0:0:
256,192,143507,1,8,0:0:0:0:
256,192,144007,1,0,0:0:0:0:
